#TITLE:Feelings Won't Fade(Extend Trance Mix);
#SUBTITLE:;
#ARTIST:SySF.;
#TITLETRANSLIT:;
#SUBTITLETRANSLIT:;
#ARTISTTRANSLIT:;
#CREDIT:;
#BANNER:Feelings Won't Fade (Extend Trance Mix).png;
#BACKGROUND:Feelings Won't Fade (Extend Trance Mix)-bg.png;
#LYRICSPATH:;
#CDTITLE:./CDTITLES/Dance Dance Revolution SuperNOVA.png;
#MUSIC:Feelings Won't Fade (Extend Trance Mix).mp3;
#OFFSET:-0.047;
#SAMPLESTART:66.680;
#SAMPLELENGTH:15.000;
#SELECTABLE:YES;
#BPMS:0.000=143.996;
#STOPS:;
#BGCHANGES:;

//---------------dance-single - ----------------
#NOTES:
     dance-single:
     :
     Hard:
     9:
     0.627,0.610,0.228,0.197,0.493: // measure 1
0000
0000
0000
0000
,  // measure 2
0000
0000
0000
0000
,  // measure 3
0000
0000
0000
0000
,  // measure 4
0000
0000
0000
0000
,  // measure 5
2000
0100
0010
3001
,  // measure 6
0002
0100
0010
1003
,  // measure 7
0002
0103
2000
3100
,  // measure 8
0101
1010
0011
1100
,  // measure 9
1001
0000
0001
0000
0100
0000
0000
0010
0000
0100
0000
0001
0000
0100
0010
0000
,  // measure 10
1000
0000
0100
0000
0010
0000
0000
0001
0000
0010
0000
0100
0000
1000
0000
0001
,  // measure 11
0100
0000
0010
0000
1000
0000
0000
0001
0000
0100
0000
1000
0000
0100
0001
0000
,  // measure 12
1000
0000
0010
0000
0001
0000
0000
0010
0000
1000
0000
0100
0000
1000
0000
0001
,  // measure 13
0010
0000
0001
0000
0100
0000
0000
0010
0000
1000
0000
0100
0000
0001
0100
0000
,  // measure 14
1000
0000
0010
0000
0100
0000
0000
0001
0000
0010
0000
0001
0000
0100
0000
0010
,  // measure 15
1000
0000
0001
0000
0100
0000
0000
0001
0000
1000
0000
0010
0000
1000
0100
0000
,  // measure 16
1000
0010
0100
0001
1000
0100
0010
0001
,  // measure 17
1000
0000
0000
1000
0100
0000
0000
0000
0001
0000
0100
0000
1000
0000
0010
0000
,  // measure 18
0001
0000
0010
0000
1000
0000
0001
0000
0100
0000
0000
0010
0000
0000
0100
0000
,  // measure 19
0002
0000
0013
0020
0000
0130
0100
1000
,  // measure 20
0001
0000
0101
0000
0100
0010
1000
0001
,  // measure 21
0020
0000
0130
0200
0000
1300
2000
0000
,  // measure 22
3001
0101
1000
1100
,  // measure 23
0002
0000
0103
0200
0000
0310
0020
0000
,  // measure 24
1030
0000
0000
0000
1010
0000
0000
0000
0001
0000
0000
0000
0011
0000
0001
1000
,  // measure 25
0001
1000
0001
0010
0001
0100
0001
1000
,  // measure 26
0001
0000
0000
0010
0000
0000
0100
0000
1000
0000
0000
0010
0000
0000
0100
0000
,  // measure 27
0002
0000
0103
0200
0000
0310
0010
1000
,  // measure 28
0100
0000
0011
0000
0001
0100
1000
0100
,  // measure 29
0002
0000
0013
0020
0000
0130
0100
0000
,  // measure 30
1000
1010
0010
0110
,  // measure 31
0200
0000
0301
0002
0000
0013
0020
0000
,  // measure 32
0130
0000
1100
0000
1000
0100
0001
0010
,  // measure 33
1000
0000
1001
0000
0001
0100
1000
0100
,  // measure 34
0001
0000
1001
0000
0001
0010
1000
0010
,  // measure 35
0001
0000
1001
0000
1000
0100
0001
0010
,  // measure 36
1000
0000
1001
0000
0001
0100
1000
0010
,  // measure 37
0001
0000
0000
0000
1001
0000
0000
0001
0100
0000
0010
0000
0100
0000
0001
0000
,  // measure 38
0010
0000
0000
0000
0110
0000
0000
0100
1000
0000
0010
0000
0100
0000
0001
0000
,  // measure 39
1000
0000
0000
0000
1010
0000
0000
0010
1000
0000
0100
0000
0001
0000
0010
0000
,  // measure 40
1000
1000
0100
0100
0010
0010
0001
0001
,  // measure 41
1000
0010
0000
1000
0010
0000
1000
0000
0001
0100
0000
0001
0100
0000
0001
0000
,  // measure 42
1000
0100
0000
1000
0100
0000
1000
0000
0001
0010
0000
0001
0010
0000
0001
0000
,  // measure 43
0100
0010
0000
0100
0010
0000
0100
0000
0001
1000
0000
0001
1000
0000
0001
0000
,  // measure 44
1000
0010
0000
1000
0010
0000
0100
0000
0001
0010
0000
0001
0010
0000
0100
0000
,  // measure 45
1000
0100
0000
0001
0100
0000
1000
0000
0001
0010
0000
1000
0010
0000
0001
0000
,  // measure 46
0100
0010
0000
1000
0010
0000
0100
0000
0001
0010
0000
0100
0010
0000
0001
0000
,  // measure 47
1000
0100
0000
0001
0100
0000
1000
0000
0001
0010
0000
1000
0010
0000
0001
0000
,  // measure 48
1000
0100
0001
0100
1000
0010
0001
0010
,  // measure 49
1000
0010
0000
1000
0010
0000
0100
0000
0001
1000
0000
0001
1000
0000
0001
0000
,  // measure 50
0010
0100
0000
0010
0100
0000
0010
0000
0100
1000
0000
0100
1000
0000
0010
0000
,  // measure 51
0100
0001
0000
0010
0001
0000
0100
0000
0010
1000
0000
0010
0100
0000
0010
0000
,  // measure 52
1000
0100
0000
0010
0100
0000
1000
0000
0001
0100
0000
0010
0100
0000
0001
0000
,  // measure 53
1000
0100
0000
0001
0100
0000
1000
0000
0001
0010
0000
1000
0010
0000
0001
0000
,  // measure 54
1000
0100
0000
0010
0001
0000
1000
0000
0001
0100
0000
0010
1000
0000
0001
0000
,  // measure 55
1000
0100
0000
0010
0001
0000
1000
0000
0010
0100
0000
0001
1000
0000
0001
0000
,  // measure 56
1000
1000
0100
0100
0010
0010
0001
0001
,  // measure 57
1001
0000
0000
0000
;

//---------------dance-single - ----------------
#NOTES:
     dance-single:
     :
     Beginner:
     1:
     0.108,0.145,0.010,0.000,0.000: // measure 1
0000
0000
0000
0000
,  // measure 2
0000
0000
0000
0000
,  // measure 3
0000
0000
0000
0000
,  // measure 4
0000
0000
0000
0000
,  // measure 5
1000
0000
0000
0000
,  // measure 6
0100
0000
0000
0000
,  // measure 7
0010
0000
0000
0000
,  // measure 8
0001
0000
0001
0000
,  // measure 9
0001
0000
0000
0000
,  // measure 10
0100
0000
0000
0000
,  // measure 11
0010
0000
0000
0000
,  // measure 12
1000
0000
1000
0000
,  // measure 13
1000
0000
0000
0000
,  // measure 14
0001
0000
0000
0000
,  // measure 15
0100
0000
0000
0000
,  // measure 16
0010
0000
0010
0000
,  // measure 17
0010
0000
0000
0000
,  // measure 18
1000
0000
0000
0000
,  // measure 19
0001
0000
0001
0000
,  // measure 20
0001
0000
0000
0000
,  // measure 21
1000
0000
0000
0000
,  // measure 22
0100
0000
0000
0000
,  // measure 23
0010
0000
0010
0000
,  // measure 24
0010
0000
0000
0000
,  // measure 25
0100
0000
0000
0000
,  // measure 26
1000
0000
0000
0000
,  // measure 27
0001
0000
0001
0000
,  // measure 28
0001
0000
0000
0000
,  // measure 29
0010
0000
0000
0000
,  // measure 30
0100
0000
0000
0000
,  // measure 31
1000
0000
1000
0000
,  // measure 32
1000
0000
0000
0000
,  // measure 33
0010
0000
0010
0000
,  // measure 34
0010
0000
0010
0000
,  // measure 35
0100
0000
0100
0000
,  // measure 36
0100
0000
0100
0000
,  // measure 37
0001
0000
0001
0000
,  // measure 38
0001
0000
0001
0000
,  // measure 39
1000
0000
1000
0000
,  // measure 40
1000
0000
1000
0000
,  // measure 41
0010
0000
0000
0000
,  // measure 42
0100
0000
0000
0000
,  // measure 43
0001
0000
0000
0000
,  // measure 44
1000
0000
1000
0000
,  // measure 45
1000
0000
0000
0000
,  // measure 46
0010
0000
0000
0000
,  // measure 47
0100
0000
0000
0000
,  // measure 48
0001
0000
0001
0000
,  // measure 49
0001
0000
0000
0000
,  // measure 50
0010
0000
0000
0000
,  // measure 51
0100
0000
0000
0000
,  // measure 52
1000
0000
1000
0000
,  // measure 53
1000
0000
0000
0000
,  // measure 54
0001
0000
0000
0000
,  // measure 55
0010
0000
0000
0000
,  // measure 56
0100
0000
0100
0000
,  // measure 57
1001
0000
0000
0000
;

//---------------dance-single - ----------------
#NOTES:
     dance-single:
     :
     Easy:
     4:
     0.289,0.291,0.021,0.000,0.000: // measure 1
0000
0000
0000
0000
,  // measure 2
0000
0000
0000
0000
,  // measure 3
0000
0000
0000
0000
,  // measure 4
0000
0000
0000
0000
,  // measure 5
1000
0100
1000
0100
,  // measure 6
0001
0100
0001
0100
,  // measure 7
1000
0010
1000
0010
,  // measure 8
0001
0001
0001
0001
,  // measure 9
0010
1000
0100
1000
,  // measure 10
0001
1000
0010
1000
,  // measure 11
0001
0010
0001
0100
,  // measure 12
0001
1000
0001
0010
,  // measure 13
0001
0100
0010
1000
,  // measure 14
0001
0010
0100
1000
,  // measure 15
0001
0010
1000
0010
,  // measure 16
0001
0100
1000
0100
,  // measure 17
0001
0000
1000
0000
,  // measure 18
0010
0100
0010
0100
,  // measure 19
0001
0000
1000
0000
,  // measure 20
0100
0010
0100
0010
,  // measure 21
0100
0000
1000
0000
,  // measure 22
0001
0100
0010
0100
,  // measure 23
0001
0000
1000
0000
,  // measure 24
0100
0010
0100
1000
,  // measure 25
1001
0000
0001
0000
,  // measure 26
0010
0001
0100
1000
,  // measure 27
0100
0000
0001
0000
,  // measure 28
0010
1000
0010
0001
,  // measure 29
0100
0000
0010
0000
,  // measure 30
1000
0100
0001
0100
,  // measure 31
1000
0000
0010
0000
,  // measure 32
0001
0100
1000
0100
,  // measure 33
0001
0001
0010
0010
,  // measure 34
0100
0100
1000
1000
,  // measure 35
0001
0001
0100
0100
,  // measure 36
0010
0010
1000
1000
,  // measure 37
0001
0001
0010
0010
,  // measure 38
0100
0100
1000
1000
,  // measure 39
0001
0001
0100
0100
,  // measure 40
0010
0010
1000
1000
,  // measure 41
0001
0100
1000
0100
,  // measure 42
0001
0100
1000
0100
,  // measure 43
0001
0010
1000
0010
,  // measure 44
0001
0010
1000
0010
,  // measure 45
0001
0100
1000
0100
,  // measure 46
0001
0010
1000
0010
,  // measure 47
0001
0100
1000
0010
,  // measure 48
0001
0100
1000
0010
,  // measure 49
0001
0010
1000
0010
,  // measure 50
0001
0010
1000
0010
,  // measure 51
0001
0100
1000
0100
,  // measure 52
0001
0100
1000
0100
,  // measure 53
0001
0010
1000
0010
,  // measure 54
0001
0100
1000
0100
,  // measure 55
0001
0010
1000
0100
,  // measure 56
0001
0010
1000
0100
,  // measure 57
1001
0000
0000
0000
;

//---------------dance-single - ----------------
#NOTES:
     dance-single:
     :
     Medium:
     6:
     0.494,0.494,0.249,0.135,0.000: // measure 1
0000
0000
0000
0000
,  // measure 2
0000
0000
0000
0000
,  // measure 3
0000
0000
0000
0000
,  // measure 4
0000
0000
0000
0000
,  // measure 5
1000
0100
0010
0011
,  // measure 6
0001
0100
0010
1010
,  // measure 7
1000
0010
0100
1001
,  // measure 8
0002
0023
0230
2300
,  // measure 9
3001
0100
1000
0000
1000
0100
0001
0000
,  // measure 10
0001
0100
1000
0000
0001
0000
1001
0000
,  // measure 11
1000
0010
0001
0000
0001
0010
1000
0000
,  // measure 12
1000
0010
0001
0000
1000
0000
1001
0000
,  // measure 13
0001
0100
1000
0000
0001
0010
1000
0000
,  // measure 14
0001
0100
1000
0000
0001
0000
1001
0000
,  // measure 15
0001
0010
1000
0000
0001
0100
1000
0000
,  // measure 16
1100
0011
0101
1010
,  // measure 17
1001
0000
1000
0000
0001
0100
0010
0000
,  // measure 18
1000
0000
0100
0000
0010
0001
1000
0000
,  // measure 19
0002
0010
0103
1001
,  // measure 20
2000
0010
3100
1001
,  // measure 21
0001
0100
0001
0000
0100
1000
0100
0000
,  // measure 22
1000
0010
1000
0000
0010
0001
0010
0000
,  // measure 23
0001
0100
0001
0000
0100
1000
0100
0000
,  // measure 24
1000
0010
1000
0000
0010
0001
0010
0000
,  // measure 25
1001
0000
0001
0000
1000
0010
0100
0000
,  // measure 26
0001
0000
0010
0000
0100
1000
0001
0000
,  // measure 27
2000
0100
3010
1001
,  // measure 28
0002
0100
0013
1001
,  // measure 29
1000
0010
1000
0000
0010
0001
0010
0000
,  // measure 30
0001
0100
0001
0000
0100
1000
0100
0000
,  // measure 31
1000
0010
1000
0000
0010
0001
0010
0000
,  // measure 32
0001
0100
0001
0000
0100
1000
0100
0000
,  // measure 33
1000
0000
1001
0000
0001
0100
0001
0100
,  // measure 34
0010
0000
0110
0000
0010
1000
0010
1000
,  // measure 35
0001
0000
1001
0000
0001
0100
0001
0100
,  // measure 36
0010
0000
1010
0000
1000
0100
1000
0100
,  // measure 37
0010
0000
0011
0000
0001
0100
0010
0100
,  // measure 38
0001
0000
0101
0000
0001
0010
0100
0010
,  // measure 39
0001
0000
0011
0000
0001
0100
0010
1000
,  // measure 40
0002
0023
0230
1300
,  // measure 41
0001
0100
0001
0000
0100
0010
0100
0000
,  // measure 42
0010
1000
0010
0000
1000
0100
1000
0000
,  // measure 43
0100
0010
0100
0000
0010
0001
0010
0000
,  // measure 44
0001
0100
0001
0000
0100
0010
0100
0000
,  // measure 45
0010
1000
0001
0000
0100
0001
1000
0000
,  // measure 46
0010
1000
0100
0000
0010
0001
0100
0000
,  // measure 47
0010
1000
0100
0000
0001
0100
1000
0000
,  // measure 48
0020
0130
0002
1003
,  // measure 49
0001
0010
1000
0010
0001
0010
1000
0010
,  // measure 50
0001
0010
1000
0010
0001
0010
1000
0000
,  // measure 51
0001
0100
1000
0100
0001
0100
1000
0100
,  // measure 52
0001
0100
1000
0100
0001
0100
1000
0000
,  // measure 53
0001
0100
0010
0100
0001
0100
0010
0100
,  // measure 54
0001
0100
0010
0100
0001
0100
0010
0000
,  // measure 55
1000
0100
0010
0100
1000
0100
0010
0100
,  // measure 56
1000
0100
0010
0100
1000
0100
0010
0000
,  // measure 57
1001
0000
0000
0000
;
