#TITLE:Disco the ground;
#SUBTITLE:;
#ARTIST:sampling disaster 咲-SAKI-;
#TITLETRANSLIT:;
#SUBTITLETRANSLIT:;
#ARTISTTRANSLIT:sampling disaster -SAKI-;
#CREDIT:;
#BANNER:Disco the ground.png;
#BACKGROUND:Disco the ground-bg.png;
#LYRICSPATH:;
#CDTITLE:;
#MUSIC:Disco the ground.mp3;
#OFFSET:-0.073;
#SAMPLESTART:17.165;
#SAMPLELENGTH:16.420;
#SELECTABLE:YES;
#BPMS:0.000=140.000;
#STOPS:147.750=1.714
;
#BGCHANGES:;

//---------------dance-single - ----------------
#NOTES:
     dance-single:
     :
     Hard:
     8:
     0.660,0.596,0.738,0.062,0.315: // measure 1
0000
0000
0000
0000
,  // measure 2
1000
0000
0000
1001
0000
0000
0001
0000
0100
0000
0010
0000
1010
0000
0000
0000
,  // measure 3
1000
0000
0000
1100
0000
0000
0100
0000
0010
0000
0000
0000
0011
0000
0000
0000
,  // measure 4
0001
0000
0000
1001
0000
0000
1000
0000
0010
0000
0100
0000
0101
0000
0001
0000
,  // measure 5
0010
0000
0000
0110
0000
0000
0100
0000
1000
0000
1000
0000
0001
0000
0001
0000
,  // measure 6
0100
0000
0000
0110
0000
0000
0010
0000
1000
0000
0001
0000
0101
0000
0000
0000
,  // measure 7
0001
0000
0000
0011
0000
0000
0010
0000
0100
0000
0000
0000
1100
0000
0000
0000
,  // measure 8
1000
0000
0000
1010
0000
0000
0010
0000
0100
0000
0001
0000
0101
0000
0100
0000
,  // measure 9
0010
0000
0010
0000
1000
0000
1000
0000
0001
0000
0001
0000
0100
0010
0000
0000
,  // measure 10
2002
0000
0000
3003
,  // measure 11
1000
0100
0010
0001
0100
0010
1010
0000
,  // measure 12
0010
0000
0100
0000
0001
0000
0000
1000
0000
0001
0000
0010
0001
0000
0100
0000
,  // measure 13
0010
1000
0100
1000
0001
0010
0011
0000
,  // measure 14
0001
0000
0100
0000
0010
0000
1000
0000
0100
0000
0010
0100
0000
1000
0001
0000
,  // measure 15
0100
0010
1000
0100
1000
0001
0101
0000
,  // measure 16
0100
0000
0010
0000
1000
0000
0000
0010
0000
0100
0000
0001
0010
0000
0001
0000
,  // measure 17
0100
0010
1000
0100
1000
0001
0011
0000
,  // measure 18
0101
0000
0110
0000
1010
1010
1010
0000
,  // measure 19
1001
0000
0101
0000
0100
0010
1010
0000
,  // measure 20
1000
0000
0100
0000
0110
0000
0000
0011
0000
0000
0001
0000
1000
0000
1000
0000
,  // measure 21
1001
0000
0000
0000
0101
0000
0000
0100
0000
0000
0010
0000
1010
0000
0000
0000
,  // measure 22
1000
0000
0100
0000
0110
0000
0000
0010
0001
0000
0001
0000
1000
0000
1000
0000
,  // measure 23
1010
0000
0000
0000
0110
0000
0000
0100
0000
0000
0001
0000
1001
0000
0000
0000
,  // measure 24
1000
0000
0100
0000
0110
0000
0000
0011
0000
0000
0001
0000
1000
0000
1000
0000
,  // measure 25
1010
0000
0000
0000
0110
0000
0000
0100
0000
0000
0001
0000
0011
0000
0000
0000
,  // measure 26
0110
0000
0110
0000
1100
0000
0000
0000
1001
0000
0000
0000
0100
0010
0100
0010
,  // measure 27
0100
0000
0010
0000
1000
0000
0000
1000
0010
0000
0100
0000
0001
0000
0000
0000
,  // measure 28
1000
0000
0100
0010
0100
0000
1000
0000
0001
0100
0001
0000
0100
0000
0000
0000
,  // measure 29
0010
0010
1000
1000
0100
0010
0001
0000
,  // measure 30
0100
0100
0010
0010
1000
0100
0010
0000
,  // measure 31
0001
0000
0100
0001
0000
1000
0000
0100
1000
0000
0010
0000
0100
0000
0001
0000
,  // measure 32
1000
0010
1000
0001
0100
0001
0010
0100
,  // measure 33
0000
0000
1000
0010
1000
0000
0010
0000
0110
0000
0000
0000
0101
0000
0000
0000
,  // measure 34
0001
0010
0100
1000
1100
0000
1001
0000
,  // measure 35
1000
0010
0100
0002
0010
0010
0013
0000
,  // measure 36
0001
0010
0100
2000
0001
0001
3001
0000
,  // measure 37
1000
0000
0010
0100
0010
0000
0200
0000
0001
0000
0001
0000
0301
0000
0000
0000
,  // measure 38
1000
0100
0010
0001
1000
1000
0001
0001
,  // measure 39
1000
0100
0010
0001
0100
0100
0010
0010
,  // measure 40
0110
1010
1100
0110
,  // measure 41
0011
1001
0210
1300
,  // measure 42
0001
0000
0000
1001
0000
0000
1000
0000
0010
0000
0100
0000
0101
0000
0000
0000
,  // measure 43
0001
0000
0000
0011
0000
0000
0010
0000
0100
0000
0000
0000
1100
0000
0000
0000
,  // measure 44
1000
0000
0000
1001
0000
0000
0001
0000
0100
0000
0010
0000
1010
0000
1000
0000
,  // measure 45
0100
0000
0000
0110
0000
0000
0010
0000
0001
0000
0001
0000
1000
0000
1000
0000
,  // measure 46
0010
0000
0000
0110
0000
0000
0100
0000
0001
0000
1000
0000
1010
0000
0000
0000
,  // measure 47
1000
0000
0000
1100
0000
0000
0100
0000
0010
0000
0000
0000
0011
0000
0000
0000
,  // measure 48
0001
0000
0000
0101
0000
0000
0100
0000
0010
0000
1000
0000
1010
0000
0010
0000
,  // measure 49
0220
0000
0000
0330
,  // measure 50
0101
0000
0000
0000
1010
0000
0000
1000
0000
0100
0000
0010
0001
0000
1000
0000
,  // measure 51
1001
0000
0001
0000
0100
0010
0000
1000
0000
0010
0000
0100
0001
0000
0010
0000
,  // measure 52
0100
1000
0010
1000
0100
0010
0011
0000
,  // measure 53
1000
0000
0010
0000
0100
0000
0001
0000
0010
0100
0000
0010
0000
0001
1000
0000
,  // measure 54
0010
0100
0001
0010
0001
1000
1010
0000
,  // measure 55
0010
0000
0100
0000
0001
1000
0000
0100
0000
1000
0000
0001
0010
0000
0001
0000
,  // measure 56
1000
0010
0100
0001
1000
0100
0110
0000
,  // measure 57
0100
0000
0010
0000
0001
0000
1000
0000
0010
0100
0010
0100
0010
0000
1000
0000
,  // measure 58
1001
0000
0000
0000
1010
0000
0000
0010
0000
0100
0000
0001
0100
0000
0010
0000
,  // measure 59
0110
0000
0010
0000
1000
0001
0000
1000
0000
0001
0000
0010
0001
0000
0100
0000
,  // measure 60
0010
1000
0100
1000
0001
0010
0011
0000
,  // measure 61
0001
0000
0100
0000
0010
0000
1000
0000
0100
0010
0000
0100
0000
1000
0001
0000
,  // measure 62
0100
0010
1000
0100
1000
0001
0101
0000
,  // measure 63
0100
0000
0010
0000
1000
0010
0000
0100
0000
0001
0000
0010
0001
0000
0100
0000
,  // measure 64
0010
1000
0100
0001
0100
1000
1010
0000
,  // measure 65
1000
0000
0010
0000
0100
0000
0001
0000
1000
0001
1000
0001
1000
0000
0010
0000
,  // measure 66
0001
0000
0000
0011
0000
0000
0001
0000
0010
0000
0100
0000
0101
0000
0000
0000
,  // measure 67
0001
0000
0000
0011
0000
0000
0010
0000
0100
0000
0000
0000
1100
0000
0000
0000
,  // measure 68
1000
0000
0000
1001
0000
0000
0001
0000
0100
0000
0010
0000
1010
0000
1000
0000
,  // measure 69
0100
0000
0000
0110
0000
0000
0010
0000
0001
0000
0001
0000
1000
0000
1000
0000
,  // measure 70
0100
0000
0000
0110
0000
0000
0010
0000
0001
0000
1000
0000
1010
0000
0000
0000
,  // measure 71
1000
0000
0000
1100
0000
0000
0100
0000
0010
0000
0000
0000
0011
0000
0000
0000
,  // measure 72
0001
0000
0000
0101
0000
0000
0100
0000
0010
0000
1000
0000
1010
0000
0010
0000
,  // measure 73
0100
0000
0000
0101
0000
0000
0001
0000
0010
0000
0010
0000
0100
1000
0100
0010
,  // measure 74
0001
0000
0000
0000
;

//---------------dance-single - ----------------
#NOTES:
     dance-single:
     :
     Beginner:
     1:
     0.127,0.199,0.023,0.031,0.000: // measure 1
0000
0000
0000
0000
,  // measure 2
1000
0000
0000
0000
,  // measure 3
0001
0000
0001
0000
,  // measure 4
0001
0000
0000
0000
,  // measure 5
0100
0000
0100
0000
,  // measure 6
0100
0000
0000
0000
,  // measure 7
0010
0000
0010
0000
,  // measure 8
0010
0000
0000
0000
,  // measure 9
1000
0000
1000
0000
,  // measure 10
2002
0000
0000
3003
,  // measure 11
0001
0000
0001
0000
,  // measure 12
0001
0000
0000
0000
,  // measure 13
0010
0000
0010
0000
,  // measure 14
0010
0000
0000
0000
,  // measure 15
0100
0000
0100
0000
,  // measure 16
0100
0000
0000
0000
,  // measure 17
1000
0000
1000
0000
,  // measure 18
0001
0000
0001
0000
,  // measure 19
1000
0000
0000
0000
,  // measure 20
0010
0000
0000
0000
,  // measure 21
0100
0000
0000
0000
,  // measure 22
0001
0000
0001
0000
,  // measure 23
0001
0000
0000
0000
,  // measure 24
0010
0000
0000
0000
,  // measure 25
0100
0000
0000
0000
,  // measure 26
1000
0000
1000
0000
,  // measure 27
1000
0000
0000
0000
,  // measure 28
0001
0000
0001
0000
,  // measure 29
0001
0000
0000
0000
,  // measure 30
0100
0000
0100
0000
,  // measure 31
0100
0000
0000
0000
,  // measure 32
0010
0000
0010
0000
,  // measure 33
0010
0000
0000
0000
,  // measure 34
1000
0000
1000
0000
,  // measure 35
1000
0000
0000
0000
,  // measure 36
0001
0000
0000
0000
,  // measure 37
0010
0000
0000
0000
,  // measure 38
0100
0000
0000
0000
,  // measure 39
1000
0000
0000
0000
,  // measure 40
0100
0000
0100
0000
,  // measure 41
0100
0000
0100
0000
,  // measure 42
0100
0000
0000
0000
,  // measure 43
0010
0000
0010
0000
,  // measure 44
0010
0000
0000
0000
,  // measure 45
0001
0000
0001
0000
,  // measure 46
0001
0000
0000
0000
,  // measure 47
1000
0000
1000
0000
,  // measure 48
1000
0000
0000
0000
,  // measure 49
0220
0000
0000
0330
,  // measure 50
1000
0000
1000
0000
,  // measure 51
1000
0000
0000
0000
,  // measure 52
0001
0000
0001
0000
,  // measure 53
0001
0000
0000
0000
,  // measure 54
0010
0000
0010
0000
,  // measure 55
0010
0000
0000
0000
,  // measure 56
0100
0000
0100
0000
,  // measure 57
1000
0000
1000
0000
,  // measure 58
0001
0000
0001
0000
,  // measure 59
0001
0000
0000
0000
,  // measure 60
0010
0000
0010
0000
,  // measure 61
0010
0000
0000
0000
,  // measure 62
0100
0000
0100
0000
,  // measure 63
0100
0000
0000
0000
,  // measure 64
1000
0000
1000
0000
,  // measure 65
0001
0000
0001
0000
,  // measure 66
1000
0000
0000
0000
,  // measure 67
0010
0000
0010
0000
,  // measure 68
0010
0000
0000
0000
,  // measure 69
0100
0000
0100
0000
,  // measure 70
0100
0000
0000
0000
,  // measure 71
0001
0000
0001
0000
,  // measure 72
0001
0000
0000
0000
,  // measure 73
1000
0000
1000
0000
,  // measure 74
1001
0000
0000
0000
;

//---------------dance-single - ----------------
#NOTES:
     dance-single:
     :
     Easy:
     4:
     0.290,0.284,0.023,0.031,0.000: // measure 1
0000
0000
0000
0000
,  // measure 2
1000
0100
1000
1000
,  // measure 3
0001
0100
0001
0001
,  // measure 4
1000
0010
1000
1000
,  // measure 5
0001
0010
0001
0001
,  // measure 6
1000
0001
0100
0100
,  // measure 7
0001
1000
0100
0100
,  // measure 8
1000
0001
0010
0010
,  // measure 9
0001
0100
0010
1000
,  // measure 10
2002
0000
0000
3003
,  // measure 11
1000
0100
0010
0001
,  // measure 12
1000
0000
0001
0000
,  // measure 13
1000
0010
0100
0001
,  // measure 14
1000
0000
0001
0000
,  // measure 15
1000
0100
0001
0100
,  // measure 16
1000
0000
0001
0000
,  // measure 17
1000
0010
0001
0010
,  // measure 18
1000
1000
0001
0001
,  // measure 19
0100
0100
0000
0010
,  // measure 20
0000
1000
0100
0010
,  // measure 21
0001
0001
0000
1000
,  // measure 22
0001
0001
0100
0100
,  // measure 23
0010
1000
0000
0100
,  // measure 24
0000
1000
0001
0001
,  // measure 25
1000
1000
1000
0010
,  // measure 26
0100
0100
0001
0001
,  // measure 27
1000
0001
0010
0001
,  // measure 28
1000
0010
1000
0001
,  // measure 29
1000
1000
0100
0100
,  // measure 30
0010
0010
0001
0001
,  // measure 31
1000
0010
0100
0001
,  // measure 32
1000
0100
0010
0001
,  // measure 33
1000
0010
0001
0010
,  // measure 34
1000
0100
0001
0100
,  // measure 35
1000
0000
0001
0100
,  // measure 36
0001
0000
1000
0010
,  // measure 37
1000
0000
0001
0010
,  // measure 38
0001
0000
0100
0010
,  // measure 39
1000
0000
0100
0010
,  // measure 40
0100
0100
0100
0100
,  // measure 41
0100
0100
0100
0000
,  // measure 42
1000
0100
1000
1000
,  // measure 43
0001
0100
0001
0001
,  // measure 44
1000
0010
1000
1000
,  // measure 45
0001
0010
0001
0001
,  // measure 46
1000
0001
0100
0100
,  // measure 47
0001
1000
0100
0100
,  // measure 48
1000
0001
0010
0010
,  // measure 49
2002
0000
0000
3003
,  // measure 50
1000
0100
0010
0001
,  // measure 51
1000
0000
0001
0000
,  // measure 52
1000
0010
0100
0001
,  // measure 53
1000
0000
0001
0000
,  // measure 54
1000
0100
0001
0100
,  // measure 55
1000
0000
0001
0000
,  // measure 56
1000
0010
0001
0010
,  // measure 57
1000
1000
0001
0001
,  // measure 58
1000
0100
0010
0001
,  // measure 59
1000
0000
0001
0000
,  // measure 60
1000
0010
0100
0001
,  // measure 61
1000
0000
0001
0000
,  // measure 62
1000
0100
0001
0100
,  // measure 63
1000
0000
0001
0000
,  // measure 64
1000
0010
0001
0010
,  // measure 65
1000
1000
0001
0001
,  // measure 66
1000
0100
1000
1000
,  // measure 67
0001
0100
0001
0001
,  // measure 68
1000
0010
1000
1000
,  // measure 69
0001
0010
0001
0001
,  // measure 70
1000
0001
0100
0100
,  // measure 71
0001
1000
0100
0100
,  // measure 72
1000
0001
0010
0010
,  // measure 73
0001
0100
0010
1000
,  // measure 74
1001
0000
0000
0000
;

//---------------dance-single - ----------------
#NOTES:
     dance-single:
     :
     Medium:
     6:
     0.496,0.482,0.474,0.062,0.000: // measure 1
0000
0000
0000
0000
,  // measure 2
1000
0000
0100
0000
0010
0001
0010
0000
,  // measure 3
0001
0000
0100
0001
0100
0000
1010
0000
,  // measure 4
1000
0000
0100
0000
0010
0001
0010
0001
,  // measure 5
0010
0000
0001
0200
0010
0000
0310
0000
,  // measure 6
0100
0000
0010
0000
1000
0100
1000
0000
,  // measure 7
0001
0000
0100
0001
0100
0000
0110
0000
,  // measure 8
0010
0000
1000
0000
0001
0010
0001
0010
,  // measure 9
0001
0001
1000
1000
0001
0001
1000
0000
,  // measure 10
2002
0000
0000
3003
,  // measure 11
1000
0001
1000
0001
0100
0010
0100
0000
,  // measure 12
0010
0101
0010
1001
,  // measure 13
0001
1000
0001
1000
0010
0100
0010
0000
,  // measure 14
1000
0101
0001
1100
,  // measure 15
0001
0010
0001
0010
0100
1000
0100
0000
,  // measure 16
0010
0101
0010
1100
,  // measure 17
0001
0100
0001
0100
0010
1000
0010
0000
,  // measure 18
1001
0000
1001
0000
0010
0100
0010
0000
,  // measure 19
1100
1100
0100
0110
,  // measure 20
0010
0000
0011
0000
0001
0000
1000
0100
,  // measure 21
1000
0101
0010
1100
,  // measure 22
0001
1000
0001
0000
0100
0010
0100
0010
,  // measure 23
1000
1010
0010
0110
,  // measure 24
0100
0000
0101
0000
0001
0000
1000
0100
,  // measure 25
1000
1100
0100
0110
,  // measure 26
0001
1000
0001
0000
0101
0000
1010
0000
,  // measure 27
1000
0100
1000
0000
0001
0100
0001
0000
,  // measure 28
1000
0010
1000
0000
0001
0010
0001
0000
,  // measure 29
1100
1100
0011
0011
,  // measure 30
0101
0101
1010
1010
,  // measure 31
0001
0100
0001
0000
1000
0010
1000
0000
,  // measure 32
0001
0010
0001
0000
1000
0100
1000
0000
,  // measure 33
0001
0010
0001
0000
0011
0000
0011
0000
,  // measure 34
1000
0100
1000
0000
1100
0000
1100
0000
,  // measure 35
0100
0000
0010
0000
0001
0100
0001
0000
,  // measure 36
0100
0000
0010
0000
1000
0001
1000
0000
,  // measure 37
0100
0000
0010
0000
0001
0100
0001
0000
,  // measure 38
1000
0000
0100
0000
0010
0001
0010
0001
,  // measure 39
0010
0000
0001
0000
0100
0010
0100
0010
,  // measure 40
0100
0010
1000
0100
,  // measure 41
0110
0110
0210
0301
,  // measure 42
1000
0000
0100
0000
0010
0001
0010
0000
,  // measure 43
0001
0000
0100
0001
0100
0000
1010
0000
,  // measure 44
1000
0000
0100
0000
0010
0001
0010
0001
,  // measure 45
0010
0000
0001
0200
0010
0000
0310
0000
,  // measure 46
0100
0000
0010
0000
1000
0100
1000
0000
,  // measure 47
0001
0000
0100
0001
0100
0000
0110
0000
,  // measure 48
0010
0000
1000
0000
0001
0010
0001
0010
,  // measure 49
2002
0000
0000
3003
,  // measure 50
1000
0001
1000
0001
0100
0010
0100
0000
,  // measure 51
0010
0101
0010
1001
,  // measure 52
0001
1000
0001
1000
0010
0100
0010
0000
,  // measure 53
1000
0101
0001
1100
,  // measure 54
0001
0010
0001
0010
0100
1000
0100
0000
,  // measure 55
0010
0101
0010
1100
,  // measure 56
0001
0100
0001
0100
0010
1000
0010
0000
,  // measure 57
1001
0000
1001
0000
0010
0100
0010
0000
,  // measure 58
0001
1000
0001
1000
0010
0100
0010
0000
,  // measure 59
0100
1010
0100
1001
,  // measure 60
1000
0001
1000
0001
0100
0010
0100
0000
,  // measure 61
0001
1010
1000
0011
,  // measure 62
1000
0100
1000
0100
0010
0001
0010
0000
,  // measure 63
0100
1010
0100
0011
,  // measure 64
1000
0010
1000
0010
0100
0001
0100
0000
,  // measure 65
1001
0000
1001
0000
0100
0010
0100
0000
,  // measure 66
1000
0000
0100
0000
0010
0001
0010
0000
,  // measure 67
0001
0000
0100
0001
0100
0000
1010
0000
,  // measure 68
1000
0000
0100
0000
0010
0001
0010
0001
,  // measure 69
0010
0000
0001
0200
0010
0000
0310
0000
,  // measure 70
0100
0000
0010
0000
1000
0100
1000
0000
,  // measure 71
0001
0000
0100
0001
0100
0000
0110
0000
,  // measure 72
0010
0000
1000
0000
0001
0010
0001
0010
,  // measure 73
0001
0001
1000
1000
0001
0001
1000
0000
,  // measure 74
1001
0000
0000
0000
;
