
//----- song ID: mari -----//
#TITLE:MARIA(I believe...);
#ARTIST:NAOKI feat. PAULA TERRY;
#BANNER:MARIA(I believe...).png;
#BACKGROUND:MARIA(I believe...)-bg.png;
#CDTITLE:./CDTITLES/BEATMANIA IIDX.PNG;
#MUSIC:MARIA(I believe...).ogg;
#SAMPLESTART:53.17;
#SAMPLELENGTH:15;
#DISPLAYBPM:158;
#BPMS:0=157,4=158;

//---------------dance-single - ----------------
#NOTES:
     dance-single:
     :
     Beginner:
     3:
     :
0000
0000
0000
0000
,
0000
0000
0000
0000
,
0000
0000
0000
0000
,
0000
0000
0000
0000
,
0000
0000
0000
0000
,
0010
0000
1000
0000
,
1000
0000
0100
0000
,
2000
0000
0000
3000
,
1000
0000
0001
0000
,
0002
0000
0000
0003
,
0001
0000
0100
0000
,
0010
0000
0000
1000
,
1000
0000
0000
0010
,
0010
0000
0010
0000
,
0100
0000
0000
0001
,
0001
0000
0001
0000
,
1000
0000
0001
0000
,
0100
0000
0001
0000
,
1001
0000
0000
0000
,
0010
0000
0100
0000
,
0010
0000
0100
0100
,
0100
0000
0001
0000
,
0001
0000
1000
1000
,
1000
0000
0100
0000
,
0100
0000
0010
0010
,
0010
0000
0001
0000
,
0001
0000
1000
1000
,
2000
0000
0000
3000
,
1000
0000
0010
0000
,
0010
0000
0100
0000
,
0001
0000
0001
0000
,
0100
0000
0010
0000
,
0100
0000
0010
0000
,
1000
0000
0100
0000
,
0010
0000
0001
0001
,
0001
0000
0000
1000
,
1000
0000
0000
0100
,
0100
0000
0000
0000
,
0010
0000
0010
0000
,
1000
0000
0000
0001
,
0001
0000
0000
1000
,
1000
0000
0010
0000
,
0200
0000
0000
0300
,
0100
0100
0100
0000
,
0001
0000
0001
0000
,
0010
0010
0010
0000
,
0100
0000
0100
0000
,
1000
1000
1000
0000
,
0001
0000
0100
0000
,
0100
0000
0001
0000
,
2000
0000
0000
3000
,
1000
0000
0001
0000
,
1001
0000
0000
0000
,
0000
0000
0000
0000
;

//---------------dance-single - ----------------
#NOTES:
     dance-single:
     :
     Easy:
     5:
     :
0000
0000
0000
0000
,
0000
0000
0000
0000
,
0000
0000
0000
0000
,
0000
0000
0000
0000
,
0000
0000
0000
0000
,
0010
0100
1000
0100
,
1000
0010
0100
0001
,
2000
0000
0000
3000
,
0001
0100
0001
0010
,
0002
0000
0000
0003
,
0010
0010
0100
1000
,
0002
0000
0000
0103
,
0200
0000
0000
0310
,
0020
0000
1000
0000
,
1030
0000
0000
0001
,
0001
1000
0100
1000
,
1000
0010
0100
0010
,
0010
0100
0001
1000
,
1001
0000
0000
0000
,
0001
0010
0100
1000
,
0001
0010
0100
1000
,
0010
0010
0200
0000
,
0000
0301
1000
0100
,
0010
0001
1000
0100
,
0010
0001
0100
0010
,
2000
0000
0001
0000
,
3001
0000
1000
0001
,
2002
0000
0000
3003
,
0001
0100
1000
0100
,
0002
0003
2000
3000
,
1000
0100
0001
0100
,
2000
3000
0002
0003
,
2000
3000
0002
0003
,
0010
0100
0010
0001
,
0100
1000
0100
0001
,
2000
0000
0000
3001
,
0002
0000
0000
0013
,
0020
0000
0000
0030
,
0200
0300
2000
3000
,
0002
0000
0000
1003
,
2000
0000
0000
3010
,
0010
0100
0001
0001
,
2002
0000
0000
3003
,
1000
0100
0001
0100
,
1000
0010
0100
0001
,
0020
0030
0200
0300
,
0220
0000
0000
0330
,
0100
1000
0100
0001
,
0100
1000
0010
0100
,
0002
0003
2000
3000
,
2002
0000
0000
3003
,
0001
0010
0100
1000
,
1001
0000
0000
0000
,
0000
0000
0000
0000
;

//---------------dance-single - ----------------
#NOTES:
     dance-single:
     :
     Medium:
     8:
     :
0000
0000
0000
0000
,
0000
0000
0000
0000
,
0000
0000
0000
0000
,
0000
0000
0000
0000
,
0000
0000
0000
0000
,
0010
0100
0010
0100
,
0010
1000
0100
0000
1000
0000
0010
0000
,
0100
0001
0100
0001
,
1000
0100
0001
0000
0001
0100
1000
0000
,
0100
0010
0001
0100
,
1000
0100
0001
0000
0010
0000
0100
0000
,
0220
0000
0000
0000
0330
0000
0000
1000
,
0002
0000
0000
0000
0003
0000
0000
0001
,
2000
0000
0000
3010
0000
0100
0000
0002
,
0000
0000
0003
0000
,
0010
0001
0100
0000
0001
0000
0010
0000
,
0100
1000
0010
0000
1000
0000
0100
0000
,
1000
0100
0001
0000
0100
0000
1000
0000
,
0110
0000
0000
0001
0000
1000
0000
0000
,
1000
1000
0100
0000
0010
0000
0100
0000
,
0010
0000
0001
0000
0010
0001
0100
1000
,
0100
0001
0010
0010
,
0100
1000
0100
0010
,
0001
0001
0100
0000
0010
0000
0100
0000
,
0010
0000
1000
0000
0010
1000
0100
0001
,
0100
1000
0010
0010
,
0100
0000
0001
0000
1000
1000
0100
0000
,
0001
0100
0000
1100
0000
0001
0000
0101
,
0000
1000
0000
1100
0000
1000
0100
0010
,
0001
0010
0100
0010
,
0001
0100
1000
0000
0100
0000
0001
0000
,
0010
0001
0100
0000
0010
1000
0100
0000
,
0010
0001
0010
0001
,
0010
0100
1000
0000
0100
0000
1000
0000
,
0100
0000
1000
0000
0001
0100
1000
0100
,
0002
0000
0000
0000
0003
0000
0000
1000
,
0200
0000
0000
0000
0300
0000
0000
0001
,
2000
0000
0000
3010
0000
0100
0000
0002
,
0000
0000
0003
0000
,
1000
0000
0001
0100
0000
0110
0000
1001
,
0000
0000
0000
0010
0100
0000
0010
0000
,
0001
0100
1000
0000
1000
0100
0001
0000
,
1001
0000
0000
0100
0010
0000
0000
0000
,
0010
0001
0100
0000
0001
0000
0010
0000
,
0100
1000
0010
0000
1000
0000
0100
0000
,
0010
0001
0100
1000
,
0100
0001
0110
1001
,
0001
0100
1000
0000
0100
0000
0001
0000
,
1000
0100
0001
0000
0100
0000
1000
0000
,
0002
0000
0000
1003
0200
0000
0300
0000
,
0002
0000
0000
0013
0200
0000
0300
0000
,
1000
0001
1000
0010
0100
0001
1000
0000
,
0001
0000
0000
0010
0000
0000
0100
0000
0000
0000
0000
0000
0000
0000
0000
0000
,
0000
0000
0000
0000
;

//---------------dance-single - ----------------
#NOTES:
     dance-single:
     :
     Hard:
     11:
     :
0000
0000
0000
0000
,
0000
0000
0000
0000
,
0000
0000
0000
0000
,
0000
0000
0000
0000
,
0000
0000
0000
0000
,
1001
0100
1001
0010
,
1000
0001
1000
0001
0100
0000
0101
0000
,
0001
0010
0100
1000
0001
1000
0010
0100
,
0001
0010
0100
1000
0100
0000
1000
0000
,
0100
0000
0010
0001
0000
0100
0000
1000
,
0000
0100
0001
0000
0110
0000
1001
0000
,
0100
1000
0100
1000
0000
0001
0100
0000
,
0010
0001
0010
0001
0000
1000
0100
0000
,
1000
0001
1000
0001
,
0011
1001
1100
1001
,
0010
0100
0010
1000
0010
0100
0010
0001
,
0010
0100
0010
1000
0010
0000
0110
0000
,
1000
0100
0001
0100
1000
0000
0100
0000
,
1001
0000
0000
1100
0000
1001
0000
0000
,
0001
0010
0100
1000
0000
0010
1010
0000
,
1000
0010
0100
0001
1000
0100
1000
0000
,
0010
0100
0001
1000
0000
0001
1001
0000
,
0110
1001
0110
1001
,
1000
0100
1000
0001
0010
0100
1000
0000
,
0001
0010
0001
1000
0100
0001
0100
0000
,
0010
0100
1000
0010
0100
0001
0100
0000
,
1000
0100
0001
0010
0100
1000
0100
0010
,
0001
1000
0000
0100
0000
1000
0000
1000
,
0000
0001
0000
0010
0001
0010
0100
1000
,
0001
1100
0001
1100
,
1000
0001
0100
0010
0100
0001
1000
0100
,
0010
0110
0001
0110
,
1000
0011
1001
0011
,
0010
0001
1000
0000
0010
0000
0100
0000
,
0001
0000
1000
0000
0010
1000
0001
0100
,
0010
0000
1000
0001
0000
0001
0010
0100
,
1000
0100
1000
0200
0000
0000
0000
0310
,
0002
0000
0000
2003
0000
0001
0000
0200
,
3000
2300
3020
0130
,
0001
0010
0100
2000
0000
3200
0000
0320
,
0000
0032
1000
0000
1000
0000
1003
0000
,
0010
0100
0010
1000
0010
0100
0010
0001
,
0010
0000
0000
1000
1001
0000
0000
0000
,
0100
1000
0001
1000
0010
0100
0001
1000
,
0100
0010
0001
0100
1000
0100
0001
0100
,
0001
1000
0010
0100
0001
1000
0010
0100
,
0001
1010
0101
1010
,
0100
0010
1000
0001
0010
0100
1000
0100
,
0001
0100
1000
0010
0100
0001
1000
0100
,
0010
0001
1000
0010
0100
0001
1000
0100
,
0001
0000
0000
0110
0000
1001
0000
0000
,
1000
0100
0000
0010
0001
0000
0100
0010
0000
1000
0001
0000
0100
0000
0010
0000
,
0110
0000
0000
0101
0000
0000
1001
0000
0000
0000
0000
0000
0000
0000
0000
0000
,
0000
0000
0000
0000
;

//---------------dance-double - ----------------
#NOTES:
     dance-double:
     :
     Easy:
     5:
     :
00000000
00000000
00000000
00000000
,
00000000
00000000
00000000
00000000
,
00000000
00000000
00000000
00000000
,
00000000
00000000
00000000
00000000
,
00000000
00000000
00000000
00000000
,
10000000
01000000
00010000
00001000
,
00010000
00001000
00000100
00000001
,
00000200
00000000
00000000
00000300
,
00000001
00000100
00001000
00010000
,
00002000
00000000
00000000
00003000
,
00010000
01000000
10000000
01000000
,
00020000
00000000
00000000
00031000
,
00000200
00000000
00000000
00001300
,
00020000
00000000
01000000
00000000
,
01030000
00000000
00000000
00000000
,
10000000
01000000
00010000
01000000
,
10000000
01000000
00010000
00001000
,
00000100
00000001
00000100
00001000
,
00011000
00000000
00000000
00000000
,
10000000
01000000
00100000
00010000
,
10000000
01000000
00010000
00001000
,
00000100
00000001
00000200
00000000
,
00000000
00000301
00000010
00000100
,
00001000
00000001
00000100
00001000
,
00010000
01000000
10000000
01000000
,
00020000
00000000
00001000
00000000
,
00031000
00000000
00010000
01000000
,
20000000
00000000
00000000
30000000
,
01000000
00010000
00001000
00000100
,
00000002
00000003
00002000
00003000
,
00000001
00001000
00000001
00000100
,
00002000
00003000
00020000
00030000
,
00002000
00003000
00020000
00030000
,
01000000
10000000
00100000
10000000
,
01000000
00010000
00001000
00000100
,
00000002
00000000
00000000
00000103
,
00002000
00000000
00000000
00013000
,
02000000
00000000
00000000
03000000
,
20000000
30000000
02000000
03000000
,
00020000
00000000
00000000
00031000
,
00000200
00000000
00000000
00000301
,
00000010
00000001
00000100
00001000
,
00022000
00000000
00000000
00033000
,
00010000
01000000
10000000
00100000
,
10000000
01000000
00010000
00001000
,
00020000
00030000
00002000
00003000
,
00022000
00000000
00000000
00033000
,
00001000
00000100
00000001
00000010
,
00000001
00000100
00001000
00010000
,
02000000
03000000
20000000
30000000
,
02200000
00000000
00000000
03300000
,
10000000
01000000
00010000
00001000
,
00011000
00000000
00000000
00000000
,
00000000
00000000
00000000
00000000
;

//---------------dance-double - ----------------
#NOTES:
     dance-double:
     :
     Medium:
     9:
     :
00000000
00000000
00000000
00000000
,
00000000
00000000
00000000
00000000
,
00000000
00000000
00000000
00000000
,
00000000
00000000
00000000
00000000
,
00000000
00000000
00000000
00000000
,
00000001
00001000
00000001
00000100
,
00001000
00010000
01000000
00000000
10000000
00000000
00100000
00000000
,
01000000
00010000
10000000
01000000
,
00010000
00001000
00000100
00000000
00001000
00000100
00000001
00000000
,
00000010
00000001
00001000
00000010
,
00000100
00001000
00010000
00000000
01000000
00000000
10000000
00000000
,
02200000
00000000
00000000
00000000
03300000
00000000
00000000
01000000
,
00020000
00000000
00000000
00000000
00030000
00000000
00000000
00001000
,
00000200
00000000
00000000
00000000
00000000
00000000
00000302
00000000
00000000
00000003
00000020
00000000
00000000
00000000
00002030
00000000
,
00000000
00000000
00003000
00000000
,
00000001
00000100
00001000
00000000
00010000
00000000
01000000
00000000
,
10000000
01000000
00010000
00000000
00001000
00000000
00010000
00000000
,
01000000
00010000
00001000
00000000
00000100
00000000
00000001
00000000
,
00000110
00000000
00000000
00000101
00000000
00001001
00000000
00000000
,
00000001
00001000
00000100
00000000
00000010
00000000
00000001
00000000
,
00000100
00000000
00001000
00000000
00010000
01000000
10000000
00100000
,
10000000
01000000
00010000
00001000
,
00001000
00010000
01000000
10000000
,
10000000
00010000
01000000
00000000
00100000
00000000
10000000
00000000
,
01000000
00000000
00010000
00000000
00001000
00000100
00000001
00000010
,
00000001
00000100
00001000
00010000
,
00010000
00000000
00001000
00000000
00000100
00000001
00000010
00000000
,
00000001
00001000
00000000
00000100
00000000
00001100
00000000
00010000
,
00000000
00011000
00000000
00010000
00000000
01000000
10000000
00100000
,
00010000
00100000
10000000
01000000
,
00010000
00001000
00000100
00000000
00001000
00000000
00010000
00000000
,
00001000
00000100
00000001
00000000
00000001
00000100
00001000
00000000
,
00010000
01000000
00010000
00001000
,
00000010
00000001
00000100
00000000
00000001
00000000
00000010
00000000
,
00001000
00000000
00010000
00000000
00100000
10000000
01000000
00010000
,
00002000
00000000
00000000
00000000
00003000
00000000
00000000
00100000
,
00020000
00000000
00000000
00000000
00030000
00000000
00000000
00001000
,
00020000
00000000
00000000
00001000
00000000
00031000
00000000
00000200
,
00000000
00000000
00000300
00000000
,
00000001
00000000
00000010
00000100
00000000
00001001
00000000
00000110
,
00000000
00000000
00000000
00000100
00001000
00000000
00010000
00000000
,
00001000
00010000
01000000
00000000
01000000
00010000
00001000
00000000
,
00011000
00000000
00000000
01000000
00100000
00000000
00000000
00000000
,
10000000
00010000
01000000
00000000
00010000
00000000
10000000
00000000
,
01000000
00010000
00001000
00000000
00000100
00000000
00000001
00000000
,
00000010
00001000
00010000
00100000
,
10000000
01000000
01100000
10010000
,
01000000
00010000
00001000
00000000
00000100
00000000
00000001
00000000
,
00000100
00001000
00010000
00000000
01000000
00000000
10000000
00000000
,
02000000
00000000
00000000
03010000
00002000
00000000
00003000
00000000
,
00000200
00000000
00000000
00001300
00020000
00000000
00030000
00000000
,
00001000
00010000
01000000
00010000
00001000
00000100
00001000
00000000
,
00000100
00000000
00000000
00000001
00000000
00000000
00001000
00000000
00000000
00000000
00000000
00000000
00000000
00000000
00000000
00000000
,
00000000
00000000
00000000
00000000
;

//---------------dance-double - ----------------
#NOTES:
     dance-double:
     :
     Hard:
     12:
     :
00000000
00000000
00000000
00000000
,
00000000
00000000
00000000
00000000
,
00000000
00000000
00000000
00000000
,
00000000
00000000
00000000
00000000
,
00000000
00000000
00000000
00000000
,
00001000
00010000
00000010
00000100
,
00001000
00010000
01000000
00100000
00010000
00000000
10000000
00000000
,
01000000
00010000
00001000
00100000
01000000
00010000
00001000
00000100
,
00000010
00001000
00000001
00000100
00000010
00010000
00001000
00000000
,
00020000
00000000
00031000
00000200
00000000
00001000
00000000
00000001
,
00000300
00001000
00010000
00000000
01000000
00000000
00010000
00000000
,
00001000
00000100
00000001
00000010
00000000
00001000
00010000
00000010
,
00000100
00000001
00001000
00000100
00000000
00000010
00000001
00000000
,
00000200
00000000
00000000
00002300
00000000
00203000
00000000
01300000
,
00000000
00110000
00101000
00011000
,
01000000
00010000
10000000
01000000
00010000
00001000
00010000
00000010
,
00000100
00000001
00000010
00001000
00010000
00001000
00000010
00000100
,
00001000
00000001
00000100
00001000
00010000
00100000
01000000
00010000
,
10000000
00000000
00000000
01010000
00000000
10010000
00000000
00000000
,
10000000
00000000
00010000
00000000
00000000
00000000
10000000
00000000
00000000
00000000
01000000
00010000
00000000
00000000
00001000
00000000
,
00000100
00000000
00000001
00000000
00000000
00000000
00000100
00000000
00000000
00000000
00000010
00000100
00000000
00000000
00001000
00000000
,
00010000
00000000
01000000
00000000
00000000
00000000
10000000
00000000
00000000
00000000
01000000
00010000
00000000
00000000
00001000
00000000
,
00000100
00000000
00000001
00000000
00000000
00000000
00000100
00000000
00000000
00000000
00000010
00000100
00000000
00000000
00001000
00000000
,
00100000
00000000
01000000
00000000
00000000
00000000
00010000
00000000
00000000
00000000
00001000
00010000
00000000
00000000
00001000
00000000
,
00000100
00000000
00000001
00000000
00000000
00000000
00000100
00000000
00000000
00000000
00000010
00000100
00000000
00000000
00001000
00000000
,
00100000
00000000
01000000
00000000
00000000
00000000
00010000
00000000
00000000
00000000
00001000
00010000
00000000
00000000
00001000
00000000
,
00000100
00000001
00000000
00000100
00000000
00000010
00000100
00001000
,
00010000
02000000
00000000
23000000
00000000
30200000
00000000
00320000
,
00000000
00032000
00000000
00003010
00000001
00000100
00001000
00000100
,
00000001
00000100
00001000
00010000
,
00100000
01000000
00001000
00010000
01000000
00100000
00001000
00010000
,
00001000
00000010
00000001
00000100
,
00001000
00000000
00010000
00000000
01000000
10000000
00100000
00010000
,
00100000
10000000
01000000
00010000
01000000
00010000
00001000
00000100
,
00000001
00000100
00000001
00001000
00000100
00000000
00000100
00000000
,
00000100
00001000
00000010
00001000
00000000
00000010
00000100
00001000
,
00010000
00100000
01000000
00100000
00000000
00000000
00000000
10000000
,
01000000
00000000
00000000
00020000
00000000
00030020
00000000
00000130
,
00000000
00001010
00010010
00011000
,
00001000
01000000
00010000
01000000
00000000
00200000
00000000
20300000
,
00000000
31000000
00010000
00000000
00001000
00000000
00010000
00000000
,
01000000
10000000
00010000
01000000
00100000
00010000
00001000
00000010
,
00000001
00000000
00000000
00001000
00010000
00000000
00000000
00000000
,
01000000
10000000
00100000
01000000
00001000
00010000
00000100
00000010
,
00000001
00000100
00001000
00010000
00001000
01000000
00100000
10000000
,
01000000
00100000
00001000
00010000
01000000
00100000
00001000
00010000
,
00001000
00010000
00001000
00000100
,
00000010
00000100
00001000
00010000
00100000
01000000
00100000
00000000
,
00100000
10000000
00100000
00010000
00001000
00000010
00000001
00000100
,
00001000
00000000
00000000
00100000
01000000
00000000
00000000
00000000
,
00010000
00000000
00000000
00001000
00000100
00000000
00000000
00000000
,
00000010
00000100
00000000
00000100
00001000
00000000
00001000
00010000
00000000
00010000
01000000
00000000
00100000
00000000
01000000
00000000
,
00100000
00000000
00000000
00001000
00000000
00000000
00010000
00000000
00000000
00000000
00000000
00000000
00000000
00000000
00000000
00000000
,
00000000
00000000
00000000
00000000
;
