
//----- song ID: popn -----//
#TITLE:Knock Out Regrets;
#ARTIST:MAKI@TOGO.BAND;
#ARTISTTRANSLIT:MAKI@TOGO.BAND;
#BANNER:Knock Out Regrets.png;
#BACKGROUND:Knock Out Regrets-bg.png;
#CDTITLE:./CDTITLES/Pop'n Music.PNG;
#MUSIC:Knock Out Regrets.ogg;
#SAMPLESTART:49.57;
#SAMPLELENGTH:15;
#DISPLAYBPM:180;
#BPMS:0=178.2,4=180,48=181,50=179,51=182,52=177.5,54=180,132=179,136=180,144=184,148=173,149=178,150=180,196=182,200=180,212=177,214=180,267=188;
#NOTES:
     dance-single:
     :
     Beginner:
     3:
     :
0000
0000
0000
0000
,
0000
0000
0000
0000
,
0000
0000
0000
0000
,
0000
0000
0000
0000
,
0000
0000
0000
0000
,
1000
0000
1000
0000
,
0100
0000
1000
0000
,
0001
0000
0001
0000
,
0100
0000
0001
0000
,
0010
0000
0010
0000
,
0001
0000
0010
0000
,
0100
0000
0100
0000
,
1000
0000
0100
0000
,
2002
0000
3003
0000
,
1000
0000
0000
0000
,
0010
0000
0000
0000
,
0100
0000
0000
0001
,
0001
0000
0001
0000
,
1000
0000
1000
0000
,
0001
0000
0010
0000
,
0100
0000
0000
0000
,
2002
0000
3003
0000
,
0001
0000
0000
0000
,
0010
0000
0000
0000
,
0100
0000
0000
1000
,
1000
0000
1000
0000
,
0001
0000
0001
0000
,
0100
0000
0010
0000
,
1000
0000
0000
0000
,
0001
0000
0001
0000
,
0001
0000
0100
0000
,
1000
0000
1000
0000
,
1000
0000
0100
0000
,
0002
0000
0003
0000
,
2000
0000
3000
0000
,
0200
0000
0300
0000
,
1000
0000
0001
0000
,
1000
1000
0000
0001
,
0000
1000
0000
0010
,
0000
0100
0000
0010
,
0000
1000
0000
0100
,
0100
0100
0000
0010
,
0000
0001
0000
0100
,
0000
0010
0000
1000
,
0000
0001
0000
1000
,
1000
1000
0000
0001
,
0000
1000
0000
0010
,
0000
0100
0000
0010
,
0000
1000
0000
0001
,
0001
0000
0001
0000
,
0010
0000
0100
0000
,
2000
0000
3000
0000
,
0002
0000
0003
0000
,
0001
0000
0100
0000
,
0010
0000
1000
0000
,
0001
0000
0000
0000
,
0010
0000
0000
0000
,
0100
0000
0000
0000
,
1000
0000
0000
0000
,
0001
0000
0001
0000
,
0010
0000
0001
0000
,
1000
0000
1000
0000
,
0010
0000
1000
0000
,
0100
0000
0100
0000
,
1000
0000
0100
0000
,
0010
0000
0010
0000
,
0001
0000
0010
0000
,
2002
0000
0000
3003
,
0000
0000
0000
0000
;
#NOTES:
     dance-single:
     :
     Easy:
     5:
     :
0000
0000
0000
0000
,
0000
0000
0000
0000
,
0000
0000
0000
0000
,
0000
0000
0000
0000
,
0000
0000
0000
0000
,
1000
0000
1000
0000
,
0010
1000
0100
0000
,
0001
0000
0001
0000
,
0010
0001
0100
0000
,
0010
0000
0010
0000
,
1000
0001
1000
0000
,
2002
0000
0000
3003
,
1000
1000
0001
0001
,
1001
0000
0000
0000
,
1000
0001
1000
0100
,
0100
0000
0010
0000
,
0001
1000
0001
0100
,
0100
0010
1000
0000
,
0100
0010
0001
0000
,
1000
0010
0100
0001
,
0200
0000
0000
0300
,
1001
0000
0000
0000
,
0001
1000
0001
0100
,
0100
0000
0010
0000
,
1000
0001
1000
0100
,
0100
0010
0001
0000
,
0100
0010
1000
0000
,
1001
0000
0110
0000
,
1000
1000
1000
1000
,
0010
0100
0001
0000
,
0001
0100
0010
0000
,
1000
0100
0010
0000
,
0010
0100
1000
0000
,
0001
0000
0001
0000
,
0001
0010
0001
0010
,
0100
0000
0100
0000
,
0100
1000
0100
1000
,
0001
0100
0001
0001
,
1000
0000
0100
0000
,
0010
0001
0010
0010
,
0100
0000
1000
0000
,
0001
0100
1000
1000
,
0100
0000
0001
0000
,
1000
0100
0001
0001
,
0100
1000
0001
1000
,
0001
0010
0001
0001
,
1000
0000
0010
0000
,
0100
0001
0100
0100
,
0010
0000
1000
0000
,
0001
0001
1000
1000
,
0020
0000
0130
0010
,
2000
3000
0002
0003
,
0010
0010
0010
0010
,
0001
0001
1000
1000
,
0200
0300
0020
0030
,
0001
0100
0001
0100
,
0010
1000
0001
0000
,
1000
0100
1000
0100
,
0010
0001
1000
0000
,
1000
0000
0001
0000
,
0010
0100
1000
0000
,
0001
0000
0100
0000
,
0010
1000
0010
0000
,
0100
0000
0001
0000
,
0010
0001
0010
0000
,
0100
0000
1000
0000
,
0010
1000
0001
1000
,
1001
0000
0000
0000
,
0000
0000
0000
0000
;
#NOTES:
     dance-single:
     :
     Medium:
     7:
     :
0000
0000
0000
0000
,
0000
0000
0000
0000
,
0000
0000
0000
0000
,
0000
0000
0000
0000
,
0000
0000
0000
0000
,
1000
0000
0000
0010
0100
0000
0000
0001
,
0100
0010
0000
1000
0000
0000
0001
0000
,
0010
0000
0000
0100
0010
0000
0000
0001
,
0010
0100
0000
1000
0000
0000
0010
0000
,
0100
0000
0000
0001
0100
0000
0000
0010
,
0100
0001
0000
1000
0000
0000
0010
0000
,
0100
0001
1000
0001
,
1010
0101
0011
1100
,
2002
0000
0000
0000
0000
3003
0000
1001
,
0000
0000
1000
0000
0001
0100
0000
0010
,
0000
0100
0010
0000
1000
0000
0001
0000
,
0100
0001
0010
0100
,
1001
0000
0000
0020
0000
0230
0000
2300
,
0000
3000
0000
0020
0000
0230
0000
0302
,
0000
0003
1000
0000
0100
0000
0001
0000
,
0100
0000
0000
1000
0000
0000
0001
0000
,
2002
0000
0000
0000
0000
3003
0000
1001
,
0000
0000
0001
0000
1000
0010
0000
0100
,
0000
0010
0100
0000
0001
0000
1000
0000
,
0010
1000
0100
0010
,
1001
0000
0000
0200
0000
0320
0000
0032
,
0000
0003
0000
0200
0000
0320
0000
2030
,
0000
3000
0001
0000
0010
0000
1000
0000
,
0010
0000
0001
0000
1000
0001
1000
0001
,
1000
0000
1000
0000
1000
0000
1000
0001
,
0100
0000
0010
0000
0100
0001
0010
0100
,
1000
1000
1000
1000
,
0001
0000
0100
0000
0010
2000
0000
3002
,
0000
0003
0010
0000
0100
1000
0000
1100
,
0000
0000
0010
0000
0100
0001
0000
0101
,
0000
0000
0001
0000
1000
0000
0001
1000
,
0000
0100
0010
0000
0010
0000
0010
0000
,
0110
0000
0001
0000
1000
0100
0000
0010
,
0000
0100
1000
0000
0010
0100
0000
0002
,
0000
1000
1000
1003
,
0100
0000
0100
0000
0010
0000
0010
0001
,
0000
1000
0100
0000
0100
0000
0100
0000
,
0010
0001
0100
0010
,
1000
1000
1000
0001
,
0010
0000
0000
1100
0000
0101
0000
0000
,
0010
0000
0010
0000
0100
0000
0100
1000
,
0000
0001
0010
0000
0010
0000
0010
0000
,
0100
1000
0010
0100
,
0001
0001
0001
0001
,
0100
1000
0100
0001
,
0020
0030
1000
0010
,
0001
0000
0000
0001
0000
0000
0001
0000
,
1000
0000
0000
1000
0000
0000
1000
0000
,
0010
0001
0010
1000
,
0200
0300
0020
0030
,
0001
0100
1000
0100
,
0010
1000
0100
0001
,
0100
0010
0001
0010
,
1000
0001
0100
1000
,
0001
0000
0000
0100
0010
0000
0000
1000
,
0010
0100
0000
0001
0000
0000
1000
0000
,
0100
0000
0000
0010
0100
0000
0000
1000
,
0100
0010
0000
0001
0000
0000
0100
0000
,
0010
0000
0000
1000
0010
0000
0000
0100
,
0010
1000
0000
0001
0000
0000
0100
0000
,
0010
1000
0001
1000
,
0101
1010
1100
0011
,
2002
0000
0000
3003
,
0000
0000
0000
0000
;
#NOTES:
     dance-single:
     :
     Hard:
     10:
     :
0000
0000
0000
0000
,
0000
0000
0000
0000
,
0000
0000
0000
0000
,
0000
0000
0000
0000
,
0000
0000
0000
1001
,
1000
0001
0000
0100
0001
0010
0000
0100
,
0010
0001
1000
0100
0000
1000
0010
0100
,
0001
1000
0000
0100
1000
0010
0000
0100
,
0010
1000
0001
0100
0000
0001
0010
0100
,
1000
0010
0000
0100
0010
1000
0000
0100
,
0010
0001
1000
0001
0000
0010
0100
1000
,
0000
0010
0100
0010
0100
0010
0100
0001
,
1000
1100
1001
0101
,
2002
0000
0000
0000
0000
3003
0000
0110
,
0000
0001
0010
0100
1000
0020
0000
0230
,
0000
0301
1000
0001
0000
1000
0001
0010
,
0100
1000
0001
1000
0010
0000
0110
0000
,
1001
0000
1000
0002
0000
0203
0000
2300
,
0000
3100
0001
2000
0000
3200
0000
0302
,
0000
0103
1000
0001
0100
0010
0000
1000
,
0010
0100
0001
1000
0010
0100
0001
1000
,
2002
0000
0000
0000
0000
3003
0000
0110
,
0000
1000
0100
0010
0001
0200
0000
0320
,
0000
1030
0001
1000
0000
0001
1000
0100
,
0010
0001
1000
0001
0100
0000
0110
0000
,
1001
0000
0001
2000
0000
3020
0000
0032
,
0000
0013
1000
0002
0000
0023
0000
0031
,
0002
0000
0000
1000
2000
0000
3003
0000
,
0110
0010
0010
1000
,
2001
0000
0100
0000
0100
0000
3100
1000
,
0002
0000
0100
0000
0100
0000
0103
0001
,
0020
0000
0100
0000
0100
0000
0130
1000
,
0020
0000
0100
0000
0100
0100
0030
0100
,
0210
0000
0010
0000
0010
0000
0310
0020
,
1000
0000
1000
0000
1000
0000
1030
2000
,
0001
0000
0001
0000
0001
0000
3001
0010
,
0100
1000
0100
1000
0001
0100
0001
0100
,
1001
0000
0100
0000
0001
1000
0000
0001
,
0000
1000
0010
0100
0001
2000
0000
3002
,
0000
0003
1000
0000
0001
0010
0100
0000
,
1000
0010
0100
0000
0010
1000
0001
0200
,
0000
0000
0301
0000
0010
0000
0001
2000
,
0000
0000
3100
0000
0010
0000
0001
1000
,
0010
0100
0001
0000
0100
0010
1000
0000
,
0101
0000
0000
1001
0000
0110
0000
0000
,
1001
0000
0010
0000
1000
0001
0000
1000
,
0000
0001
0100
0010
1000
0002
0000
2003
,
0000
3000
0001
0000
1000
0100
0010
0000
,
0001
0100
0010
0000
0100
0001
1000
0001
,
0020
2030
3020
0032
,
2003
3010
0002
0023
,
2030
0000
0100
3100
0000
0000
0110
0000
,
0002
0000
0100
0103
0000
0000
0010
0000
,
1020
0130
0021
0130
,
1100
0000
0101
0000
,
0010
1000
0010
0100
0001
0010
0001
0010
,
0100
1000
0100
0010
0001
0100
0001
0100
,
0010
1000
0010
0100
0001
1000
0001
1000
,
0100
0010
0100
1000
0001
1000
0001
1000
,
0001
0100
0000
0010
1000
0100
0000
0010
,
0100
1000
0001
0010
0000
0001
0100
0010
,
1000
0100
0000
0010
0001
0100
0000
0010
,
0100
0001
1000
0010
0000
1000
0100
0010
,
0001
0100
0000
0010
0100
0001
0000
0010
,
0100
1000
0001
1000
0000
0100
0010
0001
,
0000
0100
0010
0100
0010
0100
0010
1000
,
0001
0011
1001
1010
,
2002
0000
0000
3003
,
0000
0000
0000
0000
;
#NOTES:
     dance-single:
     :
     Challenge:
     12:
     :
0000
0000
0000
0000
,
0000
0000
0000
0000
,
0000
0000
0000
0000
,
0000
0000
0000
0000
,
0000
0000
0000
1001
,
1000
0010
0000
0100
0001
0010
0000
1000
,
0010
0001
1000
0001
0000
1000
0100
1000
,
0001
0010
0000
0100
1000
0010
0000
0001
,
0010
1000
0001
1000
0000
0001
0100
0001
,
0010
0100
0000
0001
0100
1000
0000
0010
,
0001
0010
1000
0001
0000
1000
0010
1000
,
0100
0010
0001
1000
0001
1000
0001
1000
,
1001
0011
0110
1100
,
2002
0000
0000
0000
0000
3003
0000
0110
,
0000
0001
0010
0100
1000
0010
0100
0010
,
0000
0010
0100
0001
0010
0100
1000
0001
,
0100
0001
1000
0001
0010
0000
1100
0000
,
0011
0000
1000
0100
1000
0001
1000
0010
,
1000
0001
0100
1000
0100
0010
0100
0001
,
0010
1000
0010
0100
0010
0001
0100
0010
,
1000
0001
0010
0100
1000
0010
0100
0001
,
2002
0000
0000
0000
0000
3003
0000
0110
,
0000
1000
0010
0100
0001
0010
0100
0010
,
0000
0010
0100
1000
0010
0100
0001
1000
,
0100
1000
0001
1000
0010
0000
0101
0000
,
1010
0000
0001
0100
0001
1000
0001
0010
,
0001
1000
0100
0001
0100
0010
0100
1000
,
0010
0001
0010
0100
0010
1000
0100
0010
,
0002
0000
1000
0000
1000
0000
1003
0001
,
0201
0000
0010
0000
0001
0000
0310
1000
,
1020
0000
0100
0000
1030
0010
0100
0001
,
0021
0000
0100
0000
0001
0000
0130
1000
,
1200
0000
0010
0000
1300
0001
0000
0010
,
0200
0000
1000
0000
1000
0000
1300
0002
,
0100
0000
0100
0000
0100
0000
0103
0020
,
1000
0000
1000
0000
1000
0000
1030
0001
,
0010
1000
0010
0001
0100
1000
0100
0001
,
1001
0000
1010
0000
1000
0100
0000
1100
,
0000
0100
1000
0010
0100
0002
0000
2003
,
0000
3001
0010
0100
1000
0001
0010
0100
,
2000
0000
0100
0000
3001
0100
0010
2000
,
0000
0000
3010
0000
0000
0100
0001
0020
,
0000
0000
0130
0000
1000
0010
0001
0010
,
1000
0100
0001
0100
1000
0010
0100
0002
,
0000
0003
0000
0110
0000
1001
0000
0100
,
1001
0000
0101
0000
0001
0010
0000
0011
,
0000
0010
0001
0100
0010
2000
0000
3002
,
0000
1003
0010
0100
0001
1000
0010
0100
,
0002
0000
0000
1000
0000
0103
0000
0001
,
0101
1100
0101
0011
,
1100
0001
1100
0011
,
1001
0000
0100
1100
0000
0000
0011
0000
,
1010
0000
0001
0101
0000
0000
0100
0000
,
1010
0011
1010
1100
,
0002
0003
2000
3000
,
0011
0000
1000
0100
1000
0001
1000
0010
,
1000
0001
0100
1000
0100
0010
0100
0001
,
0010
1000
0010
0100
0010
0001
0100
0010
,
1000
0001
0010
0100
1000
0010
1001
0000
,
0001
0100
0000
0010
1000
0100
0000
0001
,
0100
1000
0001
1000
0000
0001
0010
0001
,
1000
0100
0000
0010
0001
0100
0000
1000
,
0100
0001
1000
0001
0000
1000
0010
1000
,
0100
0010
0000
1000
0010
0001
0000
0100
,
1000
0100
0001
1000
0000
0001
0100
0001
,
0010
0100
1000
0001
1000
0001
1000
0001
,
1001
1100
0110
0011
,
2002
0000
0000
0000
0000
3003
0000
0000
,
0000
0000
0000
0000
;
#NOTES:
     dance-double:
     :
     Easy:
     5:
     :
00000000
00000000
00000000
00000000
,
00000000
00000000
00000000
00000000
,
00000000
00000000
00000000
00000000
,
00000000
00000000
00000000
00000000
,
00000000
00000000
00000000
00000000
,
00010000
00000000
00010000
00000000
,
00100000
00010000
01000000
00000000
,
10000000
00000000
10000000
00000000
,
00100000
10000000
01000000
00000000
,
00100000
00000000
00100000
00000000
,
00010000
00100000
00001000
00000000
,
00022000
00000000
00000000
00033000
,
00001000
00001000
00010000
00010000
,
00011000
00000000
00000000
00000000
,
00000100
00001000
00000100
00000010
,
00000010
00000000
00000001
00000000
,
00001000
00000010
00001000
00000100
,
00000100
00010000
00001000
00000000
,
01000000
00001000
00010000
00000000
,
00001000
00010000
00001000
00100000
,
00020000
00000000
00000000
00030000
,
10010000
00000000
00000000
00000000
,
00100000
00010000
00100000
01000000
,
01000000
00000000
10000000
00000000
,
00010000
01000000
00010000
00100000
,
00100000
00001000
00010000
00000000
,
00000010
00010000
00001000
00000000
,
00010000
00001000
00010000
00000100
,
00001000
00001000
00001000
00001000
,
00000001
00000010
00000100
00000000
,
00000100
00000010
00000001
00000000
,
00001000
00000100
00000010
00000000
,
00000010
00000100
00001000
00000000
,
00000100
00000000
00000100
00000000
,
00000100
00010000
00000100
00010000
,
00001000
00000000
00001000
00000000
,
00001000
00010000
00001000
00010000
,
00100000
01000000
00100000
00100000
,
10000000
00000000
01000000
00000000
,
00100000
00010000
00100000
00100000
,
01000000
00000000
10000000
00000000
,
00010000
00100000
00001000
00001000
,
00010000
00000000
00001000
00000000
,
00010000
00000100
00001000
00001000
,
00000010
00000100
00000010
00000100
,
00000001
00001000
00000001
00000001
,
00000010
00000000
00000100
00000000
,
00001000
00000100
00010000
00010000
,
00001000
00000000
00010000
00000000
,
01000000
01000000
00100000
00100000
,
00020000
00030000
01000000
00010000
,
00200000
00300000
02000000
03000000
,
10000000
10000000
10000000
10000000
,
00100000
00100000
00010000
00010000
,
00002000
00003000
00020000
00030000
,
00001000
00010000
00001000
00010000
,
00000100
00001000
00000010
00000000
,
00000001
00000100
00000001
00000100
,
00000010
00001000
00000100
00000000
,
00010000
00000000
00010000
00000000
,
00001000
00010000
00100000
00000000
,
10000000
00000000
10000000
00000000
,
00100000
01000000
00010000
00000000
,
00100000
00000000
00100000
00000000
,
00010000
00100000
00001000
00000000
,
00022000
00000000
00000000
00033000
,
00001000
00001000
00010000
00010000
,
00011000
00000000
00000000
00000000
,
00000000
00000000
00000000
00000000
;
#NOTES:
     dance-double:
     :
     Medium:
     8:
     :
00000000
00000000
00000000
00000000
,
00000000
00000000
00000000
00000000
,
00000000
00000000
00000000
00000000
,
00000000
00000000
00000000
00000000
,
00000000
00000000
00000000
00000000
,
00001000
00000000
00000000
00010000
01000000
00000000
00000000
01000000
,
00010000
00001000
00000000
00000100
00000000
00000000
00001000
00000000
,
00010000
00000000
00000000
00001000
00000010
00000000
00000000
00000010
,
00001000
00010000
00000000
00100000
00000000
00000000
00010000
00000000
,
00001000
00000000
00000000
00000100
00000001
00000000
00000000
00000010
,
00001000
00010000
00000000
01000000
00000000
00000000
10000000
00000000
,
00100000
01000000
00100000
10000000
,
10100000
11000000
00110000
01010000
,
00022000
00000000
00000000
00000000
00000000
00033000
00000000
00010100
,
00000000
00000000
00001000
00000000
00000001
00000100
00000000
00000010
,
00000000
00000100
00000010
00000000
00001000
00000000
00000001
00000000
,
00000010
00001000
00010000
00001000
,
00011000
00000000
00000000
02000000
00000000
23000000
00000000
30200000
,
00000000
00300000
00000000
02000000
00000000
03020000
00000000
00230000
,
00000000
00300000
00010000
00000000
01000000
00000000
00100000
00000000
,
00010000
00000000
00000000
00001000
00000000
00000000
00010000
00000000
,
00022000
00000000
00000000
00000000
00000000
00033000
00000000
00010010
,
00000000
00000000
00001000
00000000
00000001
00000010
00000000
00000100
,
00000000
00000010
00000100
00000000
00001000
00000000
00000001
00000000
,
00000100
00001000
00010000
00001000
,
00011000
00000000
00000000
00200000
00000000
20300000
00000000
32000000
,
00000000
03000000
00000000
00200000
00000000
00320000
00000000
02030000
,
00000000
03000000
00010000
00000000
00100000
00000000
00001000
00000000
,
00010000
00000000
00001000
00000000
00010000
00001000
00010000
00001000
,
00010000
00000000
00000100
00000000
00000100
00000000
00000100
00001000
,
00000010
00000000
00000100
00000000
00000010
00001000
00000100
00000010
,
00000001
00000001
00000001
00000001
,
00000100
00000000
00000010
00000000
00001000
00000200
00000000
00000320
,
00000000
00000030
00000100
00000000
00010000
00000100
00000000
00010100
,
00000000
00000000
00010000
00000000
00001000
01000000
00000000
01001000
,
00000000
00000000
00100000
00000000
00010000
00000000
01000000
10000000
,
00000000
01000000
00010000
00000000
00010000
00000000
00010000
00000000
,
10010000
00000000
01000000
00000000
10000000
01000000
00000000
00100000
,
00000000
01000000
10000000
00000000
00010000
01000000
00000000
00002000
,
00000000
00010000
00010000
00013000
,
00000100
00000000
00000100
00000000
00001000
00000000
00001000
00000001
,
00000000
00000100
00000010
00000000
00000010
00000000
00000010
00000000
,
00001000
00000100
00000010
00000001
,
00000100
00000100
00000100
00001000
,
00010000
00000000
00000000
01010000
00000000
11000000
00000000
00000000
,
10000000
00000000
01000000
00000000
10000000
00100000
00000000
01000000
,
00000000
00100000
10000000
00000000
00010000
00100000
00000000
00002000
,
00000000
00010000
00010000
00013000
,
00000010
00000010
00001000
00001000
,
00000001
00000100
00001000
00000100
,
00000020
00000030
00001000
00000100
,
00001000
00000000
00000000
00001000
00000000
00000000
00001000
00000000
,
00010000
00000000
00000000
00010000
00000000
00000000
00010000
00000000
,
01000000
10000000
00100000
00010000
,
00200000
00300000
20000000
30000000
,
00010000
10000000
01000000
00010000
,
00001000
00000100
00000001
00000100
,
00001000
00010000
00100000
10000000
,
00100000
00010000
00001000
00000010
,
00001000
00000000
00000000
00010000
00100000
00000000
00000000
00100000
,
00010000
00001000
00000000
00000010
00000000
00000000
00001000
00000000
,
00010000
00000000
00000000
00001000
00000100
00000000
00000000
00000100
,
00001000
00010000
00000000
01000000
00000000
00000000
00010000
00000000
,
00001000
00000000
00000000
00000010
00000001
00000000
00000000
00000100
,
00001000
00010000
00000000
00100000
00000000
00000000
10000000
00000000
,
01000000
00100000
01000000
10000000
,
11000000
10100000
01010000
00110000
,
00022000
00000000
00000000
00033000
,
00000000
00000000
00000000
00000000
;
#NOTES:
     dance-double:
     :
     Hard:
     11:
     :
00000000
00000000
00000000
00000000
,
00000000
00000000
00000000
00000000
,
00000000
00000000
00000000
00000000
,
00000000
00000000
00000000
00000000
,
00000000
00000000
00000000
00011000
,
00010000
00001000
00000000
00010000
01000000
00100000
00000000
00010000
,
01000000
00100000
00000000
10000000
00000000
00010000
01000000
00010000
,
10000000
01000000
00000000
00100000
01000000
10000000
00000000
00100000
,
01000000
00010000
00000000
01000000
00000000
00001000
00100000
00001000
,
00010000
00000100
00000000
00001000
00000010
00000100
00000000
00000001
,
00000010
00000100
00000000
00000010
00000000
00000100
00001000
00000100
,
00000000
00010000
00001000
00010000
00001000
00010000
00001000
00010000
,
00001000
00011000
01010000
11000000
,
20020000
00000000
00000000
00000000
00000000
30030000
00000000
01100000
,
00000000
10000000
01000000
00010000
00001000
00020000
00000000
00032000
,
00000000
00013000
00001000
00000100
00000000
00000001
00001000
00000010
,
00000100
00001000
00000100
00000001
00001000
00000000
00000001
00000000
,
00001001
00000000
00000010
00000001
00000000
00001000
00000000
00000010
,
00000100
00001000
00010000
01000000
00000000
10000000
00000000
00010000
,
00000000
00100000
00010000
10000000
00100000
01000000
00000000
00010000
,
00100000
00001000
00010000
00000100
00010000
00001000
00000100
00000010
,
00002002
00000000
00000000
00000000
00000000
00003003
00000000
00000110
,
00000000
00000001
00000010
00001000
00010000
00002000
00000000
00023000
,
00000000
00031000
00010000
00100000
00000000
10000000
00010000
01000000
,
00100000
00010000
00100000
10000000
00010000
00000000
10000000
00000000
,
10010000
00000000
01000000
10000000
00000000
00010000
00000000
01000000
,
00100000
00010000
00001000
00000010
00000000
00000001
00000000
00001000
,
00002000
00000000
00000000
00000001
00000002
00000000
00003003
00000000
,
00001001
00000100
00001000
00000100
,
00021000
00000000
00001000
00000000
00001000
00000000
00031000
00010000
,
02000000
00000000
00100000
00000000
00100000
00000000
03100000
00001000
,
00020000
00000000
00001000
00000000
00001000
00000000
00031000
00000100
,
00000020
00000000
00000100
00000000
00000100
00000100
00000030
00000100
,
00000210
00000000
00001000
00000000
00001000
00000000
00001300
00020000
,
00001000
00000000
00001000
00000000
00001000
00000000
00031000
00200000
,
00010000
00000000
00010000
00000000
00010000
00000000
00310000
10000000
,
01000000
00010000
01000000
00100000
00010000
01000000
10000000
01000000
,
10010000
00000000
01000000
00000000
00010000
00100000
00000000
00001000
,
00000000
00010000
01000000
00010000
00001000
00020000
00000000
00032000
,
00000000
00003000
00000100
00000000
00000001
00001000
00000100
00000000
,
00001000
00000001
00000100
00000000
00000010
00000100
00000001
00002000
,
00000000
00000000
00003100
00000000
00010000
00000000
00001000
02000000
,
00000000
00000000
03100000
00000000
10000000
00000000
01000000
10000000
,
00010000
01000000
00100000
00000000
10000000
01000000
00100000
00000000
,
01100000
00000000
00000000
00101000
00000000
00011000
00000000
00000000
,
00001001
00000000
00000010
00000000
00001000
00000100
00000000
00010000
,
00000000
00001000
00000010
00001000
00010000
00002000
00000000
00023000
,
00000000
00030000
00100000
00000000
10000000
00010000
00100000
00000000
,
00010000
10000000
00100000
00000000
01000000
00100000
10000000
00010000
,
00200000
20300000
30200000
00302000
,
00023000
00031000
00000020
00000032
,
00000023
00000000
00000100
00000130
00000000
00000000
00001001
00000000
,
00002000
00000000
00000001
00003001
00000000
00000000
00000100
00000000
,
00010200
00001300
00020100
00031000
,
00011000
00000000
10010000
00000000
,
01000000
10000000
01000000
00100000
00010000
01000000
00010000
01000000
,
00001000
00010000
00001000
00000100
00000010
00001000
00000010
00001000
,
00000100
00010000
00000100
00001000
00000010
00010000
00000010
00010000
,
00001000
00100000
00001000
01000000
00010000
01000000
00010000
01000000
,
00001000
00010000
00000000
00001000
00000010
00000100
00000000
00001000
,
00000010
00000100
00000000
00000001
00000000
00001000
00000010
00001000
,
00000001
00000010
00000000
00000100
00000010
00000001
00000000
00000100
,
00000010
00001000
00000000
00000010
00000000
00010000
00000100
00010000
,
00001000
00100000
00000000
00010000
01000000
00100000
00000000
10000000
,
01000000
00100000
00000000
01000000
00000000
00100000
00010000
00100000
,
00000000
00001000
00010000
00001000
00010000
00001000
00010000
00001000
,
00010000
00011000
00001010
00000011
,
00002002
00000000
00000000
00003003
,
00000000
00000000
00000000
00000000
;
#NOTES:
     dance-double:
     :
     Challenge:
     13:
     :
00000000
00000000
00000000
00000000
,
00000000
00000000
00000000
00000000
,
00000000
00000000
00000000
00000000
,
00000000
00000000
00000000
00000000
,
00000000
00000000
00000000
00000110
,
00001000
00000001
00000000
00000010
00000001
00000100
00000000
00001000
,
00010000
00000100
00000010
00001000
00000000
00000010
00000001
00000100
,
00001000
00010000
00000000
00100000
10000000
01000000
00000000
00010000
,
00001000
01000000
00100000
00010000
00000000
00100000
10000000
01000000
,
00100000
00010000
00000000
01000000
00010000
00100000
00000000
00001000
,
00010000
00000100
00000010
00001000
00000000
00000010
00000001
00001000
,
00000010
00000100
00000010
00000100
00001000
00010000
00001000
00010000
,
00011000
00010100
00011000
01001000
,
00022000
00000000
00000000
00000000
00000000
00033000
00000000
00110000
,
00000000
01000000
10000000
00010000
10000000
00200000
00000000
02300000
,
00000000
03100000
10000000
00010000
10000000
00100000
00010000
00001000
,
00000100
00000001
00001000
00000001
00000100
00000000
00001100
00000000
,
00000101
00000000
00000010
00001000
00000100
00010000
00001000
00100000
,
00010000
01000000
10000000
01000000
00010000
00100000
00001000
00010000
,
00000100
00001000
00000010
00000001
00000010
00001000
00000100
00010000
,
00001000
00100000
00010000
00100000
00001000
00010000
00000100
00010000
,
00022000
00000000
00000000
00000000
00000000
00033000
00000000
00001100
,
00000000
00000010
00000001
00001000
00000001
00000200
00000000
00000320
,
00000000
00000130
00000001
00001000
00000001
00000100
00001000
00010000
,
00100000
10000000
00010000
10000000
00100000
00000000
00110000
00000000
,
10100000
00000000
01000000
00010000
00100000
00001000
00010000
00000100
,
00001000
00000010
00000001
00000010
00001000
00000100
00010000
00001000
,
00100000
00010000
01000000
00100000
10000000
01000000
00010000
00001000
,
00020000
00000000
00001000
00000000
00001000
00000000
00031000
00010000
,
00012000
00000000
00000100
00000000
00010000
00000000
00003100
00000001
,
00000201
00000000
00001000
00000000
00000301
00000100
00001000
00010000
,
00021000
00000000
00100000
00000000
00001000
00000000
00130000
10000000
,
10200000
00000000
00010000
00000000
10300000
00010000
00000000
01000000
,
00200000
00000000
01000000
00000000
01000000
00000000
01300000
00020000
,
00100000
00000000
00100000
00000000
00100000
00000000
00130000
00002000
,
00010000
00000000
00010000
00000000
00010000
00000000
00013000
00001000
,
00010000
00000100
00001000
00000010
00000100
00000001
00000010
00000100
,
00000110
00000000
00001100
00000000
00000100
00010000
00000000
00011000
,
00000000
00001000
00100000
00000000
00100000
00020000
00000000
20030000
,
00000000
30010000
00100000
01000000
10000000
00010000
00100000
01000000
,
20000000
00000000
00100000
00000000
30010000
01000000
00100000
00020000
,
00000000
00000000
00031000
00000000
00010000
00000100
00001000
00000020
,
00000000
00000000
00000030
00000000
00000001
00000010
00001000
00000100
,
00000001
00000100
00001000
00000010
00000100
00001000
00010000
00002000
,
00000000
00003000
00000000
00011000
00000000
00101000
00000000
00100000
,
00110000
00000000
01010000
00000000
01000000
00001000
00000000
00011000
,
00000000
00010000
00000100
00000000
00000100
00002000
00000000
00003002
,
00000000
00001003
00000100
00000010
00000001
00001000
00000100
00000010
,
00000002
00000000
00000100
00000000
00001003
00000001
00000100
00001000
,
00001100
00000101
00000110
00001100
,
00011000
00000100
00011000
00100000
,
00011000
00000000
01000000
01010000
00000000
00000000
00010000
00000000
,
00110000
00000000
01000000
11000000
00000000
00000000
01000000
00000000
,
01010000
11000000
01100000
01010000
,
00002000
00003000
00020000
00030000
,
00001100
00000000
00001000
00000100
00000010
00000100
00001000
00000010
,
00010000
00001000
00100000
00010000
10000000
00100000
01000000
00010000
,
00100000
00001000
00010000
00000100
00001000
00000010
00000100
00000010
,
00001000
00000100
00010000
00001000
00100000
00010000
10010000
00000000
,
00010000
10000000
00000000
01000000
10000000
00100000
00000000
00010000
,
00001000
00100000
01000000
00010000
00000000
01000000
10000000
00100000
,
00010000
00001000
00000000
00000100
00000001
00000010
00000000
00001000
,
00010000
00000010
00000100
00001000
00000000
00000100
00000001
00000010
,
00000100
00001000
00000000
00000010
00001000
00000100
00000000
00010000
,
00001000
00100000
01000000
00010000
00000000
01000000
10000000
00010000
,
01000000
00100000
01000000
00100000
00010000
00001000
00010000
00001000
,
00011000
00101000
00011000
00010010
,
00022000
00000000
00000000
00000000
00000000
00033000
00000000
00000000
,
00000000
00000000
00000000
00000000
;
