
//----- song ID: inee -----//
#TITLE:I Need You;
#ARTIST:Supa Fova feat. Jenny F.;
#BANNER:I Need You.png;
#BACKGROUND:I Need You-bg.png;
#CDTITLE:./CDTITLES/DANCE DANCE REVOLUTION PSX -MAX2 USA-.PNG;
#MUSIC:I Need You.ogg;
#SAMPLESTART:46.193;
#SAMPLELENGTH:15;
#DISPLAYBPM:114;
#BPMS:0=86.46,12=114;

//---------------dance-single - ----------------
#NOTES:
     dance-single:
     :
     Beginner:
     3:
     :
0000
0000
0000
0000
,
0000
0000
0000
0000
,
0000
0000
0000
0000
,
0000
0000
0000
0000
,
0001
0001
0001
0000
,
1000
0000
0001
0000
,
1000
1000
1000
0000
,
0001
0000
1000
0000
,
0001
0001
0001
0000
,
0010
0000
0001
0000
,
0010
0000
1000
0000
,
0010
0000
0001
0000
,
0010
0000
1000
0000
,
0001
0001
0000
1000
,
0000
0001
0001
0000
,
0100
0000
0001
0000
,
0010
0010
0010
0000
,
1000
1000
0000
0001
,
0000
1000
1000
0000
,
0100
0000
1000
0000
,
0100
0100
0100
0000
,
0001
0000
0000
0000
,
1000
0000
0100
0000
,
0001
0000
1000
0000
,
0001
0001
0001
0001
,
0001
0000
1000
0000
,
0001
0000
0100
0000
,
0010
0000
1000
0000
,
1000
1000
1000
1000
,
1000
0000
0001
0000
,
0001
0000
1000
0000
,
0010
0000
0100
0000
,
0100
0100
0100
0000
,
0001
0000
1000
0000
,
1000
0000
0001
0000
,
0010
0000
0100
0000
,
0100
0100
0100
0000
,
1000
1000
1000
0000
,
0001
0001
0001
0000
,
1000
0000
0001
0000
,
1000
0000
0001
0001
,
0001
0001
0001
0000
,
1000
1000
1000
0000
,
0001
0000
1000
0000
,
0001
0000
1000
0000
,
1001
0000
0000
0000
;

//---------------dance-single - ----------------
#NOTES:
     dance-single:
     :
     Easy:
     4:
     :
0000
0000
0000
0000
,
0000
0000
0000
0000
,
0000
0000
0000
0000
,
0000
0000
0000
0000
,
0000
0000
0000
0000
,
0010
0000
0100
0100
,
1000
0000
0001
0000
,
0200
0300
0000
0000
,
0001
0001
1000
1000
,
0100
0000
0010
0010
,
0001
0000
1000
0000
,
0010
0000
0000
0000
,
0001
0000
0001
0000
,
1001
0000
0001
0000
,
1000
0100
0100
0000
,
0001
0000
1000
0000
,
0001
0100
0100
0000
,
0010
0000
0100
0000
,
1000
1000
0100
0001
,
0010
0000
1000
0000
,
0001
0100
1000
0100
,
0200
0000
0300
0000
,
0001
0000
1000
0000
,
0010
0001
1000
0000
,
0010
0010
0010
1000
,
0001
0000
0001
0000
,
0100
0001
0100
0000
,
0010
1000
0010
0000
,
0010
0010
0100
0100
,
0110
0000
0010
0100
,
0200
0300
0020
0030
,
1000
0000
0001
0000
,
0010
0010
0001
1000
,
1001
0000
0001
1000
,
0002
0003
2000
3000
,
0100
0000
0100
0000
,
0100
0100
0001
0001
,
1000
0100
0001
0100
,
2000
3000
0002
0003
,
0010
0000
0100
0000
,
1000
0001
0100
1000
,
0002
0000
0003
0000
,
2000
0000
3000
0000
,
0001
0000
1000
0000
,
0001
0001
1000
0010
,
0200
0300
0000
0000
;

//---------------dance-single - ----------------
#NOTES:
     dance-single:
     :
     Medium:
     6:
     :
0000
0000
0000
0000
,
0000
0000
0000
0000
,
0000
0000
0000
0000
,
0000
0000
0000
0000
,
0000
0000
0000
0000
,
1000
0000
0000
0000
1000
0100
0010
0000
,
0002
0003
2000
3000
,
0010
0000
0000
0000
0000
0010
0100
0001
,
1000
1000
0001
0100
,
1000
0100
2000
3100
,
0001
0100
0002
0013
,
1000
0000
0001
0000
,
0010
0010
0001
1000
,
0002
0000
0003
0110
,
1000
0010
0001
0100
,
2000
0000
3000
0110
,
0001
0000
0100
0000
1000
0000
0010
0100
,
0000
0002
0003
1001
,
0010
0200
0300
1001
,
0001
0010
0001
0000
1000
0100
0001
0000
,
1000
0000
0001
0000
1000
0001
1000
0000
,
0200
0300
0001
1000
,
0002
0003
0100
0010
,
0010
1000
0100
0000
0010
0001
0100
0000
,
0001
0010
0100
1000
,
0002
0013
1000
0100
,
0020
0130
0001
1000
,
0001
0001
0100
0000
1000
1000
0100
0000
,
0001
1000
0000
1001
,
0000
0000
1000
0000
0001
0010
0100
0000
,
1000
0100
0001
0010
,
2000
3100
0001
0010
,
1000
0000
0001
0000
0100
0001
0010
0001
,
1000
0000
0100
0000
0001
0010
0100
0000
,
2000
3100
0001
0100
,
0010
1000
0001
0100
,
0001
0010
0100
1000
0001
0000
1000
0000
,
0000
0001
0100
1000
,
0000
1000
0100
0001
,
0001
1000
0100
0100
,
0002
0000
0013
0000
1000
0010
0100
0000
,
0000
0000
1000
0001
0100
0000
0001
0000
,
0000
0000
0010
1000
0100
0000
0001
0000
,
0001
0010
0100
0000
1000
0100
0010
0000
,
0010
1001
0100
1001
,
0101
0000
0000
0000
;

//---------------dance-single - ----------------
#NOTES:
     dance-single:
     :
     Hard:
     8:
     :
0000
0000
0000
0000
,
0000
0000
0000
0000
,
0000
0000
0000
0000
,
0000
0000
0000
0000
,
0000
0000
0000
0000
,
0120
1030
0210
0301
,
0001
0000
0000
0100
0000
0000
0000
0000
1000
0000
0000
0100
0000
0000
0000
0000
,
0001
0100
0010
0000
0010
1000
0100
0010
,
0001
0010
1000
0100
,
1002
0103
2001
3010
,
0010
0000
0000
1000
0000
0000
0000
0000
0100
0000
0000
0001
0000
0000
0000
0000
,
1000
0010
0100
0000
0010
0100
0001
0010
,
0001
1000
1001
0000
,
0000
0000
0100
0000
0001
0010
0100
0000
,
1000
0010
0100
0000
0001
0010
0100
0000
,
0020
1030
0200
0301
,
0010
0000
1000
0000
0100
0000
0001
0100
,
0000
0000
0010
0000
0001
0100
0010
0000
,
1000
0100
0010
0000
0001
0100
0010
0000
,
1000
0100
0001
0010
,
1000
0200
0310
1001
,
0220
0000
0330
1001
,
0010
0100
0001
0000
0100
0010
1000
0001
,
0020
0130
0200
0000
,
0301
0010
1000
0100
,
1001
0000
0100
0010
,
2000
3000
0200
0300
,
0002
0003
0020
0030
,
0001
0000
0100
0000
0010
1000
0010
0100
,
0001
0000
1000
0000
0001
0010
0100
0000
,
2000
3100
0002
0103
,
0010
1000
0100
0001
,
1000
0100
0010
0001
1000
0010
0100
0010
,
1000
0000
0001
0000
1000
0010
0100
0000
,
0002
0000
0103
0000
1000
0010
0100
0001
,
0010
0001
0100
1000
,
1000
0010
0100
0001
0100
0010
1000
0100
,
2000
0000
3100
0000
0001
0100
0001
0000
,
1000
1000
0100
0000
0002
0000
0013
0100
,
1000
0100
0010
0001
,
0020
0000
0130
0000
0001
1000
0100
0000
,
1001
0000
0100
0000
1000
0100
0001
0000
,
0001
0010
0100
0000
2000
0000
3001
0000
,
1000
0100
0010
0001
,
2000
3010
0001
0110
,
1001
0000
0000
0000
;

//---------------dance-double - ----------------
#NOTES:
     dance-double:
     :
     Easy:
     5:
     :
00000000
00000000
00000000
00000000
,
00000000
00000000
00000000
00000000
,
00000000
00000000
00000000
00000000
,
00000000
00000000
00000000
00000000
,
00000000
00000000
00000000
00000000
,
00000001
00000000
00000000
00000000
,
00001000
00000000
00000000
00000000
,
00000001
00000000
00000000
00000000
,
00000100
00000000
00001000
00000000
,
00020000
00000000
00001000
00030000
,
00002000
00000000
00010000
00003000
,
00010000
00000000
00100000
00000000
,
01000000
01000000
01000000
00000000
,
10010000
00000000
01000000
00000000
,
01000000
00010000
00010000
00001000
,
00000000
00001000
00000000
00001000
,
00000010
00000001
00001000
00001000
,
00000000
00000001
00000000
00000100
,
00000000
00001000
00001000
00001000
,
00000000
00010000
00000000
00010000
,
00000000
00100000
01000000
01000000
,
20020000
00000000
00000000
30030000
,
01000000
00000000
01000000
01000000
,
10000000
00100000
00010000
00000000
,
00010000
00001000
00001000
00000010
,
00000001
00000000
00001000
00000000
,
00000100
00000100
00000100
00000000
,
00000010
00000000
00000001
00000000
,
00000001
00000100
00001000
00010000
,
00011000
00000000
00001000
00000000
,
00010000
00100000
10000000
00000000
,
10000000
00000000
01000000
00000000
,
00010000
00001000
00010000
00001000
,
00011000
00000000
00010000
00000000
,
00001000
00000100
00000001
00000001
,
00001000
00000000
00000010
00000000
,
00000100
00000100
00000100
00000100
,
00001001
00000000
00000100
00000100
,
00000010
00000000
00000001
00000001
,
00000100
00000000
00001000
00000000
,
00010000
00010000
00100000
00100000
,
00100000
00000000
01000000
01000000
,
01000000
00000000
00010000
10000000
,
00000000
10000000
01000000
00010000
,
00001000
00000010
00000001
00000100
,
00001001
00000000
00000000
00000000
;

//---------------dance-double - ----------------
#NOTES:
     dance-double:
     :
     Medium:
     6:
     :
00000000
00000000
00000000
00000000
,
00000000
00000000
00000000
00000000
,
00000000
00000000
00000000
00000000
,
00000000
00000000
00000000
00000000
,
00000000
00000000
00000000
00000000
,
00010000
00000000
10000000
00000000
,
00100000
00100000
01000000
01000000
,
00010000
00000000
10000000
00000000
,
01000000
00010000
00001000
00000100
,
00000001
00000000
00001000
00000000
,
00000001
00000100
00001000
00010000
,
00100000
00000000
01000000
00000000
,
00020000
00000000
10000000
01030000
,
10010000
01000000
00000000
01000000
,
00100000
10000000
01000000
01000000
,
00010000
00001000
00000100
00000001
,
00000010
00000000
00000010
00000000
00000001
00001000
00000001
00000000
,
00000000
00001000
00001000
00000001
,
00000000
00000001
00000001
00000100
,
00001000
00010000
00010000
01000000
,
10000000
00010000
01000000
00000000
00010000
10000000
01000000
00000000
,
10020000
01000000
00000000
01030000
,
00100000
00000000
00100000
00000000
10000000
00010000
01000000
00000000
,
00010000
10000000
01000000
00010000
,
00001000
00000000
00000100
00000000
00000001
00001000
00000100
00000000
,
00001002
00000100
00000000
00000103
,
00000010
00000000
00001000
00000000
00000001
00000010
00000100
00000000
,
00001000
00010000
00100000
01000000
,
10000000
00100000
01000000
00000000
00010000
00100000
01000000
00000000
,
10010000
00000000
01000000
00000000
01000000
00100000
01000000
00000000
,
00010000
00000000
10000000
00100000
00010000
00000000
00001000
00000000
,
00001000
00000010
00000001
00000001
,
00001000
00000000
00001000
00000000
00001000
00000001
00001000
00000000
,
00000110
00000100
00000000
00000100
,
00000010
00001000
00000001
00000010
,
00001000
00001000
00010000
00010000
,
00100000
01000000
00100000
00000000
01000000
00000000
01000000
00000000
,
10010000
00000000
01000000
00000000
01000000
00010000
00001000
00000000
,
00001000
00000000
00001000
00000000
00001000
00000100
00000001
00000000
,
00002001
00003100
00001002
00000103
,
00001000
00000000
00010000
00000000
01000000
10000000
00010000
00000000
,
20000000
31000000
00020000
01030000
,
20000000
31000000
00020000
01030000
,
10000000
00100000
00010000
00001000
,
00000010
00000001
00000100
00000000
00000010
00001000
00000100
00000000
,
00001001
00000000
00000000
00000000
;

//---------------dance-double - ----------------
#NOTES:
     dance-double:
     :
     Hard:
     8:
     :
00000000
00000000
00000000
00000000
,
00000000
00000000
00000000
00000000
,
00000000
00000000
00000000
00000000
,
00000000
00000000
00000000
00000000
,
00000000
00000000
00000000
00000000
,
00000001
00001000
00000100
00000000
00000100
00000000
00000100
00000000
,
00000010
00000000
00000001
00000000
00000100
00001000
00010000
00000000
,
01000000
10000000
00010000
00010000
,
10000000
00010000
10000000
00000000
00100000
01000000
00100000
00000000
,
20000000
31000000
00020000
01030000
,
10000000
00100000
00010000
00001000
,
00000010
00000001
00000100
00000000
00000010
00001000
00000100
00000000
,
00000010
00000001
00000010
00000100
00001000
00000001
00000100
00000000
,
00001001
00000000
00000100
00000000
00000010
00000001
00000100
00000000
,
00000100
00000010
00001000
00000001
,
00000010
00001000
00010000
00100000
,
10000000
00000000
10000000
00000000
10000000
00010000
10000000
00000000
,
00100000
00100000
01000000
00010000
,
10000000
00000000
01000000
00000000
00010000
00001000
00000100
00000000
,
00000001
00000001
00000001
00000001
,
00000010
00000100
00001000
00000001
00000100
00001000
00010000
00000000
,
00011000
00000100
00000100
00000100
,
00000010
00000000
00000001
00000000
00001000
00000010
00000100
00000000
,
00000100
00000001
00000010
00001000
,
00010000
00100000
10000000
00000000
00010000
01000000
10000000
01000000
,
00010000
00010000
00100000
00100000
,
01000000
10000000
00100000
01000000
,
00010000
00000000
10000000
00000000
01000000
00010000
00001000
00000000
,
00001000
00010000
01000000
10000000
01000000
00010000
00001000
00000000
,
00011000
00000000
00000110
00000000
00000001
00001000
00000010
00000100
,
00000010
00000000
00000010
00001000
00000001
00000010
00000100
00001000
,
00000010
00000000
00000101
00000000
00000001
00000100
00001000
00000000
,
00100000
01000000
10000000
00100000
01000000
00010000
01000000
00000000
,
21000000
00000000
30010000
00000000
00100000
01000000
00100000
00000000
,
00010000
00000000
00010000
10000000
00100000
01000000
00100000
00000000
,
01020000
10030000
01000000
00010000
,
00001000
00000100
00000001
00000010
00000100
00001000
00000001
00000000
,
00000110
00000001
00000110
00001000
,
00001000
00000000
00000001
00000100
00001000
00000000
00010000
00000000
,
01000000
10000000
10000000
10000000
,
00010000
00000000
00010000
00000000
00100000
01000000
00100000
00000000
,
10010000
00000000
01000000
00000000
00100000
00010000
01000000
00000000
,
00100000
00000000
10000000
00000000
01000000
00010000
00001000
00000000
,
00000100
00000001
00000010
00000010
,
00000100
00001000
00000001
00000100
00001000
00010000
01000000
10000000
,
00010000
00000000
00000000
00000000
;
