
//----- song ID: flya -----//
#TITLE:Fly away;
#ARTIST:ChiyoTia;
#BANNER:Fly away.png;
#BACKGROUND:Fly away-bg.png;
#CDTITLE:./CDTITLES/Dancing Stage SuperNOVA.png;
#MUSIC:Fly away.ogg;
#SAMPLESTART:65.256;
#SAMPLELENGTH:15;
#DISPLAYBPM:125;
#BPMS:0=124.8,4=125;

//---------------dance-single - ----------------
#NOTES:
     dance-single:
     :
     Beginner:
     3:
     :
0000
0000
0000
0000
,
0000
0000
0000
0000
,
0000
0000
0000
0000
,
0000
0000
0000
0000
,
0000
0000
0000
0000
,
1000
0000
0000
0000
,
0100
0000
0100
0000
,
0001
0000
0000
0000
,
0010
0000
0010
0000
,
0100
0000
0000
0000
,
1000
0000
0100
0000
,
0010
0000
0001
0000
,
0100
0000
0001
0000
,
1000
0000
0100
0000
,
0010
0000
0100
0000
,
1000
0000
0001
0000
,
0010
0000
0100
0000
,
0001
0000
0000
0000
,
1000
0000
0100
0000
,
0010
0000
0001
0000
,
0100
0000
1000
0000
,
0010
0010
0010
0000
,
1000
0000
0100
0000
,
0001
0000
0010
0000
,
0100
0000
0001
0000
,
1000
0000
0000
0000
,
0010
0010
0000
0000
,
0100
0100
0000
0000
,
0001
0000
0010
0000
,
0100
0000
1000
0000
,
0001
0001
0000
0000
,
1000
1000
0000
0000
,
0100
0000
0001
0000
,
1000
0000
0010
0000
,
0100
0100
0100
0000
,
0010
0010
0010
0000
,
0100
0000
0010
0000
,
0001
0000
0001
0000
,
0001
0001
0001
0000
,
1000
1000
1000
0000
,
0100
0000
0001
0000
,
1000
0000
0010
0000
,
0001
0001
0001
0000
,
1000
1000
1000
0000
,
0010
0000
0001
0000
,
0100
0000
0100
0000
,
0100
0100
0100
0000
,
0010
0010
0010
0000
,
1000
0000
0001
0000
,
0100
0000
0100
0000
,
0001
0000
0000
0000
,
1000
0000
1000
0000
,
0001
0000
0001
0000
,
1000
0000
0000
0000
;

//---------------dance-single - ----------------
#NOTES:
     dance-single:
     :
     Easy:
     4:
     :
0000
0000
0000
0000
,
0000
0000
0000
0000
,
0000
0000
0000
0000
,
0000
0000
0000
0000
,
0000
0000
0000
0000
,
1000
0000
0000
0000
,
0100
0000
0100
0000
,
0001
0000
0000
0000
,
0010
0000
0010
0000
,
0200
0000
0000
0300
,
1000
0000
0100
0000
,
0010
0000
0001
0000
,
0100
0000
0001
0000
,
1000
0000
0100
0000
,
0010
0000
0100
0000
,
1000
0000
0001
0000
,
0010
0000
0100
0000
,
0002
0000
0000
0003
,
1000
0000
0100
0000
,
0010
0000
0001
0000
,
0100
0000
1000
0000
,
0010
0010
0010
0000
,
1000
0000
0100
0000
,
0001
0000
0010
0000
,
0100
0000
0001
0000
,
2000
0000
0000
3000
,
0010
0010
0000
0000
,
0100
0100
0000
0000
,
0001
0000
0010
0000
,
0100
0000
1000
0000
,
0001
0001
0000
0000
,
1000
1000
0000
0000
,
0100
0000
0001
0000
,
1000
0000
0010
0000
,
0100
0100
0100
0000
,
0010
0010
0010
0000
,
0100
0000
0010
0000
,
0001
1000
0001
1000
,
0001
0001
0001
0000
,
1000
1000
1000
0000
,
0100
0000
0001
0000
,
1000
0000
0010
0000
,
0001
0001
0001
0000
,
1000
1000
1000
0000
,
0010
0000
0001
0000
,
0100
1000
0100
1000
,
0100
0100
0100
0000
,
0010
0010
0010
0000
,
1000
1000
0100
0000
,
0001
0001
0100
0000
,
0001
0100
0001
0000
,
1000
0010
1000
0000
,
0001
0010
0001
0000
,
1000
0000
0000
0000
;

//---------------dance-single - ----------------
#NOTES:
     dance-single:
     :
     Medium:
     7:
     :
0000
0000
0000
0000
,
0000
0000
0000
0000
,
0000
0000
0000
0000
,
0000
0000
0000
0000
,
0000
0000
0000
0000
,
0010
1000
0200
0300
,
0010
0001
0200
0300
,
1000
0100
0020
0030
,
0001
0100
0020
0030
,
2000
0000
0000
0000
3001
0100
0001
0000
,
1000
0100
0001
0100
,
1000
0010
0001
0010
,
0100
1000
0010
0001
,
1001
0000
0100
0000
0001
0100
0001
0000
,
0001
0100
1000
0100
,
0001
0010
1000
0010
,
0100
0001
0010
1000
,
1001
0200
0000
0301
,
0101
1000
0001
0100
,
1000
0001
1000
0100
,
0001
0100
1000
0100
,
0001
0100
0001
0000
1000
0000
0001
0000
,
1100
0001
1000
0100
,
0001
1000
0001
0100
,
1000
0100
0001
0100
,
1000
0100
1000
0000
0001
0000
1000
0000
,
0002
0103
0002
0103
,
2000
3100
2000
3100
,
0001
0001
1000
1000
,
0100
1000
0100
0000
0001
0000
0001
0000
,
2000
3100
2000
3100
,
0002
0103
0002
0103
,
1000
1000
0001
0001
,
0100
0001
0100
0000
1000
0000
1100
0000
,
0020
1030
0002
0103
,
0020
1030
0002
0103
,
0010
1000
0001
0100
,
2001
3100
0001
0100
,
0020
0031
2000
3100
,
0020
0031
2000
3100
,
0010
0001
1000
0100
,
1002
0103
1000
0100
,
0001
0100
0001
0000
1000
0100
1000
0000
,
0001
0100
0001
0000
1000
0100
1000
0000
,
0010
0001
0100
1000
,
0010
1000
0100
0001
,
1000
0100
1000
0000
0001
0100
0001
0000
,
1000
0100
1000
0000
0001
0100
0001
0000
,
0010
1000
0100
0001
,
0010
0001
0100
1000
,
0002
0103
2000
3100
,
0002
0103
2000
3100
,
0010
0001
0100
1000
,
2002
0000
0000
3003
;

//---------------dance-single - ----------------
#NOTES:
     dance-single:
     :
     Hard:
     11:
     :
0000
0000
0000
0000
,
0000
0000
0000
0000
,
0000
0000
0000
0000
,
0000
0000
0000
0000
,
0000
0000
0000
0000
,
1000
0000
0100
0000
1000
0000
0001
0100
0000
0000
0000
0010
0100
0000
0001
0000
,
0010
0000
0100
0000
1000
0000
0001
0010
0000
0000
0000
0001
1000
0000
0010
0000
,
0100
0000
0010
0000
1000
0000
0100
0010
0000
0000
0000
0100
1000
0000
0001
0000
,
0100
0000
1000
0000
0100
0000
0001
0010
0000
0000
0000
0100
1000
0000
0001
0000
,
0200
0000
0000
0300
0000
0000
0001
0100
0001
0010
0000
0000
,
0100
0000
0001
0000
0000
1000
0000
0100
0000
0010
0000
0000
0001
0000
1000
0000
,
0010
0000
0100
0000
0000
0001
0000
1000
0000
0100
0000
0000
0001
0000
0100
0000
,
0010
0000
0001
0000
0000
1000
0000
0010
0000
0100
0000
0000
0010
0000
1000
0000
,
0001
0000
0010
0000
0000
0100
0000
1000
0000
0010
0000
0000
1000
0000
0100
0000
,
0010
0000
0001
0000
0000
1000
0000
0001
0000
0100
0000
0000
1000
0000
0100
0000
,
0001
0000
1000
0000
0000
0100
0000
0010
0000
0100
0000
0000
1000
0000
0010
0000
,
0100
0000
0001
0000
0000
1000
0000
0010
0000
1000
0000
0000
0100
0000
0010
0000
,
2002
0000
0000
0000
0000
0000
0000
0000
3003
0000
0000
1010
0000
0000
0101
0000
,
1000
0001
0100
0000
0010
1000
0100
1000
,
0001
0010
0100
0000
1000
0010
0100
0010
,
1000
0100
1000
0000
0001
0100
0001
0000
,
0010
0100
1000
0001
0100
0010
1000
0000
,
0001
0100
1000
0000
1000
0100
0001
1000
,
0100
0010
0001
0000
0010
0001
1000
0100
,
1000
0010
0100
0000
0001
0010
0100
0000
,
1000
0000
0001
0000
0100
0000
0001
0010
0000
0000
0000
0100
1000
0000
0100
0000
,
1000
0001
0010
0000
1000
0010
1000
0000
,
0100
0000
1000
0001
0100
0001
1000
0100
,
0010
0001
0100
0000
0001
1000
0001
0000
,
1000
0010
0100
0000
0101
0000
1100
0001
,
0010
0100
1000
0000
0010
0100
0010
1000
,
0100
0000
0001
0000
0100
0000
0000
0000
1000
0000
0001
0000
0010
0000
0000
0001
,
0200
0010
0000
1000
0000
0010
0300
0001
,
0010
0000
1000
0000
0100
0000
1000
0000
0010
0000
0000
0100
0001
0000
1000
0000
,
0001
0010
0001
0100
0000
0001
1000
0100
,
0010
0100
1000
0010
0000
0100
0001
0010
,
0100
1000
0100
0000
1000
0010
1000
0000
,
0001
0100
1000
0100
0001
0100
1000
0000
,
0100
0001
0010
0100
0000
1000
0001
0100
,
0010
1000
0100
1000
0000
0001
1000
0010
,
0100
0001
0100
0000
0001
0010
0001
0000
,
1000
0100
0001
0100
1000
0100
0001
0000
,
1000
0010
0100
0001
0000
0010
0100
1000
,
0001
0100
0010
0100
0000
0010
1000
0100
,
1000
0001
0100
0000
0001
1000
0100
0000
,
0001
0010
1000
0010
0001
0100
1000
0000
,
0100
0001
1000
0100
0000
0010
0001
0100
,
0010
0100
0001
0010
0000
0100
1000
0001
,
0100
0010
0100
0000
0001
1000
0001
0000
,
0010
0000
1000
0000
0001
0000
0100
0010
0000
0000
0000
1000
0100
0000
0001
0000
,
0100
0000
1000
0000
0001
0000
1000
0010
0000
0000
0000
0100
0001
0000
1000
0000
,
0010
0000
1000
0000
0100
0000
1000
0001
0000
0000
0000
0010
0100
0000
1000
0000
,
0010
0000
0000
0001
0000
0000
0010
0000
0000
1000
0000
0000
0001
0000
0010
0000
0100
0000
1000
0000
0000
0000
0000
0000
,
0101
0000
0000
0000
;

//---------------dance-double - ----------------
#NOTES:
     dance-double:
     :
     Easy:
     3:
     :
00000000
00000000
00000000
00000000
,
00000000
00000000
00000000
00000000
,
00000000
00000000
00000000
00000000
,
00000000
00000000
00000000
00000000
,
00000000
00000000
00000000
00000000
,
00100000
00000000
00100000
00000000
,
01000000
00000000
01000000
00000000
,
10000000
00000000
10000000
00000000
,
00010000
00000000
00010000
00000000
,
02000000
00000000
00000000
03000000
,
10000000
00000000
00100000
00000000
,
00010000
00000000
10000000
00000000
,
00100000
00000000
10000000
00000000
,
01000000
00000000
00010000
00000000
,
00001000
00000000
00000100
00000000
,
00000001
00000000
00000010
00000000
,
00000100
00000000
00001000
00000000
,
00000002
00000000
00000000
00000003
,
00000100
00000000
00000010
00000000
,
00001000
00000000
00000100
00000000
,
00001000
00001000
00001000
00000000
,
00000001
00000001
00000001
00000000
,
00000010
00000000
00001000
00000000
,
00010000
00000000
00100000
00000000
,
01000000
01000000
01000000
00000000
,
00020000
00000000
00000000
00030000
,
10000000
00000000
01000000
00000000
,
00010000
00000000
00100000
00000000
,
00010000
00000000
01000000
00000000
,
10000000
00000000
01000000
00000000
,
00010000
00000000
00001000
00000000
,
00000010
00000000
00000001
00000000
,
00000200
00000000
00000000
00000300
,
00000010
00000010
00000010
00000000
,
00000001
00000001
00001000
00001000
,
00000001
00001000
00000001
00001000
,
00000010
00000000
00001000
00000000
,
00010000
00000000
01000000
00000000
,
10000000
10000000
00010000
00010000
,
10000000
00010000
10000000
00010000
,
00100000
00000000
01000000
00000000
,
00010000
00000000
00001000
00000000
,
00000010
00000010
00000100
00000100
,
00000010
00000100
00000010
00000100
,
00000001
00000000
00000100
00000000
,
00001000
00000000
00010000
00000000
,
00001000
00001000
00010000
00010000
,
00001000
00010000
00001000
00010000
,
01000000
00000000
10000000
00000000
,
00100000
00000000
00010000
00000000
,
10000000
00000000
00100000
00000000
,
01000000
00000000
00010000
00000000
,
00001000
00000000
00000100
00000000
,
00001000
00000000
00000000
00000000
;

//---------------dance-double - ----------------
#NOTES:
     dance-double:
     :
     Medium:
     8:
     :
00000000
00000000
00000000
00000000
,
00000000
00000000
00000000
00000000
,
00000000
00000000
00000000
00000000
,
00000000
00000000
00000000
00000000
,
00000000
00000000
00000000
00000000
,
00001000
00000000
00000000
00000000
00000001
00000000
00000000
00000200
00000000
00000000
00000000
00000000
00000300
00000000
00000001
00000000
,
00000010
00000000
00000000
00000000
00000100
00000000
00000000
00002000
00000000
00000000
00000000
00000000
00003000
00000000
00000010
00000000
,
00001000
00000000
00000000
00000000
00000100
00000000
00000000
00002000
00000000
00000000
00000000
00000000
00003000
00000000
00000001
00000000
,
00000100
00000000
00000000
00000000
00001000
00000000
00000000
00020000
00000000
00000000
00000000
00000000
00030000
00000000
00000000
00000000
,
00011000
00000000
01000000
00100000
,
00000000
10000000
00000000
00100000
00000000
01000000
00000000
00010000
,
00000000
00100000
00000000
11000000
00000000
00010000
00000000
10100000
,
00000000
01000000
00000000
10000000
00000000
01000000
00000000
00010000
,
00000000
10000000
00000000
01100000
00000000
00010000
00000000
10100000
,
00000000
00100000
00000000
00010000
00000000
00001000
00000000
00000010
,
00000000
00000001
00000000
00001100
00000000
00000010
00000000
00000101
,
00000000
00001000
00000000
00000010
00000000
00000001
00000000
00000010
,
00002002
00000000
00000000
00000000
00000000
00000000
00000000
00000000
00003003
00000000
00000000
00000100
00000000
00000000
00000010
00000000
,
00001000
00000000
00000001
00000000
00000010
00000001
00000100
00000000
,
00000001
00000000
00000100
00000000
00000010
00001000
00000100
00000000
,
00000101
00001000
00011000
00100000
,
10010000
00000000
01100000
00000000
00010000
10000000
00100000
00000000
,
01000000
00000000
00010000
00000000
10000000
00100000
01000000
00000000
,
00010000
00000000
10000000
00000000
01000000
10000000
00100000
00000000
,
01010000
00001000
00011000
00000100
,
00000110
00000000
00001000
00000000
00000001
00000100
00000010
00000000
,
00001000
00000000
00000100
00000000
00000010
00001000
00000100
00000000
,
00000001
00000000
00000010
00000000
00000001
00000100
00001000
00000000
,
00010000
01000000
10000000
00100000
,
01000000
00010000
11000000
01010000
,
00100000
00000000
10000000
00000000
00010000
01000000
00010000
00000000
,
00100000
00000000
00010000
00000000
10000000
01000000
10000000
00000000
,
00020000
00000000
00000000
00030000
,
10000000
00100000
00010000
00011000
,
00000100
00000000
00000001
00000000
00001000
00000100
00000010
00000000
,
00000001
00000000
00001000
00000000
00000010
00000100
00000001
00000000
,
00001000
00000010
00000001
00000010
,
00000100
00001100
00010000
00110000
,
01000000
00000000
10000000
00000000
00100000
10000000
01000000
00000000
,
00010000
00000000
01000000
00000000
10000000
00010000
01000000
00000000
,
00100000
00010000
01000000
00010000
,
11000000
00010000
00011000
00000010
,
00000001
00000000
00001000
00000000
00000100
00001000
00000010
00000000
,
00000100
00000000
00000001
00000000
00001000
00000100
00000010
00000000
,
00000001
00000100
00001000
00000100
,
00011000
00000100
00011000
00100000
,
00010000
00000000
01000000
00000000
10000000
00100000
01000000
00000000
,
00010000
00000000
01000000
00000000
00100000
01000000
10000000
00000000
,
00010000
00100000
10000000
01000000
,
00010000
00000000
00000000
00000000
10000000
00000000
00000000
02000000
00000000
00000000
00000000
00000000
03000000
00000000
10000000
00000000
,
00100000
00000000
00000000
00000000
01000000
00000000
00000000
00020000
00000000
00000000
00000000
00000000
00030000
00000000
10000000
00000000
,
01000000
00000000
00000000
00000000
00010000
00000000
00000000
00002000
00000000
00000000
00000000
00000000
00003000
00000000
00000100
00000000
,
00000001
00000000
00000000
00000000
00001000
00000000
00000000
00000200
00000000
00000000
00000000
00000000
00000300
00000000
00000010
00000000
,
00001001
00000000
00000000
00000000
;

//---------------dance-double - ----------------
#NOTES:
     dance-double:
     :
     Hard:
     11:
     :
00000000
00000000
00000000
00000000
,
00000000
00000000
00000000
00000000
,
00000000
00000000
00000000
00000000
,
00000000
00000000
00000000
00000000
,
00000000
00000000
00000000
00000000
,
00000001
00000000
00001000
00000000
00000010
00000000
00000000
00000200
00000000
00000000
00000000
00000000
00000300
00000000
00000001
00000000
,
00000010
00000000
00000001
00000000
00001000
00000000
00000000
00000010
00000000
00000000
00000000
00000100
00000001
00000000
00000010
00000000
,
00001000
00000000
00010000
00000000
00100000
00000000
00000000
20000000
00000000
00000000
00000000
00000000
30000000
00000000
00010000
00000000
,
01000000
00000000
00100000
00000000
10000000
00000000
00000000
01000000
00000000
00000000
00000000
00100000
00010000
00000000
01000000
00000000
,
00002000
00000000
00000000
00003000
00000000
00000000
00010000
00000010
00001000
00000100
00000000
00000000
,
00010000
00001000
00010000
00000000
00100000
10000000
00100000
00000000
,
01000000
00010000
01000000
00000000
00001000
00000000
00010000
00000000
,
00000010
00001000
00000100
00000000
00010000
01000000
10000000
00000000
,
00010000
01000000
00001000
00000010
00001000
00010000
01000000
00000000
,
10000000
00100000
10000000
00000000
01000000
00010000
01000000
00000000
,
00100000
00001000
00100000
00000000
00010000
00000010
00010000
00000000
,
10000000
00100000
01000000
00000000
00010000
00100000
01000000
00000000
,
10010000
00000000
00000000
00000000
01000000
00000000
00000000
00001000
00000000
00000000
00000000
00010010
00000000
00000000
00001001
00000000
,
00000100
00000010
00000001
00000000
00000100
00001000
00010000
00000000
,
00000010
00001000
00000100
00000000
00010000
00001000
00100000
00000000
,
01000000
10000000
00000000
00000000
10000000
00100000
00000000
00000000
00100000
00010000
00000000
00000000
00010000
00001000
00000000
00000000
,
00001000
00000010
00000000
00000000
00000010
00000001
00000000
00000000
00000001
00000000
00000100
00000000
00001000
00000000
00000000
00000000
,
00001000
00010000
01000000
00000000
10000000
00100000
01000000
00000000
,
00010000
10000000
01000000
00000000
00010000
00001000
00000100
00000000
,
00000001
00000010
00000000
00000000
00000010
00001000
00000000
00000000
00001000
00010000
00000000
00000000
00010000
00100000
00000000
00000000
,
00100000
10000000
00000000
00000000
10000000
00010000
00000000
00000000
00010000
00000000
01000000
00000000
10000000
00000000
00000000
00000000
,
01000000
00010000
00100000
00000000
01000000
00010000
00001000
00000000
,
00010000
00000000
00100000
10000000
00010000
01000000
00001000
00000000
,
00010000
00000100
00000010
00000000
00000001
00000100
00001000
00000000
,
00000001
00000010
00000100
00000000
00001001
00000000
00000110
00000000
,
00000001
00000100
00001000
00000000
00000100
00001000
00010000
00000000
,
00001000
00000000
00010000
01000000
10000000
01000000
00010000
00000000
,
00002000
00100000
00000000
00010000
00000000
01000000
00003000
00010000
,
00000010
00000000
00001000
00000000
00000100
00000000
00000001
00000000
00000100
00000000
00000000
00001000
00000010
00000000
00000100
00000000
,
00001000
00010000
01000000
00000000
10000000
00010000
01000000
00000000
,
00001000
00010000
01000000
00000000
10000000
00010000
01000000
00000000
,
00001000
00000000
00000010
00000001
00000100
00000001
00000010
00000000
,
00000100
00010000
00000010
00000100
00001000
00010000
01000000
00000000
,
00010000
00000010
00000100
00000000
00000001
00001000
00000100
00000000
,
00000010
00000001
00001000
00000000
00000010
00000100
00001000
00000000
,
00010000
00000000
01000000
10000000
00100000
00010000
00100000
00000000
,
10000000
01000000
00010000
00001000
00000100
00001000
00010000
00000000
,
01000000
10000000
00010000
00000000
01000000
00100000
10000000
00000000
,
01000000
00010000
00001000
00000000
00001000
00010000
00000010
00000000
,
00000100
00000000
00000001
00001000
00000100
00001000
00000001
00000000
,
00000100
00001000
00010000
00001000
00000100
00000001
00001000
00000000
,
00000100
00010000
00001000
00000000
00100000
00010000
01000000
00000000
,
00100000
10000000
01000000
00000000
00010000
00001000
00000100
00000000
,
00000001
00000000
00001000
00000100
00010000
00000100
00001000
00000000
,
00000010
00000000
00000100
00000000
00001000
00000000
00000000
00020000
00000000
00000000
00000000
00000000
00030000
00000000
00100000
00000000
,
10000000
00000000
01000000
00000000
00010000
00000000
00000000
00001000
00000000
00000000
00000000
00000100
00001000
00000000
00010000
00000000
,
00100000
00000000
10000000
00000000
01000000
00000000
00000000
00020000
00000000
00000000
00000000
00000000
00030000
00000000
00001000
00000000
,
00000100
00000000
00000000
00000001
00000000
00000000
00000010
00000000
00000000
00000100
00000000
00000000
00001000
00000000
00000001
00000000
00000100
00000000
00001000
00000000
00000000
00000000
00000000
00000000
,
00011000
00000000
00000000
00000000
;
