#TITLE:Torre De Babel;
#SUBTITLE:;
#ARTIST:David Bisbal;
#TITLETRANSLIT:;
#SUBTITLETRANSLIT:;
#ARTISTTRANSLIT:;
#GENRE:;
#CREDIT:;
#MENUCOLOR:;
#METERTYPE:DDR X;
#BANNER:Torre De Babel.png;
#BACKGROUND:Torre De Babel-bg.png;
#LYRICSPATH:;
#CDTITLE:;
#MUSIC:Torre De Babel.ogg;
#OFFSET:-0.360;
#SAMPLESTART:77.100;
#SAMPLELENGTH:12.000;
#SELECTABLE:YES;
#LISTSORT:;
#DISPLAYBPM:100.000;
#BPMS:0.000=100.000;
#STOPS:;
#BGCHANGES:-0.250=Torre De Babel.avi=1.000=0=0=0,
99999=-nosongbg-=1.000=0=0=0 // don't automatically add -songbackground-
;
#ATTACKS:;

//---------------dance-single - ----------------
#NOTES:
     dance-single:
     :
     Beginner:
     2:
     0.077,0.101,0.021,0.021,0.000:
0000
0000
0000
0000
,
0000
0000
0000
0000
,
0000
0000
0000
0000
,
0000
0000
0000
0000
,
0000
0000
0000
0000
,
0000
0000
0000
0000
,
0000
0000
0000
0000
,
0000
0000
0000
0000
,
0100
0000
0000
0000
,
0100
0000
0000
0000
,
0010
0000
0000
0000
,
0010
0000
0000
0000
,
1000
1000
0000
0000
,
0001
0001
0000
0000
,
1000
1000
0000
0000
,
0001
0001
0000
0000
,
1000
1000
0000
0000
,
0001
0001
0000
0000
,
1000
1000
0000
0000
,
0001
0001
0000
0000
,
0010
0000
0010
0000
,
0010
0000
0010
0000
,
0200
0000
0000
0000
,
0000
0000
0000
0300
,
0100
0000
0100
0000
,
0100
0000
0100
0000
,
0020
0000
0000
0000
,
0000
0000
0000
0030
,
1001
0000
0000
0000
,
1001
0000
0000
0000
,
0000
0000
0000
0000
,
0000
0000
0000
0000
,
1000
1000
0000
0000
,
0001
0001
0000
0000
,
1000
1000
0000
0000
,
0001
0001
0000
0000
,
1000
1000
0000
0000
,
0001
0001
0000
0000
,
1000
1000
0000
0000
,
0001
0001
0000
0000
;

//---------------dance-single - ----------------
#NOTES:
     dance-single:
     :
     Hard:
     12:
     0.418,0.389,0.206,0.217,0.480:
2002
0000
0000
3003
,
2200
3300
2002
3003
,
0202
0000
0000
0303
,
2002
3003
2020
3030
,
0022
0000
0000
0033
,
2002
3003
0220
0330
,
2002
0000
0000
0000
,
0000
0000
0000
3003
,
0000
0000
0100
1000
0000
1000
0100
0000
0010
0000
0001
0000
0010
0000
0000
0000
,
0000
0000
0100
0001
0000
0001
0100
0000
0010
0000
1000
0000
0010
0000
0000
0000
,
0000
0000
1000
0001
1000
0000
0100
0000
0010
0000
0010
0000
0010
0000
0000
0000
,
0001
0000
1000
0000
0001
1000
0001
0000
0100
0000
0010
0000
0100
0000
0000
0000
,
1000
0000
0100
1000
0000
0000
0000
0000
0000
0000
1000
0000
0100
0000
0010
0000
,
0001
0000
0100
0001
0000
0000
0000
0000
0000
0000
0001
0000
0100
0000
0010
0000
,
1000
0000
0100
1000
0000
0100
0000
0010
0000
0001
0000
0010
0000
0100
0000
1000
,
0000
0001
0000
1000
0000
0001
0000
1000
0000
0001
0000
0001
0000
0000
0000
0000
,
1000
0000
0010
1000
0000
0000
0000
0000
0000
0000
1000
0000
0010
0000
0100
0000
,
0001
0000
0010
0001
0000
0000
0000
0000
0000
0000
0001
0000
0100
0000
0010
0000
,
1000
0000
0010
1000
0000
0010
0000
0100
0000
0001
0000
0100
0000
0010
0000
1000
,
0000
0001
0000
1001
0000
1000
0000
0001
0000
1001
0000
0000
0000
0000
0000
0000
,
0000
0010
1000
0000
0100
0000
0010
0000
0001
0000
0010
0000
0100
0000
0010
0000
,
0000
0010
0001
0000
0010
0000
0100
0000
1000
0000
0100
0000
0010
0000
0000
0100
,
0000
0001
0000
1000
0000
0001
0000
1000
0000
0000
0000
0000
1000
0001
0000
1001
,
0000
1000
0100
0010
0001
0000
1001
0000
,
0000
0100
1000
0000
0001
0000
0100
0000
0001
0000
1000
0000
0100
0000
1000
0000
,
0000
0100
0001
0000
1000
0000
0100
0000
1000
0000
0001
0000
0100
0000
0001
0100
,
0000
1000
0000
0001
0000
1000
0000
0001
0000
0000
0000
0000
0001
1000
0000
1001
,
0000
0001
0010
0100
1000
0001
2000
3000
,
0000
0010
0010
0100
0100
0001
0001
0000
,
0000
0000
0010
0000
0010
0000
0100
0000
0100
0000
1000
0000
1000
0000
0000
0010
,
0100
0000
0100
0010
0000
0100
0000
0010
0000
0100
0000
0000
0000
1000
0100
0000
,
0010
0010
0100
0100
0001
1000
0001
1000
,
0100
0000
0010
0100
0000
0000
0000
0100
0010
0000
1000
0000
0001
0000
1000
0000
,
0010
0000
0100
0010
0000
0000
0000
0010
0100
0000
0001
0000
1000
0000
0001
0000
,
1000
0000
0100
1000
0000
0001
0000
1000
0000
0001
0000
0010
0000
1000
0000
0001
,
0000
1000
0000
0010
0000
1000
0000
0001
0000
1001
0000
1001
0000
0000
0000
0000
,
1000
0000
0100
1000
0000
0100
1000
0000
0001
0000
0100
0000
0001
0000
0100
0000
,
0001
0000
0100
0001
0000
0100
0001
0000
1000
0000
0100
0000
1000
0000
0100
0000
,
1000
0000
0010
1000
0000
0001
0000
1000
0000
0100
0000
0001
0000
1000
0000
0001
,
0000
0100
0000
1000
0000
1001
0000
1000
0000
1001
0000
1001
0000
0000
0000
0000
;

//---------------dance-single - ----------------
#NOTES:
     dance-single:
     :
     Medium:
     7:
     0.308,0.328,0.144,0.000,0.000:
0000
0000
0000
0000
,
0000
0000
0000
0000
,
1000
0000
0000
0000
,
0010
0000
0100
0000
,
0001
0000
0000
0000
,
0010
0000
0100
0000
,
1000
0000
0000
0000
,
1001
0000
1001
0000
,
1000
0000
0001
0000
1000
0001
1000
0000
,
0001
0000
1000
0000
0001
1000
0001
0000
,
0010
0100
0010
0100
0001
0000
0001
0000
,
0010
0100
0010
0100
1000
0000
1000
0000
,
1000
0100
0001
0000
0000
0010
0100
0000
,
1000
0100
0001
0000
0000
0010
0100
0000
,
0001
0100
1000
0000
0010
0010
0010
0000
,
0100
0100
0100
0000
1000
0001
1001
0000
,
1000
0010
0001
0000
0000
0010
0100
0000
,
1000
0010
0001
0000
0000
0010
0100
0000
,
0001
0010
1000
0000
0010
0010
0010
0000
,
0100
0100
0100
0000
0001
1000
1001
0000
,
1000
0000
0100
0000
1000
0100
0010
0001
,
0001
0000
0100
0000
0001
0100
0010
1000
,
1000
0100
0001
0100
1000
0000
1001
0000
,
0001
0100
1000
0100
0001
0000
1001
0000
,
1000
0000
0100
0000
0010
0001
0010
0001
,
0001
0000
0100
0000
0010
1000
0010
1000
,
1000
0101
0001
1100
,
1000
0011
0001
1010
,
1000
0100
0010
0001
0010
0100
1000
0000
,
0001
0100
0010
1000
0010
0100
0001
0000
,
1000
0010
0100
0010
0001
0010
0100
0000
,
0001
0010
0100
0010
1000
0010
0100
0000
,
1001
1000
0100
0000
0010
0100
0010
0000
,
1001
0001
0100
0000
0010
0100
0010
0000
,
1001
1000
0010
0000
0100
0010
0100
0000
,
1001
0001
0010
0000
0100
0010
0100
0000
,
1000
0010
0100
0000
0000
0010
0100
0000
,
0001
0010
0100
0000
0000
0010
0100
0000
,
1000
0100
0010
0100
0010
0100
0010
0000
,
0001
0100
0010
0100
0010
0100
0010
0000
;

//---------------dance-single - ----------------
#NOTES:
     dance-single:
     :
     Easy:
     5:
     0.197,0.287,0.248,0.000,0.000: // measure 1
0000
0000
0000
0000
,  // measure 2
0000
0000
0000
0000
,  // measure 3
0000
0000
0000
0000
,  // measure 4
0000
0000
0000
0000
,  // measure 5
0000
0000
0000
0000
,  // measure 6
0000
0000
0000
0000
,  // measure 7
0000
0000
0000
0000
,  // measure 8
0000
0000
0000
0000
,  // measure 9
1000
0000
1000
0000
,  // measure 10
0001
0000
0001
0000
,  // measure 11
1000
1000
1000
0000
,  // measure 12
0001
0001
0001
0000
,  // measure 13
0010
0100
0000
0001
,  // measure 14
0010
0100
0000
1000
,  // measure 15
0010
0100
0001
0001
,  // measure 16
0010
0100
1000
1000
,  // measure 17
1001
1001
0000
0100
,  // measure 18
1001
1001
0000
0010
,  // measure 19
1001
1001
0100
1000
,  // measure 20
0001
0100
1001
1001
,  // measure 21
0000
1000
1000
1000
,  // measure 22
0000
0001
0001
0001
,  // measure 23
1000
0001
1000
0000
,  // measure 24
0001
1000
0001
0000
,  // measure 25
1000
0010
0100
0100
,  // measure 26
0001
0010
0100
0100
,  // measure 27
1000
0001
1001
1001
,  // measure 28
0001
1000
1001
1001
,  // measure 29
0000
1000
0100
0010
,  // measure 30
0000
0001
0100
0010
,  // measure 31
1000
0001
1000
0001
,  // measure 32
1000
0001
1000
0001
1000
0001
1000
0001
,  // measure 33
1001
1001
0000
0000
,  // measure 34
1001
1001
0000
0000
,  // measure 35
1001
1001
1000
1000
,  // measure 36
0001
0001
1000
1001
,  // measure 37
0001
1001
0000
0100
,  // measure 38
0110
0010
0000
0010
,  // measure 39
0110
0100
1000
1000
,  // measure 40
0001
0001
1001
1001
;
