#TITLE:Rock 'n Roll (Pt. 2);
#SUBTITLE:;
#ARTIST:PHS MARCHING BAND;
#TITLETRANSLIT:;
#SUBTITLETRANSLIT:;
#ARTISTTRANSLIT:;
#GENRE:;
#CREDIT:PHS (Audio), N. Muriel (Steps, Recording), M. Vought (Drums/Metronome);
#MENUCOLOR:;
#METERTYPE:DDR X;
#BANNER:Rock 'n Roll (Pt. 2).png;
#BACKGROUND:Rock 'n Roll (Pt. 2)-bg.png;
#LYRICSPATH:;
#CDTITLE:;
#MUSIC:Rock 'n Roll (Pt. 2).mp3;
#OFFSET:-0.107;
#SAMPLESTART:33.640;
#SAMPLELENGTH:15.000;
#SELECTABLE:YES;
#LISTSORT:;
#BPMS:0.000=134.000;
#STOPS:;
#BGCHANGES:;
#ATTACKS:;

//---------------dance-single - ----------------
#NOTES:
     dance-single:
     :
     Beginner:
     4:
     0.131,0.354,0.044,0.209,0.000:
0000
0000
0000
0000
,
0000
0000
0000
0000
,
0000
0000
0000
0000
,
0000
0000
0000
0000
,
0000
0000
0000
0000
,
0000
0000
0000
0000
,
0001
0000
0000
0000
,
1000
0000
0000
0000
,
0100
0000
0000
0000
,
0000
0000
0000
0000
,
1000
0000
0000
0000
,
0001
0000
0000
0000
,
0100
0000
0000
0000
,
0000
0000
0000
0000
,
0010
0000
0000
0000
,
0100
0000
0000
0000
,
0001
0000
0000
0000
,
2000
0000
0000
0000
,
0000
0000
0000
3000
,
0020
0000
0130
0000
,
0000
0000
0100
0000
,
0020
0000
0130
0000
,
0000
0000
0100
0000
,
0020
0000
0130
0000
,
0000
0000
0100
0000
,
1001
0000
0000
0000
,
0000
0000
0000
0000
,
0020
0000
0000
0130
,
0200
0000
0000
0310
,
0020
0000
0000
0130
,
0200
0000
0000
0310
,
0020
0000
0130
0000
,
0200
0000
0310
0000
,
0020
0000
0130
0000
,
0200
0000
0310
0000
,
0020
0130
0200
0310
,
0020
0130
0200
0310
,
0020
0130
0200
0310
,
0020
0130
0200
0310
,
1001
0000
0000
0000
,
0200
0000
0310
0000
,
0000
0000
0010
0000
,
0200
0000
0310
0000
,
0000
0000
0010
0000
,
0200
0000
0310
0000
,
0000
0000
0010
0000
,
1001
0000
0000
0000
,
0000
0000
0000
0000
,
0100
0000
0000
0000
,
0001
0000
0000
0000
,
1000
0000
0000
0000
,
0000
0000
0000
0000
,
0100
0000
0000
0000
,
1000
0000
0000
0000
,
0001
0000
0000
0000
,
0000
0000
0000
0000
,
0100
0000
0000
0000
,
0001
0000
0000
0000
,
1000
0000
0000
0000
,
0002
0000
0000
0000
,
0000
0000
0000
0000
,
1003
0000
1001
0000
,
0000
0000
0110
0000
;

//---------------dance-single - ----------------
#NOTES:
     dance-single:
     :
     Easy:
     6:
     0.243,0.412,0.279,0.296,0.000:
0000
0000
0000
0000
,
0000
0000
0000
0000
,
1000
0100
0010
0010
,
1000
0100
0001
0001
,
1000
0100
0010
0010
,
1000
0100
0001
0001
,
1002
0000
0000
0000
,
0100
0000
0000
0000
,
0013
0000
0000
0000
,
1001
0000
0110
0110
,
2001
0000
0000
0000
,
0100
0000
0000
0000
,
0010
0000
0000
3000
,
1001
0000
0110
0110
,
1100
0000
0000
0000
,
0011
0000
0000
0000
,
0101
0000
0000
0000
,
2020
0000
0000
0000
,
0000
0000
3030
0100
,
0002
0000
1003
0000
,
1000
1000
1100
0000
,
2000
0000
3001
0000
,
0001
0001
0101
0000
,
2000
0000
3001
0000
,
0100
0100
0110
0110
,
0011
0000
0000
0000
,
0000
0000
0000
0000
,
2000
0000
0000
3010
,
0002
0000
0000
0013
,
2000
0000
0000
3100
,
0002
0000
0000
0103
,
2000
0000
3010
0000
,
0002
0000
0013
0000
,
2000
0000
3100
0000
,
0002
0000
0103
0000
,
2000
3010
0002
0013
,
2000
3100
0002
0103
,
2000
3010
0002
0013
,
2000
3100
0002
0103
,
1001
1001
1001
1001
,
2000
0000
3001
0000
,
0000
0001
0100
1000
,
0002
0000
1003
0000
,
0000
1000
0100
0001
,
2000
0000
3001
0000
,
0000
0010
0100
0010
,
0110
0000
0000
0000
,
1000
0100
0010
0001
,
2010
0000
0000
0000
,
0100
0000
0000
0000
,
0001
0000
0000
3000
,
1001
0000
0110
0110
,
0012
0000
0000
0000
,
0100
0000
0000
0000
,
1000
0000
0000
0003
,
1001
0000
0110
0110
,
2000
0000
0000
3000
,
0200
0000
0000
0300
,
0002
0000
0000
0003
,
0020
0000
0000
0000
,
0000
0000
0000
0130
,
0220
0330
1001
0000
,
0000
0001
0010
0100
,
1000
0000
0000
0000
;

//---------------dance-single - ----------------
#NOTES:
     dance-single:
     :
     Medium:
     8:
     0.266,0.412,0.166,0.453,0.118:
0000
0000
0000
0000
,
0000
0000
0000
0000
,
1000
0000
0000
0001
0000
0000
0001
0000
0000
0100
0000
0100
,
0001
0000
0000
1000
0000
0000
0001
0000
0000
0100
0001
0100
,
0001
0000
0000
0001
0000
0000
1000
0000
0000
0100
0000
0100
,
1000
0000
0000
0001
0000
0000
1000
0000
0000
0100
1000
0100
,
2000
0000
0000
0000
0000
0000
0000
0000
0000
3000
0000
0100
,
2000
0000
0000
0000
0000
0000
0000
0000
0000
3000
0000
0100
,
0002
0000
0000
0000
,
0000
0000
0100
0103
,
0002
0000
0000
0000
0000
0000
0000
0000
0000
0003
0000
0100
,
0002
0000
0000
0000
0000
0000
0000
0000
0000
0003
0000
0100
,
2000
0000
0000
0000
,
0000
0000
0100
3100
,
0220
0000
0000
0330
,
2020
0000
0000
3030
,
0220
0000
0000
0330
,
0202
0000
0000
0000
,
0000
0000
0303
1001
,
2000
0000
3100
0000
,
0000
0000
0001
0100
0000
0001
0100
0000
0000
0000
0000
0000
,
0002
0000
0103
0000
,
0000
0000
1000
0100
0000
1000
0100
0000
0000
0000
0000
0000
,
0020
0000
0130
0000
,
0000
0000
1000
0010
0000
1000
0010
0000
0000
0100
0000
0000
,
0001
0000
0000
0000
,
0000
0000
0000
0000
,
2000
0000
0000
3100
,
0020
0000
0000
0031
,
0002
0000
0000
0103
,
0020
0000
0000
1030
,
2000
0000
3001
0000
,
0002
0000
1003
0000
,
0020
0000
0130
0000
,
0200
0000
0310
0000
,
2000
3010
0020
1030
,
2000
3001
0002
1003
,
0002
0103
0200
0301
,
0200
0310
0020
0130
,
0011
0110
1010
0110
,
0002
0000
0103
0000
,
0000
0000
0100
1000
0000
0100
1000
0000
0000
0000
0000
0000
,
2000
0000
3100
0000
,
0000
0000
0100
0001
0000
0100
0001
0000
0000
0000
0000
0000
,
0020
0000
0031
0000
,
0000
0000
0100
0001
0000
0100
0010
0000
0000
0100
0000
0000
,
1000
0000
0000
0000
,
0000
0000
0000
0000
,
2000
0000
0000
0000
0000
0000
0000
0000
0000
3000
0000
0100
,
2000
0000
0000
0000
0000
0000
0000
0000
0000
3000
0000
0100
,
0002
0000
0000
0000
,
0000
0000
0010
0013
,
0002
0000
0000
0000
0000
0000
0000
0000
0000
0003
0000
0100
,
0002
0000
0000
0000
0000
0000
0000
0000
0000
0003
0000
0100
,
2000
0000
0000
0000
,
0000
0000
0010
3010
,
0022
0000
0000
0033
,
2020
0000
0000
3030
,
2200
0000
0000
3300
,
0202
0000
0000
0000
,
0000
0000
0303
1001
,
0220
0330
1001
0000
,
0000
0000
0000
0110
0000
0000
0110
0000
0000
1001
0000
0001
,
0100
0000
0000
0000
;

//---------------dance-single - ----------------
#NOTES:
     dance-single:
     :
     Hard:
     13:
     0.461,0.494,0.253,0.322,0.388: // measure 1
0000
0000
0000
0000
,  // measure 2
0000
0000
0000
0000
,  // measure 3
0100
0000
0000
0001
0000
0000
0010
0000
0000
0001
0000
0100
,  // measure 4
0001
0000
0000
1000
0000
0000
0100
0000
1000
0001
0100
0001
,  // measure 5
0100
0010
0100
0001
,  // measure 6
0100
0000
0000
1000
0000
0000
0100
0000
0001
0100
0000
0100
,  // measure 7
0002
0000
0000
1000
0000
0000
0100
0000
0000
1003
0000
1000
,  // measure 8
0200
0000
0000
1000
0000
0000
0010
0000
0000
1300
0000
1000
,  // measure 9
0020
0001
1000
0001
,  // measure 10
1000
0031
1001
1001
,  // measure 11
2000
0000
0000
0100
0000
0000
0010
0000
0000
3001
0000
1000
,  // measure 12
0002
0000
0000
0100
0000
0000
0010
0000
0000
1003
0000
1000
,  // measure 13
0200
1000
0010
0001
,  // measure 14
0010
1300
0110
1001
,  // measure 15
2100
0010
0100
3010
,  // measure 16
0102
0000
0000
0010
0000
0000
0100
0000
0000
0013
0000
1000
,  // measure 17
0200
0000
0000
0010
0000
0000
0001
0000
0000
0310
0000
0010
,  // measure 18
2000
0000
0000
0000
0000
0000
0000
0000
0001
3001
0000
0001
,  // measure 19
1000
0100
1000
0001
0010
0001
1000
0100
1000
0001
0000
0000
,  // measure 20
1001
0000
0000
0010
0000
1000
0100
0000
0000
0101
0000
0000
,  // measure 21
0000
0000
1000
0001
0000
0010
0001
0000
0000
0001
0000
0000
,  // measure 22
1001
0000
0000
0010
0000
0001
0100
0000
0000
1100
0000
0000
,  // measure 23
0000
0000
0001
1000
0000
0010
1000
0000
0000
1000
0000
0000
,  // measure 24
1100
0000
0000
0010
0000
0001
0010
0000
0000
0101
0000
0000
,  // measure 25
0000
0000
0001
1000
0000
0100
1000
0000
0000
0010
1000
0100
,  // measure 26
0001
0000
0000
1000
0000
0000
0001
0000
0000
1000
0000
1000
,  // measure 27
0100
0000
0100
0010
0100
0010
1000
0010
1000
0100
0010
0100
,  // measure 28
2000
0000
0000
3100
,  // measure 29
0012
0000
0000
0103
,  // measure 30
2010
0000
0000
3001
,  // measure 31
0012
0000
0000
1003
,  // measure 32
2000
0000
0000
0000
0000
3010
0000
0000
0000
0000
0000
0000
,  // measure 33
0002
0000
0013
0000
,  // measure 34
2000
0000
0000
0000
0000
3100
0000
0000
0000
0000
0000
0000
,  // measure 35
0002
0000
0000
0000
0000
0103
0001
0000
0100
0010
0000
0000
,  // measure 36
2000
3010
0210
0301
,  // measure 37
0002
0013
0210
1300
,  // measure 38
2000
3100
0200
0310
,  // measure 39
0020
0000
0000
0031
0000
0000
0002
0000
0000
1003
0000
1000
,  // measure 40
0001
1001
1001
1001
,  // measure 41
0110
0000
0000
0010
0000
0100
1000
0000
0000
1100
0000
0000
,  // measure 42
0000
0000
1000
0001
0000
0010
0001
0000
0000
0001
0000
0000
,  // measure 43
1001
0000
0000
0010
0000
0100
0001
0000
0000
0101
0000
0000
,  // measure 44
0000
0000
0001
1000
0000
0010
1000
0000
0000
1000
0000
0000
,  // measure 45
0110
0000
0000
1000
0000
0100
0010
0000
0000
0011
0000
0000
,  // measure 46
0000
0000
0010
1000
0000
0010
1000
0000
0000
0002
0000
0000
,  // measure 47
0103
0000
0000
0010
0000
0000
0100
0000
0100
0010
0000
0000
,  // measure 48
1000
0100
1000
0100
0001
0100
0001
0100
0001
0100
1000
0100
,  // measure 49
2000
0000
0000
0010
0000
0000
0000
0000
0000
3010
0000
0010
,  // measure 50
2000
0000
0000
0100
0000
0000
0000
0000
0000
3100
0000
0100
,  // measure 51
0002
0000
0000
0000
,  // measure 52
0010
0000
0000
0103
0000
0100
1000
0000
0100
1000
0000
1000
,  // measure 53
0200
0000
0000
0010
0000
0000
0001
0000
0000
0310
0000
0010
,  // measure 54
0200
0000
0000
0010
0000
0000
1000
0000
0000
0310
0000
0010
,  // measure 55
0200
0001
1000
0301
,  // measure 56
0101
0000
1000
0001
0000
0100
0001
0000
1000
0001
0000
1000
,  // measure 57
0002
0000
0000
0010
0000
0000
0100
0000
0000
0013
0000
0010
,  // measure 58
2000
0000
0000
0010
0000
0000
0100
0000
0000
3010
0000
0010
,  // measure 59
0002
0000
0000
0100
0000
0000
1000
0000
0000
0103
0000
0010
,  // measure 60
2000
0000
0000
0001
0000
0001
0001
0000
0000
3001
0000
0001
,  // measure 61
0001
0000
0010
0001
0010
0001
0100
0001
0100
0001
1000
0001
,  // measure 62
1000
1010
1000
1001
,  // measure 63
0001
0000
0000
0000
0010
0000
0001
0000
0000
0000
0100
0000
0001
0000
0000
0000
0000
0000
1000
0000
0000
0000
1000
0001
,  // measure 64
0100
0000
0000
0000
;
