#TITLE:Happy Together;
#SUBTITLE:;
#ARTIST:The Turtles;
#TITLETRANSLIT:;
#SUBTITLETRANSLIT:;
#ARTISTTRANSLIT:;
#GENRE:;
#CREDIT:;
#MENUCOLOR:;
#METERTYPE:DDR X;
#BANNER:Happy Together.png;
#BACKGROUND:Happy Together-bg.png;
#LYRICSPATH:;
#CDTITLE:;
#MUSIC:Happy Together.ogg;
#OFFSET:-0.306;
#SAMPLESTART:71.640;
#SAMPLELENGTH:15.000;
#SELECTABLE:YES;
#LISTSORT:;
#DISPLAYBPM:120.000;
#BPMS:0.000=121.360,112.000=119.900,172.000=121.500,175.000=119.000,209.000=119.500;
#STOPS:;
#BGCHANGES:;
#ATTACKS:;

//---------------dance-single - ----------------
#NOTES:
     dance-single:
     :
     Hard:
     13:
     0.476,0.500,0.361,0.287,0.645:
0000
0000
0000
0000
,
0000
0000
0000
0000
0000
0000
0000
0000
0000
0000
0000
0001
,
1000
1001
0001
1001
,
0010
0000
0000
1010
0000
0000
0001
0000
0001
0010
0000
0100
,
1000
0000
0100
1000
0000
0000
0000
0000
0100
0001
0000
0000
,
0000
0000
0000
2000
0000
0000
3100
0000
0100
0010
0000
0100
,
0010
0000
0001
0010
0000
0000
0000
0000
1000
0001
0000
1000
,
0002
0000
0000
0003
0000
0000
0000
0000
0002
0000
0000
0000
0003
0000
0000
0000
0000
0000
0000
0000
1000
0000
0000
0000
0100
0000
0000
0000
0000
0000
0000
0000
0100
0000
0000
0000
0010
0000
0000
0000
0000
0000
0000
0000
0010
0000
0000
0000
,
0100
0000
0100
0001
0000
0000
0000
0000
0001
1000
0000
1000
,
0001
0000
0000
0000
0000
0001
0011
0000
0011
0000
0100
0000
,
1100
2002
0000
3003
,
1000
0001
0000
0000
1001
0000
0000
0000
1000
0001
0000
0000
1001
0000
0000
0000
,
1000
0000
0100
0010
0000
0000
0000
0000
0001
0010
0000
0010
,
0001
0000
0000
0000
0000
0010
1000
0000
1000
0100
0000
0100
,
0010
0100
0010
0100
0000
0000
0000
0000
0001
1000
0000
1000
,
2002
0000
0000
3003
0000
1000
0100
0000
0100
0010
0000
0010
,
0100
0010
0100
0010
0000
0000
0000
0000
0001
1000
0000
1000
,
2002
0000
0000
3003
0000
1000
1100
0000
0110
0000
0011
0000
,
1001
2002
0000
3003
,
1000
0001
1000
0001
1000
0001
1000
0001
1000
0001
1000
0001
,
1000
0100
0010
0001
,
0001
0000
0100
0010
0000
0001
0000
0000
1000
0001
0000
0000
,
1001
0000
0000
0000
0000
1000
0010
0000
0100
0000
0000
0002
,
0000
0000
0000
0000
0000
0000
0000
0000
0000
0000
0000
0003
,
0001
0010
0100
1000
,
1000
0000
0100
0010
0000
1000
0000
0000
1000
0010
0000
0000
,
0110
0000
0000
0000
0000
0001
0010
0000
0011
0000
0000
2000
,
0000
0000
0000
0000
0000
0000
0000
0000
0000
0000
0000
3000
,
0001
0000
0100
0002
0000
0000
0023
0030
0100
1000
0000
1000
,
0100
0000
0000
0000
0000
0010
0001
0000
0001
1000
0000
1000
,
0010
0000
0010
0100
0000
0000
0000
0000
0100
0001
0100
0001
,
0010
0000
0000
0000
0000
0100
1000
0010
0100
0010
0000
0010
,
0001
0000
0001
0100
0000
0000
0000
0000
0100
1000
0000
1000
,
0001
0000
0000
0000
0000
0001
1000
0000
1100
0000
0110
0000
,
0011
0202
0000
0303
,
0001
1000
0001
1000
0001
1000
0001
1000
0001
1000
0001
1000
,
1001
1100
0011
0011
,
1000
0000
0010
0100
0000
0020
0030
0000
0100
0001
0000
0000
,
0101
0000
0000
0000
0000
0001
1000
0000
1100
0000
0000
0202
,
0000
0000
0000
0000
0000
0000
0000
0000
0000
0000
0000
0303
,
1000
0010
0100
0010
0000
0000
1000
0010
0001
0010
0000
0000
,
0001
0010
0100
0010
0000
0000
0001
0010
1000
0010
0000
0000
,
1001
0000
0000
0000
0000
1000
0100
0000
0110
0000
0000
2200
,
0000
0000
0000
0000
0000
0000
0000
0000
0000
0000
0000
3300
,
0001
0000
0100
0010
0000
0000
0001
0000
0100
0010
0000
0100
,
0010
0000
0000
0000
0000
0010
0100
0010
0100
0010
0100
0010
,
0001
0000
0001
0100
0000
0000
0000
0000
1000
0100
0000
0100
,
0010
0000
0000
0000
0000
1000
0001
0000
1000
0001
0000
1000
,
0001
0100
0001
0100
0000
0000
0000
0000
0100
0010
0000
0100
,
0010
0000
1000
0010
0000
1000
0010
0000
0001
0000
0100
0000
,
0101
2200
0000
3300
,
1000
0001
1000
0001
1000
0001
1000
0001
1000
0001
1000
0001
,
1001
0000
0000
1100
0000
2000
0020
0000
0000
3030
0000
0000
,
0002
0000
0010
0000
0100
0000
0200
0300
,
2003
0000
0000
3000
0000
0000
0001
0000
1001
0000
0000
2002
,
0000
0000
0000
0000
0000
0000
0000
0000
0000
0000
0000
3003
,
1100
1010
2002
3000
,
0010
0000
0000
0100
0000
0000
1000
0000
0000
0020
0030
0000
,
2000
0000
0000
3003
0000
0000
1100
0000
1001
0000
0000
0000
,
1000
0001
1000
0001
1000
0001
1000
0001
1000
0001
1000
0001
,
1000
0000
0001
1000
0001
0000
1000
0000
0001
1000
0001
0000
0001
0000
1000
0001
1000
0000
0001
0000
1000
0001
1000
0000
;

//---------------dance-single - ----------------
#NOTES:
     dance-single:
     :
     Medium:
     10:
     0.306,0.425,0.238,0.099,0.255:
0000
0000
0000
0000
,
0000
0000
0000
0000
0000
0000
0000
0000
0000
0000
0000
1000
,
0100
0010
0001
0011
,
0100
0010
0001
0011
,
1000
0000
1000
0100
0000
0000
0000
0000
0000
0001
0000
0000
,
0000
0001
0010
0001
,
1000
0000
1000
0010
0000
0000
0000
0000
0000
0001
0000
0000
,
1001
0000
0000
0000
0000
1000
0100
0000
0000
0001
0000
0000
,
1001
0000
0001
1000
0000
0000
0000
0000
0000
0010
0000
0000
,
1010
0000
0011
0001
,
0200
0310
0000
0000
,
1000
0000
0010
0100
0000
0000
1000
0000
0010
0100
0000
0000
,
0001
0000
0100
0001
0000
0000
0000
0000
0000
1000
0000
0000
,
1100
0000
0010
0010
,
0001
0000
0010
0001
0000
0000
0000
0000
0000
1000
0000
0000
,
1001
0000
0100
0100
,
0010
0000
0001
1000
0000
0000
0000
0000
0000
0110
0000
0000
,
0001
0000
0110
1000
,
0100
0020
0000
0030
,
1000
0000
0001
1000
0000
0000
0001
0000
1000
0001
0000
0000
,
1100
0000
0000
0000
0000
0000
0000
0000
0010
0000
0000
0000
,
0101
0000
0000
0000
0000
0000
0000
0000
1000
0000
0000
0000
,
1010
0000
0000
0000
0000
0000
0000
0000
0001
0000
0000
1000
,
0100
0100
0100
0100
,
0011
0000
0000
0000
0000
0000
0000
0000
0100
0000
0000
0000
,
1010
0000
0000
0000
0000
0000
0000
0000
0001
0000
0000
0000
,
0011
0000
0000
0000
0000
0000
0000
0000
0001
0000
0000
1000
,
0100
0100
0100
0100
,
1000
0000
0010
0100
0000
0000
0000
0000
0000
0100
0000
0000
,
0010
0000
0001
0010
,
1000
0000
0100
0010
0000
0000
0000
0000
0000
0001
0000
0000
,
0011
0000
0000
0000
0000
0000
1000
0000
0001
0100
0000
0000
,
0010
0000
0100
0010
0000
0000
0000
0000
0000
1000
0000
0000
,
1001
0000
0010
0100
,
0001
2000
0000
3000
,
0001
0000
1000
0001
0000
0000
1000
0000
0001
1000
0000
0000
,
0110
0000
0000
0000
0000
0000
0000
0000
1000
0000
0000
0000
,
0011
0000
0000
0000
0000
0000
0000
0000
0100
0000
0000
0000
,
1010
0000
0000
0000
0000
0000
0000
0000
0001
0000
0000
1000
,
0010
0010
0010
0010
,
0110
0000
0000
0000
0000
0000
0000
0000
0001
0000
0000
0000
,
1100
0000
0000
0000
0000
0000
0000
0000
0010
0000
0000
0000
,
0101
0000
0000
0000
0000
0000
0000
0000
1000
0000
0000
0100
,
0010
0010
0010
0010
,
1000
0100
0002
0103
,
0010
0000
1000
0010
0000
0000
0001
0000
0000
0100
0000
0000
,
0002
0003
2000
3000
,
2000
3000
0002
0003
,
0010
0100
1000
0001
,
0010
0100
0001
1000
,
1001
2002
0000
3003
,
1000
0000
0010
0100
0000
0000
0010
0000
0100
0001
0000
0000
,
1000
0000
0000
0100
0000
0010
0200
0300
0000
0000
0000
0000
,
0001
0000
0000
0010
0000
0010
0000
0000
0001
0100
0000
0000
,
1100
0000
0000
0000
0000
0000
0001
0000
0100
0000
0000
1100
,
0000
0000
0000
0000
,
0001
0000
0000
0010
0000
0100
0020
0030
0000
0000
0000
0000
,
1000
0000
0000
0100
0000
0100
0000
0000
1000
0010
0000
0000
,
0011
0000
0000
0000
0000
0000
1000
0000
0010
0000
0000
0000
,
1000
0001
1000
0001
1000
0001
1000
0001
1000
0001
1000
0001
,
1000
0010
1000
0100
1000
0100
1000
0001
1000
0001
0010
0001
;

//---------------dance-single - ----------------
#NOTES:
     dance-single:
     :
     Easy:
     4:
     0.219,0.249,0.296,0.090,0.000:
0000
0000
0000
0000
,
0000
0000
0000
0000
,
1000
0000
0100
0000
,
0010
0100
1000
0001
,
0100
0000
0000
0001
,
0001
0000
1000
0100
,
0010
0100
0000
1000
,
0002
0000
0013
0010
,
0100
0100
0000
1000
,
0001
0000
0010
0100
,
1000
0002
0000
0000
,
1000
0000
1003
0000
,
0001
0010
0000
0010
,
0001
0000
0001
0100
,
1000
0010
0000
0010
,
1000
0000
0100
0001
,
0010
0100
0000
0100
,
0010
0000
0100
1000
,
0010
0200
0000
0000
,
0010
0010
0010
0310
,
0110
0000
0000
0000
,
1010
0000
0000
0000
,
0110
0000
0010
0000
,
0011
0000
0000
0000
,
1001
0000
0000
0000
,
1100
0000
0000
0000
,
1001
0000
0001
0000
,
0101
0000
0000
0000
,
1000
0010
0000
0010
,
0100
0000
0100
0001
,
0010
0100
0000
0100
,
1000
0000
1000
0001
,
0010
0001
0000
0001
,
1000
0000
1000
0010
,
0100
0020
0000
0000
,
1000
1000
1000
1030
,
1010
0000
0101
0000
,
1010
0000
0101
0000
,
0011
0000
1100
0000
,
0011
0000
1100
0000
,
1001
0000
0110
0000
,
1001
0000
0110
0000
,
1000
0000
0100
0010
,
0002
0000
0000
0000
,
2003
0000
0000
0000
,
3000
1000
0100
0010
,
0200
2300
0000
0000
,
3000
0100
0001
0100
,
2000
3200
0000
0000
,
0300
1000
0001
0010
,
0002
0000
0000
0000
,
1000
1000
1000
1003
,
1001
0000
0110
0000
,
1001
0000
0110
0000
,
1010
0000
0101
0000
,
1010
0000
0101
0000
,
0110
0000
1001
0000
,
0110
0000
1001
0000
,
0011
0000
1100
0000
,
0011
0000
1100
0000
,
1000
0001
1000
0001
;

//---------------dance-single - ----------------
#NOTES:
     dance-single:
     :
     Beginner:
     2:
     0.082,0.099,0.049,0.049,0.000: // measure 1
0000
0000
0000
0000
,  // measure 2
0000
0000
0000
0000
,  // measure 3
0000
0000
0000
0000
,  // measure 4
0000
0000
0000
0000
,  // measure 5
1000
0000
0000
0100
,  // measure 6
0000
0000
1000
0000
,  // measure 7
0001
0000
0000
0000
,  // measure 8
0100
0000
0001
0000
,  // measure 9
1000
0000
0000
0000
,  // measure 10
0010
0000
1000
0000
,  // measure 11
0001
0000
0000
0000
,  // measure 12
0010
0000
0010
0000
,  // measure 13
0100
0000
0000
0000
,  // measure 14
1000
0000
0100
0000
,  // measure 15
0100
0000
0000
0000
,  // measure 16
0001
0000
0100
0000
,  // measure 17
0100
0000
0000
0000
,  // measure 18
1000
0000
0010
0000
,  // measure 19
0002
0000
0000
0000
,  // measure 20
1000
0000
0000
0000
,  // measure 21
1003
0000
0000
0000
,  // measure 22
0000
0000
0000
0000
,  // measure 23
0110
0000
0000
0000
,  // measure 24
0000
0000
0000
0000
,  // measure 25
1010
0000
0000
0000
,  // measure 26
0000
0000
0000
0000
,  // measure 27
0101
0000
0000
0000
,  // measure 28
0000
0000
0000
0000
,  // measure 29
0010
0000
0000
0000
,  // measure 30
1000
0000
0100
0000
,  // measure 31
0001
0000
0000
0000
,  // measure 32
0100
0000
1000
0000
,  // measure 33
0010
0000
0000
0000
,  // measure 34
1000
0000
0001
0000
,  // measure 35
0020
0000
0000
0000
,  // measure 36
0100
0000
0000
0000
,  // measure 37
0130
0000
0000
0000
,  // measure 38
0000
0000
0000
0000
,  // measure 39
1001
0000
0000
0000
,  // measure 40
0000
0000
0000
0000
,  // measure 41
0110
0000
0000
0000
,  // measure 42
0000
0000
0000
0000
,  // measure 43
1001
0000
0000
0000
,  // measure 44
0000
0000
0000
0000
,  // measure 45
2000
0000
0000
0000
,  // measure 46
0000
0000
0000
3000
,  // measure 47
0002
0000
0000
0000
,  // measure 48
0000
0000
0000
0003
,  // measure 49
0020
0000
0000
0000
,  // measure 50
0000
0000
0000
0030
,  // measure 51
0200
0000
0000
0000
,  // measure 52
0000
0000
0000
0300
,  // measure 53
0010
0000
0000
0000
,  // measure 54
0100
0000
0000
0000
,  // measure 55
0010
0000
0000
0000
,  // measure 56
1000
0000
0001
0000
,  // measure 57
1000
0000
0000
0000
,  // measure 58
0001
0000
0000
0000
,  // measure 59
1000
0000
0000
0000
,  // measure 60
0001
0000
1000
0000
,  // measure 61
0001
0000
1000
0000
;
