#TITLE:A Dios Le Pido;
#SUBTITLE:;
#ARTIST:Juanes;
#TITLETRANSLIT:;
#SUBTITLETRANSLIT:;
#ARTISTTRANSLIT:;
#GENRE:;
#CREDIT:;
#MENUCOLOR:;
#METERTYPE:DDR X;
#BANNER:A Dios Le Pido.png;
#BACKGROUND:A Dios Le Pido-bg.png;
#LYRICSPATH:;
#CDTITLE:;
#MUSIC:A Dios Le Pido.ogg;
#OFFSET:-0.082;
#SAMPLESTART:78.480;
#SAMPLELENGTH:12.000;
#SELECTABLE:YES;
#LISTSORT:;
#DISPLAYBPM:97.000;
#BPMS:0.000=97.030;
#STOPS:;
#BGCHANGES:-1.000=A Dios Le Pido.avi=1.000=0=0=0,
199.000=A Dios Le Pido.avi=0.000=0=0=1,
99999=-nosongbg-=1.000=0=0=0 // don't automatically add -songbackground-
;
#ATTACKS:;

//---------------dance-single - ----------------
#NOTES:
     dance-single:
     :
     Beginner:
     4:
     0.165,0.221,0.075,0.067,0.000:
0000
0000
0000
0000
,
0000
0000
0000
0000
,
0000
0000
0000
0000
,
0000
0000
0000
0000
,
0000
1000
0000
1000
,
0000
0001
0000
0001
,
0000
0010
0100
0010
,
0000
0100
0010
0100
,
0000
1000
0000
1000
,
0000
0001
0000
0001
,
0000
0100
0000
0100
,
0000
0010
0010
0000
,
0000
0010
0010
0100
,
0000
0100
0100
0000
,
0000
0100
0100
0010
,
0000
1000
0000
0001
,
0000
1000
0001
1000
,
2002
0000
0000
0000
,
0000
0000
0000
0000
,
0000
0000
0000
3003
,
0000
0100
0100
0010
,
0010
0001
0001
1000
,
1000
0100
0000
0010
,
0001
0001
0001
0000
,
0000
0100
0000
0010
,
1000
1000
1000
0000
,
1000
0100
2000
3000
,
0001
0100
0002
0003
,
1000
0010
2000
3000
,
0001
0010
0002
0003
,
0000
0000
1000
0001
,
2002
0000
3003
0000
,
0000
1000
0100
0010
,
0000
0001
0100
0010
,
0000
1000
1000
0001
,
0001
1001
1001
1000
,
1000
0100
0010
0001
,
0000
0100
0010
1000
,
0000
0100
0010
1000
,
0001
1001
1001
1000
,
1000
0001
0001
1000
,
1000
0010
0010
0100
,
0100
0001
0001
1000
,
1000
0010
0010
0100
,
0100
1000
0000
1000
,
0000
0001
0000
0001
,
0000
1000
0100
0010
,
0001
1001
1000
1001
,
1001
0000
0000
0000
;

//---------------dance-single - ----------------
#NOTES:
     dance-single:
     :
     Hard:
     13:
     0.542,0.543,0.159,0.075,0.767:
1000
0000
0100
0000
1000
0100
1000
0010
,
1000
0000
0001
0000
0001
0100
0001
0010
,
0001
0000
1000
0000
1000
0010
1000
0100
,
1000
0000
0001
0000
0001
0010
0001
0100
,
0001
1000
0001
0000
1000
0001
1000
0000
,
0010
1000
0010
1000
0001
0100
0001
0000
,
0000
1000
0100
0000
0000
0001
0100
0000
,
0000
1000
0010
0000
0001
0010
0001
1000
,
0100
0000
0000
0001
0000
0010
0000
0100
0000
0010
0000
0001
0000
0010
0000
0001
,
0000
0001
0000
0000
0000
1000
0000
0010
1000
0000
1000
0010
0000
0001
0000
0010
,
0000
1000
0000
0220
0330
0000
0000
0000
0000
0000
0000
1000
0010
0000
0010
0001
,
0000
0000
1000
0000
0010
0000
0001
0000
0010
0000
1000
0000
0010
0000
0001
1000
,
0000
0001
0000
1000
0000
0002
0003
0000
0000
0000
0000
1000
0010
0000
0010
0001
,
0000
0010
1000
0000
0100
0000
0010
0000
0000
0000
0001
0000
0100
0000
0010
0000
,
0000
0000
1000
0000
0100
0000
0001
0100
0000
0002
0003
0100
1000
0000
0100
1000
,
0000
0001
0010
0000
0100
0000
1000
0000
0001
0000
0001
0000
1000
0000
1000
0000
,
0010
0000
1000
0000
0001
0000
0100
0000
1100
0000
0100
0001
0100
0000
0100
1000
,
0000
1100
0000
0001
0000
0010
0000
0100
0000
1000
0000
0100
0000
0010
0000
0001
,
0000
0002
0003
0000
0000
0000
0110
0000
1000
0001
0000
0001
0000
1000
0000
0001
,
0000
0010
0000
0200
0300
0000
0000
0000
0000
0000
0000
1000
0010
0000
0010
1000
,
0000
1000
0100
0001
0100
0010
0100
1000
,
0001
0000
1000
0000
0001
0000
0022
0000
0000
0000
0033
0010
0001
0000
0001
0010
,
0000
0100
1000
0000
0100
0000
1000
0100
1000
0000
0010
0000
1000
0000
0001
0000
,
0100
0000
0001
0000
0010
0000
0001
0000
0100
0000
0001
0100
0001
0000
1000
0100
,
0000
0100
1000
0000
0001
0000
0010
0000
0001
0000
1000
0000
0010
0000
1000
0000
,
0100
0000
1000
0000
0001
0000
0100
0000
1000
0000
0001
0100
0001
0000
1000
0100
,
0000
0000
0100
1000
0000
1000
0100
0000
0001
0100
0001
0000
0101
0000
0101
0000
,
0000
0000
0000
0000
1000
0000
0010
0000
1000
0000
0100
0000
1000
0000
0000
0000
0001
0000
0000
0100
0001
0000
1000
0000
0100
0000
0000
0000
0110
0000
0000
0000
,
0000
0000
1000
0010
0000
0100
0010
0100
0001
0010
0001
0100
0001
0000
0101
0000
,
0000
0000
0000
0000
0000
0000
1000
0000
0000
0010
0000
0000
1000
0000
0000
0100
0000
0000
1000
0000
0000
0000
0000
0000
0001
0000
0000
0000
0000
0100
0010
0000
0000
0001
0000
0000
1000
0000
0000
0000
0000
0000
1100
0000
0000
0000
0000
0000
,
0000
0000
0000
0000
0000
1000
0000
1000
0100
0000
1000
0100
0000
1000
0100
0000
,
0010
0002
0000
0000
0000
0000
0003
0000
,
0110
0000
0000
0100
1000
0100
1000
0100
0000
0001
0000
0100
0001
0100
0001
0100
,
0000
1000
0000
0100
0010
0100
0010
0100
0000
0010
0000
0100
0010
0100
0010
0001
,
0000
1001
0000
0001
0000
1001
0000
1000
0000
1001
0000
1000
0001
1000
0000
1001
,
0000
0000
0000
0000
1000
0100
0000
0010
0000
0010
0000
0001
0100
0000
0100
0010
,
0000
0010
0000
1000
0100
0010
0001
0010
0000
0001
0100
0010
1000
0010
1000
0001
,
0000
1000
0100
0010
0001
0010
0000
0001
0000
0001
0100
0010
1000
0010
0000
0011
,
0000
0010
0000
0011
0000
0100
0000
0010
0000
0100
0010
1000
0100
0001
0000
1001
,
0000
0000
0000
0000
1000
0100
0000
0100
0000
0100
0000
0001
0100
0000
0100
0010
,
0000
0010
1000
0010
1000
0000
0001
0100
0001
0000
1000
0100
1000
0000
0001
0100
,
0000
1000
0000
0100
1000
0100
1000
0100
0001
0100
0001
0100
1000
0010
1000
0010
,
0001
0010
0000
1000
0010
0000
0001
0010
0001
0000
1000
0010
1000
0000
0001
1000
,
0000
1000
0000
1000
0100
1000
0100
1000
0001
0100
0001
0100
0010
1000
0010
1000
,
0001
0000
0001
0100
0001
0000
0100
0001
0000
1000
0100
0010
0100
0000
0001
0100
,
0000
0100
0000
0100
1000
0000
0001
0100
0001
0000
1000
0100
1000
0000
0100
0001
,
0000
0000
0000
1000
0000
0000
0000
0000
0000
0100
0000
0000
0010
0000
0000
0000
0001
0000
0000
0000
0010
0000
0000
0000
0001
0000
0000
0000
1000
0000
0000
0000
0001
0000
0000
0000
1000
0000
0000
0000
0000
0000
0100
0000
0000
0001
0000
0000
,
0000
0001
0000
0001
0100
0000
1000
0000
0010
1000
0010
1000
0010
0001
0010
0001
,
1001
0000
0000
0000
;

//---------------dance-single - ----------------
#NOTES:
     dance-single:
     :
     Medium:
     8:
     0.356,0.362,0.176,0.050,0.075:
0100
0000
1000
0000
0100
1000
0100
1000
,
0001
0000
0100
0000
0001
0100
0001
0100
,
1000
0000
0100
0000
1000
0010
1000
0010
,
0001
0000
0001
0000
0001
0010
0001
0010
,
1000
0000
0001
0000
1000
0001
1000
0001
,
1001
0000
1001
0000
0001
1000
0001
1000
,
1001
1100
1001
0101
,
1000
0100
1000
0100
1100
0100
0001
0100
,
0001
0000
0000
1000
0000
0000
0000
0000
1000
0000
0000
0001
0000
0000
0000
0000
,
0001
0000
0000
1000
0000
0000
0000
0000
1000
0000
0000
0001
0000
0000
0000
0000
,
0010
0000
0000
0100
0000
0000
0000
0000
0100
0000
0010
0000
0100
0000
0000
0000
,
1000
0100
1000
0100
1000
0100
1000
0100
,
0010
0010
0020
0030
,
0001
0100
0001
0100
0001
0100
0001
0100
,
0010
0010
0010
0010
0020
0000
0000
0030
,
1000
0100
0001
0100
1000
0100
0001
0100
,
1000
0010
0001
0010
1000
0010
0001
0010
,
1000
0000
0000
0100
0000
0000
0000
0000
0001
0000
0000
0100
0000
0000
0000
0000
,
1000
0000
0000
0010
0000
0000
0000
0000
0001
0000
0000
0010
0000
0000
0000
0000
,
0010
0000
0000
0100
0000
0000
0000
0000
0100
0000
0010
0000
0100
0000
0000
0000
,
1000
1000
0100
0100
0010
0010
0001
0001
,
0010
0010
0200
0000
0000
0000
0300
0000
,
0001
0001
0010
0010
0100
0100
1000
1000
,
0100
0100
0020
0000
0000
0000
0030
0000
,
1000
0001
1000
0100
1000
0001
1000
0100
,
1000
0010
1000
0001
1000
0100
1000
0001
,
0001
0000
0000
0001
0000
0000
0000
0000
1000
0000
0000
1000
0000
0000
0000
0000
,
0100
0000
0000
0100
0000
0000
0000
0000
0010
0000
0000
0010
0000
0000
0000
0000
,
1000
0000
0000
1010
0000
0000
0000
0000
0001
0000
0000
0011
0000
0000
0000
0000
,
1000
0000
0000
1100
0000
0000
0000
0000
0001
0000
0000
0101
0000
0000
0000
0000
,
2002
0000
0000
0000
,
0000
0000
0000
3003
,
1000
0000
0100
0010
0001
0000
0010
0100
,
1000
0000
0100
0010
0001
0000
0010
0100
,
1000
1000
0001
0001
1000
1000
0001
0001
,
1001
1100
1001
0101
,
0001
0000
0100
0010
1000
0000
0010
0100
,
0001
0000
0100
0010
1000
0000
0010
0100
,
0001
0001
1000
1000
0001
0001
1000
1000
,
1001
0101
1001
1100
,
1000
0000
0100
0000
0010
0001
0010
0001
,
0001
0000
0100
0000
0010
1000
0010
1000
,
1000
0000
0100
0000
0010
0001
0010
0001
,
0001
0000
0100
0000
0010
1000
0010
1000
,
1000
0100
1000
0000
0001
0100
0001
0000
,
1000
0010
1000
0000
0001
0010
0001
0000
,
1000
0100
0010
0001
1000
0100
0010
0001
,
0001
0010
0100
1000
0001
0010
0100
1000
,
1001
0000
0000
0000
;

//---------------dance-single - ----------------
#NOTES:
     dance-single:
     :
     Easy:
     5:
     0.217,0.342,0.151,0.050,0.017:
1000
1000
0100
0000
,
0001
0001
0100
0000
,
1000
1000
0010
0000
,
0001
0001
0010
0000
,
1000
0001
1000
0000
,
0001
1000
0001
0000
,
0000
1000
1000
0100
,
0100
0010
0010
0001
,
1000
1000
1000
1000
,
0100
0100
0100
0100
,
0001
0000
0001
0000
0001
0000
0001
1000
,
0001
0100
0010
0100
,
1000
0100
0100
0010
,
0001
0001
0100
0010
,
1000
0000
1000
0000
0001
1000
0001
0000
,
0100
0000
0010
0000
0100
0010
0100
0000
,
0010
0000
0100
0000
0010
0100
0010
0000
,
1000
1000
0100
0100
,
0001
0001
0100
0100
,
1001
1001
2002
3003
,
1000
0100
1000
0100
,
0001
0000
0100
0000
0001
0100
0001
0000
,
1000
1010
1000
1010
,
0001
0011
0001
0011
,
1001
1010
1001
0011
,
1001
1010
1001
0011
,
1000
0000
0000
0100
0000
0000
0000
0000
0000
0000
0000
0000
0000
0000
0000
0000
,
0001
0000
0000
0100
0000
0000
0000
0000
0000
0000
0000
0000
0000
0000
0000
0000
,
1000
0000
0000
0100
0000
0000
0000
0000
0000
0000
0000
0000
0000
0000
0000
0000
,
0001
0000
0000
0100
0000
0000
0000
0000
0000
0000
0000
0000
0000
0000
0000
0000
,
2002
0000
0000
0000
,
0000
0000
0000
3003
,
1000
1000
0100
0010
,
0001
0001
0100
0010
,
1000
1000
0001
0001
,
1000
0001
1000
0001
,
1000
1000
0010
0100
,
0001
0001
0010
0100
,
1000
1000
0001
0001
,
1000
0001
1000
0001
,
2002
0000
0000
0000
,
0000
0000
0000
0000
,
0000
0000
0000
0000
,
0000
0000
0000
3003
,
0000
1000
0100
1000
,
0000
0001
0100
0001
,
0000
1000
1000
0001
,
0001
1000
0001
1000
,
1001
0000
0000
0000
;
