#TITLE:Gotta Tell You;
#SUBTITLE:;
#ARTIST:Samantha Mumba;
#TITLETRANSLIT:;
#SUBTITLETRANSLIT:;
#ARTISTTRANSLIT:;
#GENRE:;
#CREDIT:Unknown StepMaker;
#BANNER:Gotta Tell You-bg.png;
#BACKGROUND:Gotta Tell You-bg.png;
#LYRICSPATH:;
#CDTITLE:;
#MUSIC:Gotta Tell You.mp3;
#OFFSET:-4.373;
#SAMPLESTART:33.910;
#SAMPLELENGTH:10.000;
#SELECTABLE:YES;
#BPMS:0.000=110.099
,1.000=110.103
,2.000=110.099
,4.000=110.103
,5.000=110.099
,7.000=110.103
,8.000=110.099
,10.000=110.103
,11.000=110.099
,14.000=110.103
,15.000=110.099
,17.000=110.103
,18.000=110.099
,20.000=110.103
,21.000=110.099
,23.000=110.103
,24.000=110.099
,26.000=110.103
,27.000=110.099
,30.000=110.103
,31.000=110.099
,33.000=110.103
,34.000=110.099
,36.000=110.103
,37.000=110.099
,40.000=110.103
,41.000=110.099
,44.000=110.103
,45.000=110.099
,48.000=110.103
,49.000=110.099
,52.000=110.103
,53.000=110.099
,56.000=110.103
,57.000=110.099
,60.000=110.103
,61.000=110.099
,64.000=110.103
,65.000=110.099
,68.000=110.103
,69.000=110.099
,72.000=110.103
,73.000=110.099
,76.000=110.103
,77.000=110.099
,80.000=110.103
,81.000=110.099
,84.000=110.103
,85.000=110.099
,88.000=110.103
,89.000=110.099
,92.000=110.103
,93.000=110.099
,96.000=110.103
,97.000=110.099
,100.000=110.103
,101.000=110.099
,104.000=110.103
,105.000=110.099
,108.000=110.103
,109.000=110.099
,112.000=110.103
,113.000=110.099
,116.000=110.103
,117.000=110.099
,120.000=110.103
,121.000=110.099
,124.000=110.103
,125.000=110.099
,128.000=110.103
,129.000=110.099
,132.000=110.103
,133.000=110.099
,136.000=110.103
,137.000=110.099
,140.000=110.103
,141.000=110.099
,144.000=110.103
,145.000=110.099
,148.000=110.103
,149.000=110.099
,152.000=110.103
,153.000=110.099
,156.000=110.103
,157.000=110.099
,160.000=110.103
,161.000=110.099
,164.000=110.103
,165.000=110.099
,167.000=110.103
,168.000=110.099
,169.000=110.103
,170.000=110.099
,171.000=110.103
,172.000=110.099
;
#STOPS:;
#BGCHANGES:;
#KEYSOUNDS:;
#ATTACKS:;

//---------------dance-single - ----------------
#NOTES:
     dance-single:
     :
     Beginner:
     1:
     0.120,0.212,0.050,0.000,0.000,78.000,5.000,0.000,0.000,0.000,0.000,0.120,0.212,0.050,0.000,0.000,78.000,5.000,0.000,0.000,0.000,0.000:
0000
0000
0000
0000
,
0000
0000
0000
0000
,
0000
0000
0000
0000
,
0000
0000
0000
0000
,
0000
0000
0000
0000
,
0000
0000
0000
0000
,
1000
0000
0010
0000
,
1000
0000
0010
0000
,
1000
1000
0000
0000
,
0010
0010
0000
0000
,
0000
0000
1000
0000
,
0000
0000
0001
0000
,
0100
0100
0000
0000
,
1000
1000
1000
0000
,
0000
0001
0000
1000
,
0000
0010
0000
1000
,
0000
0001
0000
0100
,
0000
0010
0000
1000
,
0000
0001
0000
0010
,
0000
1000
0000
0010
,
0000
0000
0000
0000
,
0010
0010
0010
0010
,
0010
0000
1000
0000
,
0001
0000
1000
0000
,
0010
0000
0001
0000
,
1000
1000
1000
1000
,
1000
0000
0010
0000
,
1000
1000
0000
0000
,
0001
0000
1000
0000
,
0010
0010
0000
0000
,
0000
1000
1000
0000
,
0000
0001
0001
0000
,
0010
0000
0100
0000
,
0001
0001
0001
0001
,
0001
0000
0010
0000
,
0100
0000
0010
0000
,
1000
0000
0001
0000
,
1000
1000
0000
0000
,
0000
0001
0001
0000
,
0000
0010
0010
0000
,
1000
0000
0001
0000
,
1001
1001
1001
1001
,
1001
0000
0000
0000
,
0000
0000
0000
0000
;

//---------------dance-single - ----------------
#NOTES:
     dance-single:
     :
     Easy:
     2:
     0.146,0.169,0.030,0.020,0.000,96.000,3.000,2.000,0.000,0.000,0.000,0.146,0.169,0.030,0.020,0.000,96.000,3.000,2.000,0.000,0.000,0.000:
1000
0000
0100
0000
,
0010
0010
0000
0000
,
0000
1000
0000
0010
,
0000
0100
0100
0000
,
1000
0000
0010
0000
,
0000
0000
0000
0000
,
1001
0000
0100
0000
,
1000
1000
0000
0000
,
0010
0000
1000
0000
,
0001
0001
0000
0000
,
0000
0010
0010
0000
,
0000
1000
1000
0000
,
0010
0000
0001
0000
,
1000
1000
1000
1000
,
0000
0010
0010
0000
,
0001
0001
0000
0000
,
1000
0010
1000
0001
,
0000
0000
0000
0000
,
0100
0000
0010
0000
,
0010
1000
1000
0000
,
0002
0000
0000
0000
0000
0000
0000
0000
0000
0000
0000
0000
0000
0000
0000
0000
0000
0000
0000
0000
0000
0000
0000
0000
0000
0000
0000
0000
0000
0000
0000
0000
0000
0003
0000
0000
0000
0000
0000
0000
0000
0000
0000
0000
0000
0000
0000
0000
0000
0000
0000
0000
0000
0000
0000
0000
0000
0000
0000
0000
0000
0000
0000
0000
,
1000
0100
1000
0100
,
1000
0000
0010
0000
,
0001
0000
1000
0000
,
0010
0000
0100
0000
,
1001
0001
1000
1001
,
0001
0000
1000
0000
,
0010
0010
0000
0000
,
1000
0000
0001
0000
,
0100
0010
0000
0000
,
0000
1000
0001
0000
,
0000
0010
0100
0000
,
0001
0000
0100
0000
,
0010
0000
0000
0000
0000
0000
0000
0000
0000
0000
0000
0000
0000
0000
0000
0000
0000
0000
0000
0000
0000
0000
0000
0000
0000
0000
0000
0000
0000
0000
0000
0000
0000
0000
0000
0000
0000
0000
0000
0000
0000
0000
0000
0000
0000
0000
0000
0000
0001
0000
0000
0000
0000
0000
0000
0000
0000
0000
0000
0000
0000
0000
0000
0000
0000
0000
0000
0000
0000
0000
0000
0000
0000
0000
0000
0000
0000
0000
0000
0000
0000
0000
0000
0000
0000
0000
0000
0000
0000
0000
0000
0000
0000
0000
0000
0000
2000
0000
0000
0000
0000
0000
0000
0000
0000
0000
0000
0000
0000
0000
0000
0000
0000
3000
0000
0000
0000
0000
0000
0000
0000
0000
0000
0000
0000
0000
0000
0000
0000
0000
0000
0000
0000
0000
0000
0000
0000
0000
0000
0000
0000
0000
0000
0000
0010
0000
0000
0000
0000
0000
0000
0000
0000
0000
0000
0000
0000
0000
0000
0000
0000
0000
0000
0000
0000
0000
0000
0000
0000
0000
0000
0000
0000
0000
0000
0000
0000
0000
0000
0000
0000
0000
0000
0000
0000
0000
0000
0000
0000
0000
0000
0000
,
0100
0000
0010
0000
,
0100
0000
0000
0000
,
1000
1000
0100
0000
,
0010
0010
0001
0000
,
0000
1000
0010
0000
,
0000
0100
0001
0000
,
1000
1000
1000
1000
,
0010
0010
0010
0010
,
0010
0000
0000
0000
;

//---------------dance-single - ----------------
#NOTES:
     dance-single:
     :
     Medium:
     4:
     0.177,0.233,0.050,0.111,0.000,107.000,5.000,11.000,0.000,0.000,0.000,0.177,0.233,0.050,0.111,0.000,107.000,5.000,11.000,0.000,0.000,0.000:
1000
0000
0010
0000
,
0100
0000
0000
0000
0000
0000
0000
0000
0000
0000
0000
0000
0000
0000
0000
0000
0000
0000
0000
0000
0000
0000
0000
0000
0000
0000
0000
0000
0000
0000
0000
0000
0000
0000
0000
0000
0000
0000
0000
0000
0000
0000
0000
0000
0000
0000
0000
0000
0100
0000
0000
0000
0000
0000
0000
0000
0000
0000
0000
0000
0000
0000
0000
0000
0000
0000
0000
0000
0000
0000
0000
0000
0000
0000
0000
0000
0000
0000
0000
0000
0000
0000
0000
0000
0000
0000
0000
0000
0000
0000
0000
0000
0000
0000
0000
0000
0200
0000
0000
0000
0000
0000
0000
0000
0000
0000
0000
0000
0000
0000
0000
0000
0000
0000
0000
0000
0000
0000
0000
0000
0000
0000
0000
0000
0000
0000
0000
0000
0000
0000
0000
0000
0000
0000
0000
0000
0000
0000
0000
0000
0000
0000
0000
0000
0000
0000
0000
0000
0000
0000
0000
0000
0000
0000
0000
0000
0000
0000
0000
0000
0000
0000
0000
0000
0000
0000
0000
0000
0000
0000
0000
0000
0000
0000
0000
0300
0000
0000
0000
0000
0000
0000
0000
0000
0000
0000
0000
0000
0000
0000
0000
0000
,
0000
0001
0000
1000
,
0000
0100
0000
0010
,
0001
0001
0000
1000
,
0010
0100
0000
0000
,
1000
0000
0010
0000
,
1000
0000
0000
0000
,
0100
0000
1000
0000
,
0010
0100
0000
0000
,
0000
1000
0001
0110
,
0000
1000
1000
0000
,
0010
0100
1000
0001
,
0100
0010
1000
0100
,
0000
0000
2000
0000
,
0000
0000
0000
0000
0000
0000
0000
0000
0000
0000
0000
0000
0000
0000
0000
0000
0000
0000
0000
0000
0000
0000
0000
0000
0000
0000
0000
0000
0000
3000
0000
0000
0000
0000
0000
0000
0000
0000
0000
0000
0000
0000
0000
0000
0000
0000
0000
0000
0000
0000
0000
0000
0000
0000
0000
0000
0000
0000
0000
0000
0000
0000
0000
0000
0000
0000
0000
0000
0000
0000
0000
0000
0000
0000
0000
0000
0000
0000
0000
0000
0000
0000
0000
0000
0000
0000
0000
0000
0000
0000
0000
0000
0000
0000
0000
0000
,
0020
0000
0000
0000
0000
0000
0000
0000
0000
0000
0000
0000
0000
0000
0000
0000
0000
0000
0000
0000
0000
0000
0000
0000
0000
0000
0000
0000
0000
0000
0000
0000
0000
0000
0000
0000
0000
0000
0000
0000
0000
0000
0000
0000
0000
0000
0000
0000
0200
0000
0000
0000
0000
0000
0000
0000
0000
0000
0000
0000
0000
0000
0000
0000
0000
0000
0000
0000
0000
0000
0000
0000
0000
0000
0000
0000
0000
0000
0000
0000
0000
0000
0000
0000
0000
0000
0000
0000
0000
0000
0000
0000
0000
0030
0300
0000
,
0002
0000
0000
0000
0000
0000
0000
0000
0000
0000
0000
0000
0000
0000
0000
0000
0000
0000
0000
0000
0000
0000
0000
0000
0000
0000
0000
0000
0000
0000
0000
0000
0000
0000
0000
0000
0000
0000
0000
0000
0000
0000
0000
0000
0000
0000
0000
0000
0000
0000
0000
0000
0000
0000
0000
0000
0000
0000
0000
0003
0000
0000
0000
0000
0000
0000
0000
0000
0000
0000
0000
0000
0000
0000
0000
0000
0000
0000
0000
0000
0000
0000
0000
0000
0000
0000
0000
0000
0000
0000
0000
0000
0000
0000
0000
0000
,
2000
0000
0000
0000
0000
0000
0000
0000
0000
0000
0000
0000
0000
0000
0000
0000
0000
0000
0000
0000
0000
0000
0000
0000
0000
0000
0000
0000
0000
0000
0000
0000
0000
0000
0000
0000
0000
0000
0000
0000
0000
0000
0000
0000
0000
0000
0000
0000
0000
0000
0000
0000
0000
0000
0000
0000
0000
0000
0000
0000
0000
0000
0000
0000
0000
0000
0000
0000
0000
0000
0000
0000
0000
0000
0000
0000
0000
3000
0000
0000
0000
0000
0000
0000
0000
0000
0000
0000
0000
0000
0000
0000
0000
0000
0000
0000
0020
0000
0000
0000
0000
0000
0000
0000
0000
0000
0000
0000
0000
0000
0000
0000
0000
0000
0000
0000
0000
0000
0000
0000
0000
0000
0000
0000
0000
0000
0000
0000
0000
0000
0000
0000
0000
0000
0000
0000
0000
0000
0000
0000
0000
0000
0000
0000
0000
0000
0000
0000
0000
0000
0000
0000
0000
0000
0000
0000
0000
0000
0000
0000
0000
0000
0000
0000
0000
0000
0000
0000
0000
0000
0000
0000
0000
0000
0000
0000
0000
0000
0000
0000
0000
0030
0000
0000
0000
0000
0000
0000
0000
0000
0000
0000
,
0002
0000
0000
0000
0000
0000
0000
0000
0000
0000
0000
0000
0000
0000
0000
0000
0000
0000
0000
0000
0000
0000
0000
0000
0000
0000
0000
0000
0000
0000
0000
0000
0000
0003
0000
0000
0000
0000
0000
0000
0000
0000
0000
0000
0000
0000
0000
0000
0000
0000
0000
0000
0000
0000
0000
0000
0000
0000
0000
0000
0000
0000
0000
0000
,
1000
0010
0100
0000
,
0001
0001
0001
1000
,
1000
0010
1000
0001
,
0100
0010
1000
1000
,
0100
0001
0010
0100
,
0010
0110
1001
0110
,
1001
1000
0010
0100
,
0001
0001
0000
0000
,
1000
0000
0010
0000
,
0000
0000
0000
0000
,
0000
0000
0000
0000
0000
0000
0000
0000
0000
0000
0000
0000
0000
0000
0000
0000
0000
0000
0000
0000
0000
0000
0000
0000
0000
0000
0000
0000
0000
0000
0000
0000
0000
0000
0000
0000
0000
0000
0000
0000
0000
0000
0000
0000
0000
0000
0000
0000
1000
0000
0000
0000
0000
0000
0000
0000
0000
0000
0000
0000
0000
0000
0000
0000
0000
0000
0000
0000
0000
0000
0000
0000
0000
0000
0000
0000
0000
0000
0000
0000
0000
0000
0000
0000
0000
0000
0000
0000
0000
0000
0000
0000
0000
0000
0000
0000
0020
0000
0000
0000
0000
0000
0000
0000
0000
0000
0000
0000
0000
0000
0000
0000
0000
0000
0000
0000
0000
0000
0000
0000
0000
0000
0000
0000
0000
0000
0000
0000
0000
0000
0000
0000
0000
0000
0000
0000
0000
0000
0000
0000
0000
0000
0000
0000
0000
0000
0000
0000
0000
0000
0000
0000
0000
0000
0000
0000
0000
0000
0000
0000
0000
0000
0000
0000
0000
0000
0000
0000
0000
0000
0000
0000
0000
0000
0000
0030
0000
0000
0000
0000
0000
0000
0000
0000
0000
0000
0000
0000
0000
0000
0000
0000
,
0000
1000
0010
0000
,
1000
0100
0010
0000
,
0001
1000
0100
0010
,
1000
0001
1000
1000
,
0001
0100
0000
0000
,
1000
0000
0010
0000
,
1000
1000
0000
0000
,
1000
0000
0000
0000
0000
0000
0000
0000
0000
0000
0000
0000
0000
0000
0000
0000
0000
0000
0000
0000
0000
0000
0000
0000
0000
0000
0000
0000
0000
0000
0000
0000
0000
0000
0000
0000
0000
0000
0000
0000
0000
0000
0000
0000
0000
0000
0000
0000
0001
0000
0000
0000
0000
0000
0000
0000
0000
0000
0000
0000
0000
0000
0000
0000
0000
0000
0000
0000
0000
0000
0000
0000
0000
0000
0000
0000
0000
0000
0000
0000
0000
0000
0000
0000
0000
0000
0000
0000
0000
0000
0000
0000
0000
0000
0000
0000
0200
0000
0000
0000
0000
0000
0000
0000
0000
0000
0000
0000
0000
0000
0000
0000
0000
0000
0000
0000
0000
0000
0000
0000
0000
0000
0000
0000
0000
0000
0000
0000
0000
0000
0000
0000
0000
0000
0000
0000
0000
0000
0000
0000
0000
0000
0000
0000
0000
0000
0000
0000
0000
0000
0000
0000
0000
0000
0000
0000
0000
0000
0000
0000
0000
0000
0000
0000
0000
0000
0000
0000
0000
0000
0000
0000
0000
0000
0000
0000
0000
0000
0000
0300
0000
0000
0000
0000
0000
0000
0000
0000
0000
0000
0000
0000
,
0000
0000
0000
0000
0000
0000
0000
0000
0000
0000
0000
0000
0000
0000
0000
0000
0000
0000
0000
0000
0000
0000
0000
0000
0000
0000
0000
0000
0000
0000
0000
0000
0000
0000
0000
0000
0000
0000
0000
0000
0000
0000
0000
0000
0000
0000
0000
0000
0001
0000
0000
0000
0000
0000
0000
0000
0000
0000
0000
0000
0000
0000
0000
0000
0000
0000
0000
0000
0000
0000
0000
0000
0000
0000
0000
0000
0000
0000
0000
0000
0000
0000
0000
0000
0000
0000
0000
0000
0000
0000
0000
0000
0000
0000
0000
0000
0200
0000
0000
0000
0000
0000
0000
0000
0000
0000
0000
0000
0000
0000
0000
0000
0000
0000
0000
0000
0000
0000
0000
0000
0000
0000
0000
0000
0000
0000
0000
0000
0000
0000
0000
0000
0000
0000
0000
0000
0000
0000
0000
0000
0000
0000
0000
0000
0000
0000
0000
0000
0000
0000
0000
0000
0000
0000
0000
0000
0000
0000
0000
0000
0000
0000
0000
0000
0000
0000
0000
0000
0000
0000
0000
0000
0000
0000
0000
0000
0000
0000
0000
0300
0000
0000
0000
0000
0000
0000
0000
0000
0000
0000
0000
0000
,
0001
1000
0010
0100
,
1000
1000
1000
1000
,
1000
0000
0000
0000
,
0000
0000
0000
0000
;

//---------------dance-single - ----------------
#NOTES:
     dance-single:
     :
     Hard:
     5:
     0.218,0.214,0.040,0.010,0.000,146.000,4.000,1.000,0.000,0.000,0.000,0.218,0.214,0.040,0.010,0.000,146.000,4.000,1.000,0.000,0.000,0.000: // measure 0
1000
0010
0100
0010
,  // measure 1
1000
0010
1000
0000
1000
0000
1000
0000
,  // measure 2
0000
1000
0010
0000
,  // measure 3
0000
1000
0010
0000
0100
0000
0000
0000
,  // measure 4
0010
0010
0001
1000
,  // measure 5
0100
0001
1000
0010
,  // measure 6
1000
0001
1000
0000
0010
0100
0010
0000
,  // measure 7
1000
1000
0000
0000
,  // measure 8
0010
0100
0001
0001
,  // measure 9
1000
0000
0001
1000
0000
0000
0010
0000
,  // measure 10
1000
0001
0100
0000
,  // measure 11
0000
1000
1000
0000
,  // measure 12
0010
0100
0000
0000
,  // measure 13
0001
1000
0010
0100
,  // measure 14
0001
1000
0001
0000
0100
0000
0010
0000
,  // measure 15
1000
0001
1000
0000
0010
0000
0010
0000
,  // measure 16
0000
1000
0000
1000
0000
0000
0010
0000
,  // measure 17
0100
0001
1000
0010
,  // measure 18
0000
0001
1000
0000
0100
0000
0100
0000
,  // measure 19
0010
0000
1000
0000
0001
1000
0001
0000
,  // measure 20
0001
0100
0010
1000
,  // measure 21
1100
0011
1000
0100
,  // measure 22
0010
0000
1000
0000
,  // measure 23
0010
0000
1000
0000
,  // measure 24
0001
0000
0100
0000
,  // measure 25
0010
1000
0001
0100
,  // measure 26
1001
0010
0100
0001
,  // measure 27
1000
1000
0001
0000
0000
0000
0000
0000
,  // measure 28
0010
0000
0100
0000
0001
1000
0100
0000
,  // measure 29
0010
0100
0000
0000
,  // measure 30
0000
0001
0000
1000
1000
0000
0000
0000
,  // measure 31
0000
0010
0000
0010
0010
0000
0000
0000
,  // measure 32
1000
0100
0001
0010
,  // measure 33
1000
0100
1000
0100
,  // measure 34
0010
0000
0001
0000
,  // measure 35
0000
0100
0000
0000
0000
0010
0000
0000
,  // measure 36
1000
0000
0000
0000
0000
0010
0000
0000
,  // measure 37
0001
1000
0001
0000
0000
0000
0000
0000
,  // measure 38
0100
0010
1000
0000
,  // measure 39
0000
0000
0101
0001
1000
0000
0000
0000
,  // measure 40
0010
0000
0000
0100
0001
0000
0000
0000
,  // measure 41
0000
0000
0000
0000
0000
0000
0000
0000
0000
0000
0000
0000
0000
0000
0000
0000
0000
0000
0000
0000
0000
0000
0000
0000
2000
0000
0000
0000
0000
0000
0000
0000
0000
0000
0000
0000
0000
0000
3000
0000
0000
0000
0000
0000
0000
0000
0000
0000
0000
0000
0000
0000
0000
0000
0000
0000
0000
0000
0000
0000
0000
0000
0000
0000
0000
0000
0000
0000
0000
0000
0000
0000
0000
0000
0000
0000
0000
0000
0000
0000
0000
0000
0000
0000
0000
0000
0000
0000
0000
0000
0000
0000
0000
0000
0000
0000
0100
0000
0000
0000
0000
0000
0000
0000
0000
0000
0000
0000
0000
0000
0000
0000
0000
0000
0000
0000
0000
0000
0000
0000
0000
0000
0000
0000
0000
0000
0000
0000
0000
0000
0000
0000
0000
0000
0000
0000
0000
0000
0000
0000
0000
0000
0000
0000
0010
0000
0000
0000
0000
0000
0000
0000
0000
0000
0000
0000
0000
0000
0000
0000
0000
0000
0000
0000
0000
0000
0000
0000
0000
0000
0000
0000
0000
0000
0000
0000
0000
0000
0000
0000
0000
0000
0000
0000
0000
0000
0000
0000
0000
0000
0000
0000
,  // measure 42
1000
0001
0100
0000
0010
0000
0000
0000
;
