#TITLE:New Decade;
#SUBTITLE:Full Song;
#ARTIST:Sota F.;
#TITLETRANSLIT:;
#SUBTITLETRANSLIT:;
#ARTISTTRANSLIT:;
#CREDIT:;
#BANNER:New Decade (Full Song).png;
#BACKGROUND:New Decade (Full Song)-bg.png;
#LYRICSPATH:;
#CDTITLE:./CDTITLES/DanceDanceRevolution II.png;
#MUSIC:New Decade (Full Song).ogg;
#OFFSET:0.000;
#SAMPLESTART:49.180;
#SAMPLELENGTH:15.000;
#SELECTABLE:YES;
#DISPLAYBPM:92.000:400.000;
#BPMS:0.000=400.000,166.000=200.000,182.000=400.000,470.000=92.285,470.042=100.043,478.000=184.570,478.042=200.022,509.000=400.000,637.000=200.000,685.000=100.000,701.000=200.000,828.000=400.000,956.000=200.000;
#STOPS:166.000=0.300
,509.000=0.300
,828.000=0.300
;
#BGCHANGES:;

//---------------dance-single - ----------------
#NOTES:
     dance-single:
     :
     Beginner:
     4:
     0.202,0.361,0.067,0.000,0.000:
0000
0000
0000
0000
,
0000
0000
0000
0000
,
0000
0000
0000
0000
,
0000
0000
0000
0000
,
0000
0000
0000
0000
,
0000
0000
0000
0000
,
0000
0000
0000
0000
,
0000
0000
0000
0000
,
0000
0000
0000
0000
,
0000
0000
0000
0000
,
0000
0000
0000
0000
,
0000
0000
0000
0000
,
0000
0000
0000
0000
,
0000
0000
0000
0000
,
0000
0000
0000
0000
,
0000
0000
0000
0000
,
0000
0000
0000
0000
,
0000
0000
0000
0000
,
0000
0000
1000
0000
,
0000
0000
1000
0000
,
0000
0000
1000
0000
,
0000
0000
1000
0000
,
0000
0000
0001
0000
,
0000
0000
0001
0000
,
0000
0000
0001
0000
,
0000
0000
0001
0000
,
0000
0000
0010
0000
,
0000
0000
0010
0000
,
0000
0000
0010
0000
,
0000
0000
0010
0000
,
0000
0000
0100
0000
,
0000
0000
0000
0000
,
1001
0000
0000
0000
,
0000
0000
0000
0000
,
0001
0000
0000
0000
,
1000
0000
0000
0000
,
0001
0000
0000
0000
,
1000
0000
0000
0000
,
0001
0000
0000
0000
,
1000
0000
0000
0000
,
0001
0000
1000
0000
,
0001
0000
0000
0000
,
0100
0000
0000
0000
,
0010
0000
0000
0000
,
0100
0000
0000
0000
,
0010
0000
0000
0000
,
0000
0000
1000
0000
,
1000
0000
0000
0000
,
0000
0000
0001
0000
,
0001
0000
0000
0000
,
0000
0000
0010
0000
,
0010
0000
0000
0000
,
0000
0000
0100
0000
,
0100
0000
0000
0000
,
0010
0000
0000
0000
,
0100
0000
0000
0000
,
0010
0000
0000
0000
,
0100
0000
0000
0000
,
0001
0000
0000
0000
,
1000
0000
0000
0000
,
1001
0000
0000
0000
,
0000
0000
0000
0000
,
0100
0000
0000
0000
,
0100
0000
0000
0000
,
0100
0000
0000
0000
,
0100
0000
0000
0000
,
0010
0000
0000
0000
,
0010
0000
0000
0000
,
0010
0000
0000
0000
,
0010
0000
0000
0000
,
0001
0000
0000
0000
,
0001
0000
0000
0000
,
0001
0000
0000
0000
,
0001
0000
0000
0000
,
1000
0000
0000
0000
,
1000
0000
0000
0000
,
1000
0000
0000
0000
,
1000
0000
0000
0000
,
0010
0000
0000
0000
,
0010
0000
0000
0000
,
0001
0000
0000
0000
,
0001
0000
0000
0000
,
0100
0000
0000
0000
,
0100
0000
0000
0000
,
1000
0000
0000
0000
,
1000
0000
0000
0000
,
0010
0000
0000
0000
,
0010
0000
0000
0000
,
0001
0000
0000
0000
,
0001
0000
0000
0000
,
0010
0000
0000
0000
,
0000
0000
1001
0000
,
0000
0000
0000
0000
,
0000
0000
0000
0000
,
0001
0000
0000
0000
,
0001
0000
0000
0000
,
1000
0000
0000
0000
,
1000
0000
0000
0000
,
0001
0000
0000
0000
,
0001
0000
0000
0000
,
1000
0000
0000
0000
,
1000
0000
0000
0000
,
0010
0000
0000
0000
,
0010
0000
0000
0000
,
0100
0000
0000
0000
,
0100
0000
0000
0000
,
0010
0000
0000
0000
,
0010
0000
0000
0000
,
0010
0000
0000
0000
,
0010
0000
0000
0000
,
0000
0000
0000
0000
,
0000
0000
0100
0000
,
0000
0000
0000
0000
,
0000
0000
0010
0000
,
0000
0000
0000
0000
,
0000
0000
0100
0000
,
0000
0000
0000
0000
,
0000
0000
0100
0000
,
0100
0000
0010
0000
,
0010
0000
0001
0000
,
0000
0000
0001
0001
,
0001
0000
1000
0000
,
0000
0000
1000
1000
,
1000
0000
0010
0000
,
0000
0000
0010
0000
,
0000
0000
0010
0000
,
0000
0000
0010
0010
,
0010
0000
0000
0100
,
0000
0000
0000
0100
,
0000
0000
0000
1000
,
0000
0000
0000
1000
,
0000
0000
0000
0001
,
0000
0000
0000
0001
,
0000
0000
0000
0010
,
0000
0000
0000
0010
,
0000
0000
0000
0001
,
0000
0000
0000
0001
,
0000
0000
0000
1000
,
0000
0000
0000
1000
,
0000
0000
0000
0100
,
0000
0000
0000
0100
,
0000
0000
0000
0010
,
0000
0000
0000
0010
,
0000
0000
0000
0001
,
0000
0000
0000
1000
,
0000
0000
0000
0001
,
0000
0000
0000
1000
,
0000
0000
0000
0001
,
0000
0000
0000
1000
,
0000
0000
0000
0001
,
0000
0000
0000
1000
,
0000
0000
0000
0010
,
0000
0000
0000
0100
,
0000
0000
0000
0010
,
0000
0000
0000
0100
,
0000
0000
0000
0010
,
0000
0000
0000
0100
,
0000
0000
0000
0010
,
0000
0000
0000
0100
,
0000
0010
0000
1000
,
0000
0001
0000
0100
,
0000
0010
0000
1000
,
0000
0001
0000
0100
,
0000
0010
0000
0010
,
0000
1000
0000
1000
,
0000
0001
0000
0001
,
0000
0100
0000
0100
,
0000
1001
0000
0000
,
0000
1001
0000
0000
,
0000
1001
0000
0000
,
0000
1001
0000
0000
,
0000
1001
0000
0000
,
0000
0100
0000
0000
,
0000
0010
0000
0100
,
0100
0100
0000
0010
,
0010
0010
0000
1000
,
0000
0001
0000
0100
,
0000
0010
0000
1000
,
0000
0001
0000
0100
,
0000
0010
0000
0010
,
0000
1000
0000
1000
,
0000
0010
0000
0010
,
0000
1001
0000
0000
,
0000
1000
0000
0100
,
0000
0001
0000
0100
,
0000
1000
0000
0010
,
0000
0001
0000
0010
,
0000
1000
0000
0100
,
0000
0001
0000
0100
,
0000
1000
0000
0010
,
0000
0001
0000
0010
,
0000
0100
0000
0100
,
0000
0100
0000
0100
,
0000
0010
0000
0001
,
0000
1000
0000
0001
,
0000
0100
0000
0100
,
0000
0100
0000
0100
,
0000
0010
0000
1000
,
0000
0001
0000
1000
,
0000
0001
0000
0000
,
0000
0100
0000
0000
,
0000
0010
0000
0000
,
0000
1000
1000
1000
,
0000
1000
0000
0000
,
0000
0100
0000
0000
,
0000
0010
0000
0000
,
0000
0001
0001
0001
,
0000
0000
0100
0000
,
0000
0000
0100
0000
,
0000
0000
1000
0000
,
0000
0000
1000
0000
,
0000
0000
0001
0000
,
0000
0000
0001
0000
,
0000
0000
0010
0000
,
0000
0000
0010
0000
,
0000
0000
0001
0000
,
0000
0000
0001
0000
,
0000
0000
1000
0000
,
0000
0000
1000
0000
,
0000
0000
0100
0000
,
0000
0000
0100
0000
,
0000
0000
0010
0000
,
0000
0000
0010
0000
,
0000
0000
0001
0000
,
0000
0000
1000
0000
,
0000
0000
0001
0000
,
0000
0000
1000
0000
,
0000
0000
0001
0000
,
0000
0000
1000
0000
,
0000
0000
0001
0000
,
0000
0000
1000
0000
,
0000
0000
0010
0000
,
0000
0000
0100
0000
,
0000
0000
0010
0000
,
0000
0000
0100
0000
,
0000
0000
0010
0000
,
0000
0000
0100
0000
,
0000
0000
0010
0000
,
0000
0000
0100
0000
,
0010
0000
1000
0000
,
0001
0000
0100
0000
,
0010
0000
1000
0000
,
0001
0000
0100
0000
,
0010
0000
0010
0000
,
1000
0000
1000
0000
,
0001
0000
0001
0000
,
0100
0000
0100
0000
,
1001
0000
0000
0000
,
1001
0000
0000
0000
,
1001
0000
0000
0000
,
1001
0000
0000
0000
,
1001
0000
0000
0000
,
;

//---------------dance-single - ----------------
#NOTES:
     dance-single:
     :
     Easy:
     11:
     0.595,1.000,0.249,0.465,0.005:
0000
0000
0000
0000
,
0000
0000
0000
0000
,
0000
0000
0000
0000
,
0000
0000
0000
0000
,
0000
0000
0000
0000
,
0000
0000
0000
0000
,
0000
0000
0000
0000
,
0000
0000
0000
0000
,
0000
0000
0000
0000
,
0000
0000
0000
0000
,
0000
0000
0000
0000
,
0000
0000
0000
0000
,
0000
0000
0000
0000
,
0000
0000
0000
0000
,
0000
0000
0000
0000
,
0000
0000
0000
0000
,
0000
0000
0000
0000
,
0000
0000
0000
0000
,
1000
0000
1001
0000
,
0001
0000
1001
0000
,
1000
0000
1001
0000
,
0001
0000
1001
0000
,
2000
0000
3200
0000
,
0302
0000
0203
0000
,
1300
1000
0010
0000
,
0100
0100
0001
0000
,
1000
0000
1100
0000
,
0001
0000
0101
0000
,
1000
0010
0100
0001
,
1000
0010
0100
0001
,
0010
0100
0010
0100
,
0000
0010
0000
0000
,
0002
0000
2000
0003
,
0020
3000
0000
0030
,
0110
0000
1000
0000
,
0110
0000
1000
0000
,
0110
0000
0001
0000
,
0110
0000
0001
0000
,
0110
0000
1000
0000
,
0110
0000
0001
0000
,
1000
0000
0100
0000
,
0010
0000
0001
0100
,
0010
0000
1000
0000
0100
0010
0100
0010
,
0001
0010
0001
0010
0100
1000
0000
0100
,
0000
0001
0000
1000
0000
0010
0000
0100
,
0010
0110
1000
0000
,
1000
0000
0001
0000
,
0001
0000
0010
0000
,
0010
0000
0100
0000
,
0100
0000
1000
0100
,
1000
0000
0010
0000
,
0100
0000
0001
0010
,
0001
0000
0100
0000
,
0100
0000
0010
0000
,
0010
0000
1000
0000
,
1000
0000
0001
0000
,
0001
0000
0100
0000
,
0100
0000
0002
0000
,
2003
3020
0230
0302
,
0003
0110
0000
1001
,
0000
0110
0000
0010
,
0100
0000
0010
0000
,
1001
0000
0100
0000
,
1001
0000
0010
0000
,
1001
0000
0100
0000
,
1001
0000
0010
0100
,
0010
0000
0100
0000
,
0100
0000
0100
0010
,
0100
0000
0010
0000
,
0010
0000
0110
0000
,
1000
0000
0110
0000
,
0001
0000
0110
0000
,
1000
0000
0110
0000
,
0001
0000
1000
0100
,
1000
0100
0010
0001
,
0010
0001
0100
0010
,
0100
0010
1000
0001
,
1000
0001
2000
0000
,
3001
0000
0010
0001
,
0100
0000
0002
0000
,
1003
0000
0010
1000
,
0100
0000
2000
0000
,
3001
0000
0100
0001
,
0010
0000
0002
0000
,
1003
0000
0100
1000
,
0010
0000
0200
0000
,
0310
0000
1000
0001
,
0100
0000
0020
0000
,
0130
0000
0001
1000
,
0100
0000
0010
0100
,
0010
0100
0000
0110
,
0000
0000
1001
0000
,
0110
0000
2002
0000
,
0000
3003
1000
1000
,
0100
0000
0001
0001
,
0100
0000
1000
1000
,
0010
0000
0001
0001
,
0010
0000
0001
0010
,
0100
0000
1000
0010
,
0100
0000
0001
0100
,
0010
0000
1000
0100
,
0010
0000
0001
0100
,
1000
0000
0001
0100
,
1000
0000
1000
0100
,
0001
0000
1000
0100
,
0001
0000
0001
0010
,
0001
0010
0001
1000
,
0001
1000
0001
0100
,
0001
0100
0001
0010
,
0100
0000
0020
0000
,
0000
0000
0200
0030
,
0000
0000
2000
0300
,
0000
0000
0000
0000
,
0000
0000
3001
0100
,
0001
0100
0010
1000
,
0010
1000
0001
0010
,
0100
0000
0000
0000
,
0000
0000
0000
0000
0000
0000
0000
0000
1001
0000
0000
0001
0000
0000
0010
0000
,
0100
0000
0000
0010
0000
0000
1000
0000
0100
0000
0010
0000
0001
0000
0110
0000
,
1000
0100
0010
0110
0010
0000
0100
0010
,
0000
0110
0000
1001
0000
0110
0000
0001
,
1000
0000
0110
0000
0001
0010
0001
0100
,
0000
0001
0010
0100
0000
1000
0010
0100
,
0010
0110
2000
0000
,
0000
0000
3002
0000
,
0000
0000
0023
0000
,
0230
0000
0310
0100
,
1001
0110
1000
0100
,
1000
0000
0001
0010
,
0001
0000
1000
0010
,
0100
0000
0001
0010
,
0100
2000
0000
3001
,
2000
0000
3001
0020
,
0000
0130
0000
0100
,
0010
0000
2002
0000
,
3003
0000
0001
0010
,
0001
0000
1000
0010
,
1000
0020
2030
3020
,
2030
3002
0203
0302
,
0203
0301
0010
0001
,
0010
0100
1000
0100
,
1000
0001
0000
0010
,
0100
0000
0100
0010
,
0000
0002
0000
0013
,
0200
0000
2300
0000
,
3002
0000
0023
0000
,
0230
0000
0300
0000
,
0000
1000
0100
1000
,
0000
0010
0000
0100
,
0000
0001
0100
0001
,
0000
0010
0000
0100
,
0000
0020
0000
2030
,
3002
0000
0023
0000
,
0230
0000
2300
0000
,
3200
0000
0000
0300
,
0000
0001
0001
0000
,
1000
1000
0000
0010
,
0010
0100
0000
0000
,
0000
0000
0020
0000
,
0130
0000
0010
0000
1000
0000
0001
0100
,
1000
0000
0100
0000
0010
0000
0100
0001
,
0010
0000
0001
0000
0010
0000
0001
0010
,
0100
0000
1000
0000
0100
0000
1000
0100
,
0001
0000
0100
0000
1000
0000
0010
0100
,
0001
0000
1000
0000
0010
0000
1000
0100
,
0010
0000
0001
0000
1000
0000
0001
0100
,
1000
0000
0100
0000
0010
0000
0100
0010
,
0100
0001
2000
0000
0000
0000
0000
0000
,
0000
3002
0000
0000
,
0000
2003
0000
3002
,
0000
0000
0023
0000
0230
0000
1300
0001
,
1000
0001
0000
1000
,
0010
0100
0000
0001
,
0000
0000
0010
0100
0010
0001
1000
0100
,
0010
0110
0001
0100
0010
0100
0010
1000
,
0001
1001
0010
0000
0001
0000
1000
0100
,
0001
0000
0100
0000
0010
0000
0100
1000
,
0010
0000
1000
0000
0010
0000
1000
0010
,
0100
0000
0001
0000
0100
0000
0001
0100
,
1000
0000
0100
0000
0001
0000
0010
0100
,
1000
0000
0001
0000
0010
0000
0001
0100
,
0010
0000
0100
0010
0100
0010
0000
0110
,
0000
1001
0110
1001
,
0000
1000
0100
0001
,
1000
0010
0001
0010
,
0100
0010
0001
0100
,
0010
1000
0100
2000
,
3002
1003
0100
0001
,
1000
0010
0001
0010
,
0100
0000
1000
0000
0001
1000
0000
1001
,
0000
0110
1001
0220
,
0330
0000
1000
0000
,
1000
0000
0010
0000
,
0010
0000
0001
0000
,
0001
0000
0100
0010
0000
1000
0000
0001
,
0100
0000
0001
0000
,
0001
0000
1000
0000
,
1000
0000
0001
0010
0001
0010
0100
1000
,
0100
1000
0010
0100
0010
0100
0001
1000
,
0001
1000
0001
0000
0100
0000
0010
0000
,
1000
0001
0001
0010
,
0010
0100
1000
0001
,
0100
0000
0010
0100
0010
0100
0010
0100
,
0010
0100
0010
0000
1000
0000
0001
0000
,
0100
0010
0010
1000
,
1000
0000
0001
0001
0000
1000
1000
0000
,
0010
0010
0100
0100
0000
0010
0000
0000
,
0110
0001
0100
0001
,
0000
1000
0010
1000
,
0000
0001
0010
0100
,
0000
1000
0010
0100
,
0002
0000
1003
0002
,
0000
1003
0020
0000
,
0130
0000
0100
0010
,
0000
2002
0000
3003
,
0000
1000
0010
1000
,
0000
0001
0010
0001
,
0020
0032
0023
0032
,
2003
3200
2300
3200
,
1300
0010
1000
0010
,
0100
0001
0100
0001
,
1000
0000
0010
0100
,
0000
0100
0010
0000
,
2000
0000
3010
0200
,
0000
0302
0000
2003
,
0000
3020
0000
0230
,
0000
0300
0000
0000
,
0001
0100
0001
0000
,
0010
0000
0100
0000
,
1000
0100
1000
0000
,
0010
0000
0100
0000
,
0020
0000
0032
2003
,
0000
3020
0000
0230
,
0000
0302
0000
0203
,
0000
0000
0300
0000
,
1000
1000
0000
0001
,
0001
0000
0010
0010
,
0100
0000
0000
0000
,
0000
0020
0000
0130
,
0010
0000
0001
0000
1000
0100
0001
0000
,
0100
0000
0010
0000
0100
1000
0010
0000
,
1000
0000
0010
0000
1000
0010
0100
0000
,
0001
0000
0100
0000
0001
0100
1000
0000
,
0100
0000
0001
0000
0010
0100
1000
0000
,
0001
0000
0010
0000
0001
0100
0010
0000
,
1000
0000
0001
0000
1000
0100
0001
0000
,
0100
0000
0010
0000
0100
0010
0100
1000
,
0002
0000
0000
0000
,
2003
0000
0000
0000
,
3002
0000
2003
0000
,
3020
0000
0230
0000
0301
1000
0001
0000
,
1001
0000
0000
0000
,
;

//---------------dance-single - ----------------
#NOTES:
     dance-single:
     :
     Medium:
     14:
     0.730,1.000,0.354,0.474,0.218:
0000
0000
0000
0000
,
0000
0000
0000
0000
,
0000
0000
0000
0000
,
0000
0000
0000
0000
,
0000
0000
0000
0000
,
0000
0000
0000
0000
,
0000
0000
0000
0000
,
0000
0000
0000
0000
,
0000
0000
0000
0000
,
0000
0000
0000
0000
,
0000
0000
0000
0000
,
0000
0000
0000
0000
,
0000
0000
0000
0000
,
0000
0000
0000
0000
,
0000
0000
0000
0000
,
0000
0000
0000
0000
,
0000
0000
0000
0000
,
0000
0000
0000
0000
,
1000
0000
1100
0000
,
0001
0000
0101
0000
,
0010
0000
1010
0000
,
0100
0000
0101
0000
,
1000
0100
0010
0100
,
1000
0001
0010
0100
,
0010
0010
0001
0001
,
1000
1000
0010
0010
,
1000
0000
1010
0000
,
0001
0000
0011
0000
,
0200
2300
3020
0230
,
2300
3200
0302
0203
,
1300
0100
0001
0010
,
0000
0110
0000
0000
,
1010
0000
0101
0000
,
2002
0000
0000
3003
,
1000
0100
1000
0100
,
0010
0001
0010
0001
,
1000
0010
1000
0010
,
0100
0001
0100
0001
,
1000
0100
0001
0100
,
1000
0010
0001
0010
,
2000
0000
3002
0000
,
0103
0000
1001
0100
,
0010
0000
0001
0000
1000
1000
0100
0100
,
0010
0010
0001
0001
0200
0010
0000
1000
,
0000
0001
0000
1000
0000
0010
0000
0001
,
0000
0310
0110
0000
0001
0000
0000
0000
,
0001
0000
1000
0000
,
1000
0000
0100
0010
,
0100
0000
0010
0100
,
0010
0000
0001
0000
,
0100
0000
1000
0100
,
0001
0000
1000
0000
,
0100
0000
0001
0100
,
1000
0000
0010
1000
,
0100
0000
0010
0001
,
0100
0000
0010
1000
,
0001
0000
0010
0001
,
1000
0000
0002
0000
,
2003
3020
0230
0302
,
0003
0110
0000
1001
,
0000
0110
0000
0010
,
0100
0000
1000
0000
,
1100
0000
0001
0000
,
0101
0000
0010
0000
,
0011
0000
1000
0000
,
1010
0000
0001
0010
,
1000
0001
0100
1000
,
0100
0001
1000
0010
,
0001
0010
1000
0001
,
0100
1000
0001
0000
,
0101
0000
0100
0000
,
1100
0000
1000
0000
,
1010
0000
0010
0000
,
0011
0000
1000
0010
,
0001
1000
0100
0001
,
0100
1000
0001
0010
,
1000
0001
0100
1000
,
0100
0001
1000
1000
,
0100
0000
0001
0001
,
0100
0000
1000
1000
,
0010
0000
0001
0001
,
0010
0000
1000
0100
,
0010
0000
0001
0100
,
0010
0000
0010
0010
,
1000
1000
0001
0001
,
0100
0100
0010
0010
,
1000
0000
0001
0001
,
0010
0000
0100
0100
,
1000
0000
0010
0010
,
0001
0000
1000
0100
,
0001
0010
0000
0110
,
0000
0000
0011
0000
,
1100
0000
2002
0000
,
0000
3003
1000
1000
,
0100
0100
0010
0010
,
0001
0001
0010
0100
,
1000
0010
0100
0001
,
0010
0100
1000
1000
,
0100
0100
0010
0010
,
0001
0001
0100
1000
,
0100
0001
1000
0010
,
0001
0010
1000
1000
,
0100
0100
0010
0010
,
0001
0001
0010
1000
,
0001
0100
1000
0100
,
0001
0100
2000
3200
,
0320
0032
0203
0320
,
2030
3001
0100
0010
,
1000
0001
0100
0010
,
1000
0001
1000
1000
,
0010
0010
0100
0100
,
0001
0001
0020
0000
,
0000
0000
0000
0000
,
0000
0000
0130
0100
,
0002
0000
0103
0100
,
1000
0010
0010
2000
,
0000
0000
0000
0000
,
0000
0000
0000
0000
0000
0000
0000
0000
3200
0000
0000
0010
0000
0000
1000
0000
,
0001
0000
0000
0010
0000
0000
0001
0000
1300
0000
1000
0100
0001
0000
0110
0000
,
0000
0100
1000
0010
0001
0000
0110
0000
1001
0000
0000
0000
0010
0000
0100
0000
,
0000
0001
0000
0100
0000
0100
0001
0010
,
0100
0000
1001
0000
0110
0000
0001
0010
,
0000
1000
0000
0100
0000
0100
1000
0010
,
0100
1001
2000
0000
,
0000
0000
3002
0000
,
0000
0000
0023
0000
,
0230
0000
0310
0100
,
1001
0110
1000
0001
,
0100
0010
1000
0100
,
0010
0001
0010
1000
,
0001
0100
1000
0001
,
0100
0020
0000
1030
,
0002
0000
0103
0020
,
0000
0130
0001
0010
,
0100
1000
0100
0010
,
0001
1000
0100
0010
,
0001
0100
0010
1000
,
0100
0002
0203
2300
,
3002
0023
2030
3020
,
0230
0301
0100
0100
,
0010
0010
0001
0010
,
0010
0100
0100
1000
,
0010
0100
0001
0010
,
0100
2000
0000
3001
,
0200
0000
0320
0000
,
0032
0000
2003
0000
,
3200
0000
0300
0000
,
0000
0010
1000
0001
,
0100
0010
1000
0100
,
0001
0100
1000
0010
,
0001
0010
0100
0001
,
0100
0101
0000
1010
,
1010
0000
0011
0000
,
0110
0000
1001
0000
,
0220
0000
0000
0000
0000
0000
0000
0330
,
0000
0010
0010
0000
,
0100
0100
0000
1000
,
0010
0200
0000
0000
,
0000
0000
0302
0000
,
0013
0000
0000
0000
0100
0000
0000
1000
0000
0000
0010
0000
0000
0001
0000
0000
,
0010
0000
1000
0000
0001
0010
0000
0000
0001
1000
0000
0000
0001
0100
0000
0000
,
0010
0100
0000
0000
0010
0000
0000
1000
0000
0000
0100
0000
0000
0001
0000
0000
,
0100
0000
0010
0000
0001
0100
0000
0000
0010
1000
0000
0000
0100
0001
0000
0000
,
0100
0010
0000
0000
0001
0000
0000
0100
0000
0000
1000
0000
0000
0100
0000
0000
,
0010
0000
0100
0000
1000
0100
0000
0000
0001
0100
0000
0000
0010
0100
0000
0000
,
0010
1000
0000
0000
0100
0000
0000
0010
0000
0000
0001
0000
0000
1000
0000
0000
,
0100
0000
0001
0000
0100
1000
0000
0000
0100
0001
0000
0000
1000
0010
0000
0000
,
0001
0100
0000
0000
0002
0000
0000
0000
0000
0000
0000
0000
0000
0000
0003
0000
,
0010
0100
0010
0000
0200
0000
0000
0000
0000
0000
0000
0000
0000
0000
0000
0000
,
1300
0100
1000
0000
0020
0000
0000
0000
0000
0000
0000
0000
0230
0000
0000
0000
,
0000
0302
2003
3020
,
0130
0000
2001
0000
3200
0000
0310
0001
,
0100
1000
0100
0000
0020
0000
0000
0000
0230
0000
0000
0000
0301
0010
0002
0000
,
0000
0100
0000
0103
0010
0000
1000
0100
0000
0001
0000
0010
0000
0100
0000
1000
,
0001
0000
1001
0000
0100
0000
0010
0100
0000
0001
0000
1000
0000
0100
0000
0010
,
0000
0001
0000
0000
0100
0000
0000
0001
0000
0000
0010
0000
0000
1000
0000
0000
,
0010
0000
0001
0000
1000
0010
0000
0000
1000
0001
0000
0000
1000
0100
0000
0000
,
0010
0100
0000
0000
0010
0000
0000
0001
0000
0000
0100
0000
0000
1000
0000
0000
,
0100
0000
0010
0000
1000
0100
0000
0000
0010
0001
0000
0000
0100
1000
0000
0000
,
0100
0010
0000
0000
1000
0000
0000
0100
0000
0000
0001
0000
0000
0100
0000
0000
,
0010
0000
0100
0000
0001
0100
0000
0000
1000
0100
0000
0000
0010
0100
0000
0000
,
0010
0001
0000
0000
0100
0000
0010
0000
0100
0000
0010
0000
0000
0000
0110
0000
,
0000
1001
0110
1001
,
0000
0100
1000
0010
,
0001
0110
1001
0101
,
1100
0010
0001
0100
,
1000
0110
1100
0011
,
1100
0010
1000
0100
,
0001
0110
1001
0011
,
1010
0100
0001
0010
,
1000
0110
1010
0101
,
1010
0000
0100
0000
0100
0000
0010
0001
,
1000
0000
0001
0000
0001
0000
1000
0010
,
0001
0000
0100
0001
0100
0000
0010
0001
,
0010
0000
0100
0100
0000
0110
0000
0100
,
0010
0000
0001
0000
0001
0000
0100
1000
,
0001
0000
1000
0000
1000
0000
0100
0001
,
1000
0000
0001
0000
0100
0010
1000
0001
,
0000
0100
0002
0000
1003
0200
0000
0301
,
0200
0310
0001
0010
,
1000
0000
0010
0001
0100
0010
1000
0100
,
0010
0100
0010
1000
,
0001
0000
0010
0100
0010
0100
1000
0001
,
1000
0001
1000
0000
0100
0000
0000
0000
1000
0000
0000
0000
0100
0000
0000
0000
,
0001
0000
0100
1000
0010
0100
0001
0010
,
0100
0000
0010
0010
0000
0100
0100
0000
,
0001
0001
0100
0100
0000
1000
1000
0000
,
1001
0001
1000
0100
,
0010
0001
0100
0010
,
1000
0010
0001
1000
,
0100
0001
1000
0100
,
0020
0000
0031
2000
,
0000
3100
0020
0000
,
0130
1000
0010
0100
,
0001
0100
0010
1000
,
0001
0100
0010
1000
,
0100
0010
0001
0100
,
2000
3200
0302
2003
,
3020
0032
0023
0230
,
1300
0100
0100
0010
,
0010
1000
0010
0010
,
0100
0100
0001
0010
,
0100
1000
0010
0100
,
0002
0000
1003
0200
,
0000
0320
0000
2030
,
0000
3002
0000
0203
,
0000
0300
0000
0000
,
0010
0001
1000
0100
,
0010
0001
0100
1000
,
0100
0001
0010
1000
,
0010
0100
1000
0100
,
1100
0000
0011
0011
,
0000
1010
0000
0110
,
0000
1001
0000
0220
,
0000
0000
0000
0000
0000
0330
0000
0000
,
0010
0010
0000
0100
,
0100
0000
0001
0010
,
0200
0000
0000
0000
,
0000
2300
0000
3010
,
0100
0000
0000
0001
0000
0000
0010
0000
0000
1000
0000
0000
0010
0000
0001
0000
,
1000
0010
0000
0000
1000
0001
0000
0000
1000
0100
0000
0000
0010
0100
0000
0000
,
0010
0000
0000
0001
0000
0000
0100
0000
0000
1000
0000
0000
0100
0000
0010
0000
,
1000
0100
0000
0000
0010
0001
0000
0000
0100
1000
0000
0000
0100
0010
0000
0000
,
1000
0000
0000
0100
0000
0000
0001
0000
0000
0100
0000
0000
0010
0000
0100
0000
,
0001
0100
0000
0000
1000
0100
0000
0000
0010
0100
0000
0000
0010
0001
0000
0000
,
0100
0000
0000
0010
0000
0000
1000
0000
0000
0001
0000
0000
0100
0000
1000
0000
,
0100
0001
0000
0000
0100
1000
0000
0000
0001
0010
0000
0000
1000
0100
0000
0000
,
2000
0000
0000
0000
0000
0000
0000
0000
0000
0000
3000
0000
0010
0100
0010
0000
,
0200
0000
0000
0000
0000
0000
0000
0000
0000
0000
0000
0000
0301
0100
0001
0000
,
0020
0000
0230
0000
,
2300
3002
0023
0130
,
1001
0000
0000
0000
,
;

//---------------dance-single - ----------------
#NOTES:
     dance-single:
     :
     Hard:
     17:
     0.918,1.000,0.608,0.517,0.352: // measure 1
0000
0000
0000
0000
,  // measure 2
0000
0000
0000
0000
,  // measure 3
0000
0000
0000
0000
,  // measure 4
0000
0000
0000
0000
,  // measure 5
0000
0000
0000
0000
,  // measure 6
0000
0000
0000
0000
,  // measure 7
0000
0000
0000
0000
,  // measure 8
0000
0000
0000
0000
,  // measure 9
0000
0000
0000
0000
,  // measure 10
0000
0000
0000
0000
,  // measure 11
0000
0000
0000
0000
,  // measure 12
0000
0000
0000
0000
,  // measure 13
0000
0000
0000
0000
,  // measure 14
0000
0000
0000
0000
,  // measure 15
0000
0000
0000
0000
,  // measure 16
0000
0000
0000
0000
,  // measure 17
0000
0000
0000
0000
,  // measure 18
0000
0000
0000
0000
,  // measure 19
1000
0100
1000
0000
,  // measure 20
0010
0100
0100
0000
,  // measure 21
0001
0100
0001
0000
,  // measure 22
0100
0010
0010
0000
,  // measure 23
0001
0100
0010
0000
,  // measure 24
1000
0100
0010
0000
,  // measure 25
0001
0100
1000
0001
,  // measure 26
0010
1000
0001
0100
,  // measure 27
0010
1000
0010
0000
,  // measure 28
0100
0001
0100
0000
,  // measure 29
0020
2030
3200
0302
,  // measure 30
2003
3002
0203
2300
,  // measure 31
3010
0001
1000
0100
,  // measure 32
0000
0110
0000
0000
,  // measure 33
0101
0000
1010
0000
,  // measure 34
2002
0000
0000
3003
,  // measure 35
1100
1000
0001
0000
,  // measure 36
0110
1000
0001
0000
,  // measure 37
0101
0001
1000
0000
,  // measure 38
0110
0001
1000
0000
,  // measure 39
1100
1000
0001
0100
,  // measure 40
0101
0001
1000
0100
,  // measure 41
0110
0000
0011
0000
,  // measure 42
1010
0000
0000
0000
0000
0000
0000
0000
1001
0000
0000
0020
0000
0000
0000
2030
,  // measure 43
0000
0000
0000
3002
0000
0000
0000
0103
0000
0000
0010
0000
1000
0000
0010
0000
,  // measure 44
0100
0001
0010
0100
0020
0001
0000
1000
,  // measure 45
0000
0001
0000
0100
0000
1000
0000
0100
,  // measure 46
0130
0110
0001
0100
,  // measure 47
0010
1000
0001
0000
,  // measure 48
1001
0000
0100
0001
,  // measure 49
0010
1000
0001
0000
,  // measure 50
0110
0000
1000
0100
,  // measure 51
0010
0000
0001
0100
,  // measure 52
1000
0000
0100
0001
,  // measure 53
0010
0000
0100
1000
,  // measure 54
0001
0000
1000
0010
,  // measure 55
0100
0001
0010
0100
,  // measure 56
1000
0001
0010
1000
,  // measure 57
0001
0100
1000
0010
,  // measure 58
0100
0001
0002
0000
,  // measure 59
2003
3020
0230
0302
,  // measure 60
0003
0110
0000
1001
,  // measure 61
0000
0110
0000
0010
,  // measure 62
0100
0000
0000
0000
0001
0100
0001
0000
,  // measure 63
1000
0100
0000
1000
0100
0010
0001
0000
,  // measure 64
0010
0001
0100
0000
0001
1000
0100
0000
,  // measure 65
1000
0001
0000
0100
0001
0010
0100
0000
,  // measure 66
1000
0010
0100
0000
0010
0000
1000
0000
,  // measure 67
0001
0100
0010
1000
,  // measure 68
0001
0100
0010
1000
,  // measure 69
0010
0001
1000
0100
,  // measure 70
0001
0000
0010
0000
0001
0100
0010
0000
,  // measure 71
1000
0100
0000
0010
0001
0100
0010
0000
,  // measure 72
1000
0100
0000
0010
0001
0100
0010
0000
,  // measure 73
1000
0100
0000
0010
0001
0010
0100
0000
,  // measure 74
1000
0001
0000
0001
1000
0000
1000
0000
,  // measure 75
0001
0001
0010
0010
,  // measure 76
0100
0100
1100
1100
,  // measure 77
0010
0010
0011
0011
,  // measure 78
0100
0100
0010
0010
,  // measure 79
1000
1000
0001
0001
,  // measure 80
0100
0100
0010
0010
,  // measure 81
1000
1000
0001
0001
,  // measure 82
0100
0000
0100
0000
0001
0100
0001
0000
,  // measure 83
0010
0000
1000
0100
1000
0000
0010
0000
,  // measure 84
0100
0010
0100
0000
0001
0100
0010
0000
,  // measure 85
1000
0000
1000
0100
0010
0000
0001
0000
,  // measure 86
0001
0100
0010
0000
0010
0000
0010
0000
,  // measure 87
0001
0001
1000
1000
,  // measure 88
0100
0100
0001
0001
,  // measure 89
0010
0010
1000
1000
,  // measure 90
0010
0010
0011
0001
,  // measure 91
1000
1100
0000
1001
,  // measure 92
0000
0000
0010
0000
,  // measure 93
0100
0000
2002
0000
,  // measure 94
0000
0000
3003
0000
0010
0001
0100
0000
,  // measure 95
0010
0000
1000
0100
1000
0000
0100
0000
,  // measure 96
0010
0001
0100
0000
0001
1000
0100
0000
,  // measure 97
1000
0000
1000
0001
0010
0000
0100
0000
,  // measure 98
0010
0100
1000
0000
0001
0010
0100
0000
,  // measure 99
0001
0000
0100
1000
0010
0000
0100
0000
,  // measure 100
0010
1000
0100
0000
0001
0100
1000
0000
,  // measure 101
0010
0000
0100
0001
0010
0000
0100
0000
,  // measure 102
1000
0100
0001
0000
0001
0100
1000
0000
,  // measure 103
0010
0000
0100
0001
0010
0000
0100
0000
,  // measure 104
0001
0100
1000
0000
0001
0100
0010
0000
,  // measure 105
1000
0000
0010
1000
0100
0000
0010
0000
,  // measure 106
0001
0010
1000
0000
0001
0000
0100
0000
,  // measure 107
1000
0010
0001
1000
,  // measure 108
0100
0001
0010
0011
,  // measure 109
0001
0100
1100
0010
,  // measure 110
0100
0010
0001
0001
,  // measure 111
0100
0010
0100
0000
0010
0000
0010
0000
,  // measure 112
1000
0100
1000
0000
0002
0000
0000
0000
,  // measure 113
0000
0000
0000
0000
,  // measure 114
0000
0000
0000
0000
0103
0010
0100
0000
,  // measure 115
0010
0010
1000
1000
,  // measure 116
0001
0100
0001
0000
1000
0000
0020
0000
,  // measure 117
0000
0000
0000
0000
,  // measure 118
0000
0000
0000
0000
0000
0000
0000
0000
0230
0000
0000
0010
0000
0000
1000
0000
,  // measure 119
0001
0000
0000
0010
0000
0000
0001
0001
0301
0000
0100
0001
0010
0000
0110
0000
,  // measure 120
0000
1000
0001
0010
0100
0000
1001
0000
0110
0000
0000
0000
0100
0000
0101
0000
,  // measure 121
0000
0010
0000
1100
0000
0101
0000
0100
,  // measure 122
0010
0000
1001
0000
0110
0000
0100
1100
,  // measure 123
0000
0101
0000
0100
0000
0011
0000
1010
,  // measure 124
0000
0110
1001
0000
0220
0000
0000
0000
,  // measure 125
0000
0000
0000
0030
0301
0100
0010
0000
0220
0000
0000
0000
0000
0000
0000
0000
,  // measure 126
0000
0000
0000
0300
1030
0100
0010
0000
0002
0000
0000
0000
0013
0001
0010
0000
,  // measure 127
2000
0000
0000
0000
3010
1000
0010
0000
1001
0000
0000
0000
0110
0000
0000
0000
,  // measure 128
2002
0000
0000
3003
1001
0000
0000
0000
1000
0000
0000
0000
0110
0000
0000
0000
,  // measure 129
0100
0001
0010
1100
,  // measure 130
0010
0001
0100
0011
,  // measure 131
0001
1000
0100
1010
,  // measure 132
0010
0000
1000
0010
0100
0000
0001
0000
,  // measure 133
0010
0100
1000
0000
0010
0000
1000
0001
,  // measure 134
0100
0000
0010
1000
0100
0000
0110
0000
,  // measure 135
0001
0100
1000
0110
,  // measure 136
0001
0010
0100
1100
,  // measure 137
0010
0100
1000
0110
,  // measure 138
0001
0020
0230
2300
,  // measure 139
3020
0230
0302
0203
,  // measure 140
2300
3100
0100
1000
,  // measure 141
0010
0010
0001
0100
,  // measure 142
0100
0010
0001
0100
,  // measure 143
1000
0000
0100
0000
1000
0000
0100
1000
,  // measure 144
0100
1100
0000
1010
,  // measure 145
0101
0000
0101
0000
,  // measure 146
1001
0000
1010
0100
,  // measure 147
0001
0010
1000
0010
,  // measure 148
0001
0000
0100
0001
0100
0000
0010
0000
,  // measure 149
1000
0100
0010
0001
,  // measure 150
0100
0000
0010
1000
0010
0000
1000
0000
,  // measure 151
0100
0010
0001
0100
,  // measure 152
0010
1010
0000
0001
,  // measure 153
1001
0000
0011
0000
,  // measure 154
1100
0000
0101
0000
,  // measure 155
0220
0000
0330
0000
,  // measure 156
0000
1000
1000
0000
,  // measure 157
0001
0001
0000
0010
,  // measure 158
0010
0100
0000
0100
,  // measure 159
0010
0000
0010
1000
,  // measure 160
0001
0000
0000
0000
2000
0000
0000
3100
0010
0000
0000
0001
0000
0200
0000
0000
,  // measure 161
0320
0000
0130
0000
0000
0001
0020
0000
0000
2030
0000
0000
0000
3001
0100
0000
,  // measure 162
0000
0010
0200
0000
2300
0000
0000
3010
0100
0000
0000
0001
0000
1000
0000
0000
,  // measure 163
0101
0000
1100
0000
0000
0010
0002
0000
0000
0203
0000
0000
0000
0301
0010
0000
,  // measure 164
0000
0010
0001
0000
0010
0000
0000
0100
2000
0000
0000
3001
0000
0002
0000
0000
,  // measure 165
1003
0100
0020
0000
0030
0001
0020
0000
0130
0010
0001
0000
0000
0001
0020
0000
,  // measure 166
0000
0130
0010
0000
1001
0000
0000
0001
0100
0000
0000
1010
0000
0101
0000
0000
,  // measure 167
0011
0000
2100
0000
0000
3001
0010
0000
0000
0001
0100
0000
0000
0001
0010
0100
,  // measure 168
1000
0010
0100
0000
0002
0000
0000
0000
0000
0000
0000
0000
0000
0000
0000
0000
,  // measure 169
0103
0001
1000
0000
0002
0000
0000
0000
0000
0000
0000
0000
0000
0000
0000
0000
,  // measure 170
0013
0001
0100
0000
0020
0000
0000
0000
1030
0001
0100
0000
0020
0000
0000
0000
,  // measure 171
1030
0100
0010
0000
0001
0000
0011
0000
0100
0000
1100
0000
0010
0000
0100
0000
,  // measure 172
0010
0000
0200
0000
1000
1000
0010
0010
,  // measure 173
0301
0100
1000
0001
0200
0000
0000
0000
0010
0000
0010
0000
1000
0000
0001
0000
,  // measure 174
0000
0310
0000
0110
0001
0000
1000
0010
0000
0001
0000
0110
0000
1100
0000
0100
,  // measure 175
0001
0000
1001
0000
0010
0000
1000
0100
0000
0001
0000
0110
0000
1100
0000
0001
,  // measure 176
0000
1000
0000
0000
0002
0000
0000
0103
0010
0000
0000
1000
0000
0200
0000
0000
,  // measure 177
0320
0000
0130
0000
0000
1000
0020
0000
0000
0032
0000
0000
0000
1003
0100
0000
,  // measure 178
0000
0010
0200
0000
0302
0000
0000
0013
0100
0000
0000
1000
0000
0001
0000
0000
,  // measure 179
1100
0000
0101
0000
0000
0010
2000
0000
0000
3200
0000
0000
0000
1300
0010
0000
,  // measure 180
0000
0010
1000
0000
0010
0000
0000
0100
0002
0000
0000
1003
0000
2000
0000
0000
,  // measure 181
3001
0100
0020
0000
0030
1000
0020
0000
0130
0010
1000
0000
0000
1000
0020
0000
,  // measure 182
0000
0130
0010
0000
1000
0000
0100
0000
0001
0000
0010
0000
0000
0000
1001
0000
,  // measure 183
0000
0011
1100
0110
,  // measure 184
0000
0000
1000
0100
0001
1000
0001
0100
,  // measure 185
1000
0000
0010
0000
0001
0010
0000
0000
1000
0100
0000
0000
0001
0100
0000
0000
,  // measure 186
1000
0100
0000
0000
0010
0000
0001
0000
0100
0000
1000
0000
0001
0000
1000
0000
,  // measure 187
0100
0000
0001
0000
0010
0100
0000
0000
0001
1000
0000
0000
0100
0001
0000
0000
,  // measure 188
0100
1000
0000
0000
0001
0000
0100
0000
1000
0000
0001
0000
1000
0000
0100
0000
,  // measure 189
0001
0000
0010
0000
1000
0010
0000
0000
0001
0100
0000
0000
1000
0100
0000
0000
,  // measure 190
0001
0100
0000
0000
0010
0000
1000
0000
0100
0000
0001
0000
1000
0000
0001
0000
,  // measure 191
0100
0000
1000
0000
0010
0100
0000
0000
1000
0001
0000
0000
0100
1000
0000
0000
,  // measure 192
0100
0001
0000
0000
1000
0000
0000
0000
0100
0000
0000
0000
0001
0000
0000
0000
,  // measure 193
0010
0000
0100
0010
1000
0001
0010
1000
,  // measure 194
0001
0000
0100
0000
1000
0100
0000
0000
0001
0100
0000
0000
1000
0100
0000
0000
,  // measure 195
0001
0100
0000
0000
1000
0000
1001
0000
0000
0000
0100
0000
0000
0000
0010
0000
,  // measure 196
0110
0001
0100
1000
,  // measure 197
0010
0000
0100
0010
0001
1000
0010
0001
,  // measure 198
1000
0000
0100
0000
0001
0100
0000
0000
1000
0100
0000
0000
0001
0100
0000
0000
,  // measure 199
1000
0100
0000
0000
0002
0000
0000
0000
1000
0003
0020
0000
0000
0000
0130
0000
,  // measure 200
0110
0000
1000
0000
1000
0100
0001
0100
,  // measure 201
1000
0010
0100
0001
0010
1000
0010
0000
,  // measure 202
0110
0000
0100
1000
0010
0100
0001
0100
,  // measure 203
1000
0000
0100
0000
0001
0000
0100
0000
0010
0000
1000
0000
0001
0100
0010
1000
,  // measure 204
0001
0010
0100
1000
0001
0000
0000
0000
0001
0000
0100
0000
1000
0000
0100
0000
,  // measure 205
0001
0010
0100
1000
0010
0001
0010
0000
,  // measure 206
0110
0000
0001
0001
0000
1000
1000
0000
,  // measure 207
0010
0010
0100
0100
0000
0100
0010
0000
,  // measure 208
1001
0001
0110
0100
,  // measure 209
1000
0010
0101
0010
,  // measure 210
1000
0100
1010
1000
,  // measure 211
0001
0100
0011
0010
,  // measure 212
0001
0010
0100
0000
1000
0000
0010
0100
,  // measure 213
0001
0000
0010
0000
0001
1000
0100
0000
,  // measure 214
0010
0001
0100
0000
0110
0000
1000
0000
,  // measure 215
0100
0001
0110
1000
,  // measure 216
0010
0100
0101
0010
,  // measure 217
0100
0001
0110
1000
,  // measure 218
0020
0230
0302
0023
,  // measure 219
0230
2300
3200
0302
,  // measure 220
0103
0100
0001
0010
,  // measure 221
0010
1000
0100
0100
,  // measure 222
0010
1000
0100
0001
,  // measure 223
0100
0000
0001
0000
0100
0001
0100
0000
,  // measure 224
0101
0000
0011
1100
,  // measure 225
0000
1100
0000
1001
,  // measure 226
0000
0011
0100
1000
,  // measure 227
0010
0001
0010
1000
,  // measure 228
0100
1000
0100
0000
0010
0000
0001
0000
,  // measure 229
0100
0010
1000
0100
,  // measure 230
0010
0001
0010
0000
0001
0000
0100
0000
,  // measure 231
0010
1000
0100
0010
,  // measure 232
0011
0000
1000
1001
,  // measure 233
0000
1010
0000
0101
,  // measure 234
0000
1100
0000
0220
,  // measure 235
0000
0330
0000
0000
,  // measure 236
0001
0001
0000
1000
,  // measure 237
1000
0000
0010
0010
,  // measure 238
0100
0000
0100
0010
,  // measure 239
0000
0010
0001
1000
,  // measure 240
0002
0000
0000
0103
0010
0000
0000
1000
0000
0200
0000
0000
0320
0000
0130
0000
,  // measure 241
0000
1000
0020
0000
0000
0032
0000
0000
0000
1003
0100
0000
0000
0010
0200
0000
,  // measure 242
0302
0000
0000
0013
0100
0000
0000
1000
0000
0001
0000
0000
1100
0000
0101
0000
,  // measure 243
0000
0010
2000
0000
0000
3200
0000
0000
0000
1300
0010
0000
0000
0010
1000
0000
,  // measure 244
0010
0000
0000
0100
0002
0000
0000
1003
0000
2000
0000
0000
3001
0100
0020
0000
,  // measure 245
0030
1000
0020
0000
0130
0010
1000
0000
0000
1000
0020
0000
0000
0130
0010
0000
,  // measure 246
1001
0000
0000
1000
0100
0000
0000
0011
0000
1100
0000
0000
1010
0000
0102
0000
,  // measure 247
0000
1003
0010
0000
0000
1000
0100
0000
0000
1000
0010
0100
0001
0010
0100
0000
,  // measure 248
2000
0000
0000
0000
0000
0000
0000
0000
0000
0000
0000
0000
3100
1000
0001
0000
,  // measure 249
2000
0000
0000
0000
0000
0000
0000
0000
0000
0000
0000
0000
3010
1000
0100
0000
,  // measure 250
0020
0000
0000
0000
0031
1000
0100
0000
0020
0000
0000
0000
0031
0100
0010
0000
,  // measure 251
1000
1010
0100
0101
0010
0100
0010
0000
,  // measure 252
1001
0000
0000
0000
;

//---------------dance-single - ----------------
#NOTES:
     dance-single:
     :
     Challenge:
     18:
     1.000,1.000,0.843,0.575,0.407:
0000
0000
0000
0000
,
0000
0000
0000
0000
,
0000
0000
0000
0000
,
0000
0000
0000
0000
,
0000
0000
0000
0000
,
0000
0000
0000
0000
,
0000
0000
0000
0000
,
0000
0000
0000
0000
,
0000
0000
0000
0000
,
0000
0000
0000
0000
,
0000
0000
0000
0000
,
0000
0000
0000
0000
,
0000
0000
0000
0000
,
0000
0000
0000
0000
,
0000
0000
0000
0000
,
0000
0000
0000
0000
,
0000
0000
0000
0000
,
0000
0000
0000
0000
,
1000
0100
0001
0000
,
0001
0100
1000
0000
,
0001
0100
1000
0000
,
1000
0100
0001
0000
,
1000
0100
1000
0000
0010
0000
0010
0000
,
0100
0010
0100
0000
0001
0000
0001
0000
,
0010
0010
0100
0100
,
1000
1000
0001
0001
,
1000
0100
0001
0000
,
0001
0010
1000
0000
,
2000
3002
0023
2030
,
3002
0203
2300
3020
,
0130
0001
0010
1000
,
0000
0110
0000
0000
,
1001
0000
0110
0000
,
2002
0000
0000
3003
,
1001
1000
0100
0010
,
0110
0100
0010
0001
,
1001
0001
0100
0010
,
0110
0100
0010
1000
,
1001
1000
0100
0010
,
0110
0100
0010
0001
,
0011
0000
1100
0000
,
1010
0000
0000
0000
0000
0000
0000
0000
0000
0000
0000
0000
0000
0000
0000
0000
0000
0000
0000
0000
0000
0000
0000
0000
0000
0000
0000
0000
0000
0000
0000
0000
0000
0000
0000
0000
0000
0000
0000
0000
0000
0000
0000
0000
0000
0000
0000
0000
0000
0000
0000
0000
0000
0000
0000
0000
0000
0000
0000
0000
0000
0000
0000
0000
0000
0000
0000
0000
0000
0000
0000
0000
0000
0000
0000
0000
0000
0000
0000
0000
0000
0000
0000
0000
0000
0000
0000
0000
0000
0000
0000
0000
0000
0000
0000
0000
1001
0000
0000
0000
0000
0000
0000
0000
0000
0000
0000
0000
0000
0000
0000
0000
0000
0000
0000
0000
0000
0000
0000
0000
0000
0000
0000
0000
0000
0000
0010
0000
0000
0000
0000
0000
0100
0000
0000
0000
0000
0000
0000
0000
0000
0000
0000
0000
0000
0000
0000
0000
0000
0000
0000
0000
0000
0000
0000
0000
0000
0000
0000
0000
0000
0000
0000
0000
0000
0000
0000
0000
0000
0000
0000
0000
0000
0000
1000
0000
0000
0000
0000
0000
0010
0000
0000
0000
0000
0000
0000
0000
0000
0000
0000
0000
,
0000
0000
0000
0000
0000
0000
0000
0000
0000
0000
0000
0000
0000
0000
0000
0000
0000
0000
0000
0000
0000
0000
0000
0000
0000
0000
0000
0000
0000
0000
0100
0000
0000
0000
0000
0000
1000
0000
0000
0000
0000
0000
0000
0000
0000
0000
0000
0000
0000
0000
0000
0000
0000
0000
0000
0000
0000
0000
0000
0000
0000
0000
0000
0000
0000
0000
0000
0000
0000
0000
0000
0000
0000
0000
0000
0000
0000
0000
0001
0000
0000
0000
0000
0000
0100
0000
0000
0000
0000
0000
0000
0000
0000
0000
0000
0000
0000
0000
0000
0000
0000
0000
0000
0000
0000
0000
0000
0000
0000
0000
0000
0000
0000
0000
0000
0000
0000
0000
0000
0000
0000
0000
0000
0000
0000
0000
1000
0000
0000
0000
0000
0000
0010
0000
0000
0000
0000
0000
0000
0000
0000
0000
0000
0000
0000
0000
0000
0000
0000
0000
0000
0000
0000
0000
0000
0000
0000
0000
0000
0000
0000
0000
0000
0000
0000
0000
0000
0000
0100
0000
0000
0000
0000
0000
0000
0000
0000
0000
0000
0000
0000
0000
0000
0000
0000
0000
0000
0000
0000
0000
0000
0000
,
0010
0001
0100
0010
1000
0100
0010
1000
,
0001
0100
1000
0010
0001
1000
0100
0001
,
0100
0110
0001
0100
,
0010
0000
0100
0001
,
1000
0100
0010
0001
,
1000
0001
0100
1000
,
0001
0000
1000
0100
,
0010
0000
0100
1000
,
0001
0000
0100
0001
,
0010
0000
1000
0010
,
0100
0000
0001
0100
,
1000
0010
1000
0100
,
0001
0010
1000
0001
,
0100
1000
0001
0010
,
1000
0001
0200
0000
,
2300
3002
0023
0230
,
0300
1100
0000
0011
,
0000
1010
0000
0110
,
1001
0000
0000
0000
0001
0100
0010
0000
,
1000
0001
0000
0010
0100
1000
0010
0000
,
0100
0001
0010
0000
0100
1000
0010
0000
,
1000
0010
0000
0100
0001
0010
0100
0000
,
1000
0001
0010
0000
0020
0000
0031
0100
,
0010
0000
0010
0000
0020
0000
1030
0100
,
0010
0000
0001
0010
0100
0000
1000
0010
,
0100
0200
0302
0023
,
0031
0100
0010
1000
0100
1000
0001
0000
,
0010
0001
0000
1000
0010
0100
0001
0000
,
0010
0100
0000
0010
0001
0100
0010
0000
,
1000
0010
0000
0100
0001
0010
1000
0000
,
0010
0001
0000
1000
0001
0000
0101
0000
,
0010
1010
0100
0110
,
0001
1100
0011
1100
,
1010
0101
0110
1001
,
0011
1100
0001
0001
,
0001
0010
0010
0010
,
0100
1000
0010
0000
1000
0000
1000
0000
,
1000
0010
0010
0010
,
0100
0001
0010
0000
0010
0001
1000
0000
,
1001
0000
0010
1000
0001
0000
1001
0000
,
0010
0100
0010
0000
0011
0000
0011
0000
,
0011
0011
1100
1100
,
0101
0101
0001
0001
,
0001
0100
0100
0100
,
0001
0100
0010
0000
1000
0000
1000
0000
,
1000
0010
0010
0010
,
0100
0001
0010
0000
0011
0000
1100
0000
,
1010
0101
0000
1001
,
0000
0000
0010
0000
,
0100
0000
2002
0000
,
0000
0000
3003
0000
0001
0100
1000
0100
,
0010
0000
0100
0001
0010
0000
0001
0000
,
0010
0001
0100
0000
0001
0010
1000
0010
,
0100
0000
0010
0001
0100
0000
0001
0000
,
0100
0001
0010
0000
0001
0100
1000
0100
,
0001
0000
1000
0001
0100
0000
0001
0000
,
1000
0010
0100
0000
0001
0000
0011
0000
,
0000
0110
0000
1000
,
0001
0000
1000
0000
0001
0010
1000
0000
,
0010
0000
1000
0010
0001
0000
0100
0000
,
0001
0100
1000
0000
0100
0001
0010
0000
,
0100
0000
0100
1000
0010
0000
0100
0000
,
0010
1000
0100
0000
1000
0000
1100
0000
,
0001
0101
1000
1010
,
0001
0011
0110
1001
,
0110
1001
0010
0100
,
0001
1000
0100
0100
,
0010
0001
1000
0000
0100
0000
0100
0000
,
1000
0010
0001
0000
0020
0000
0000
0000
,
0000
0000
0000
0000
,
0000
0000
0000
0000
0130
0010
1000
0000
,
0001
0000
0010
0100
1000
0000
0001
0000
,
0100
0010
1000
0000
0001
0000
2000
0000
,
0000
0000
0000
0000
,
0000
0000
0000
0000
0000
0000
0000
0000
0000
0000
0000
0000
0000
0000
0000
0000
0000
0000
0000
0000
0000
0000
0000
0000
0000
0000
0000
0000
0000
0000
0000
0000
0000
0000
0000
0000
0000
0000
0000
0000
0000
0000
0000
0000
0000
0000
0000
0000
3000
0000
0000
0000
0000
0000
0000
0000
0000
0000
0000
0000
0000
0000
0000
0000
0000
0000
0000
0000
0000
0000
0000
0000
0000
0000
0000
0000
0000
0000
0000
0000
0000
0000
0000
0000
0000
0000
0000
0000
0000
0000
0000
0000
0000
0000
0000
0000
0010
0000
0000
0000
0000
0000
1000
0000
0000
0000
0000
0000
0000
0000
0000
0000
0000
0000
0000
0000
0000
0000
0000
0000
0001
0000
0000
0000
0000
0000
0000
0000
0000
0000
0000
0000
0100
0000
0000
0000
0000
0000
0000
0000
0000
0000
0000
0000
0000
0000
0000
0000
0000
0000
0000
0000
0000
0000
0000
0000
0001
0000
0000
0000
0000
0000
0000
0000
0000
0000
0000
0000
0100
0000
0000
0000
0000
0000
0000
0000
0000
0000
0000
0000
0010
0000
0000
0000
0000
0000
0000
0000
0000
0000
0000
0000
,
1000
0000
0000
0000
0000
0000
0100
0000
0000
0000
0000
0000
0000
0000
0000
0000
0000
0000
0000
0000
0000
0000
0000
0000
0010
0000
0000
0000
0000
0000
0000
0000
0000
0000
0000
0000
0001
0000
0000
0000
0000
0000
0000
0000
0000
0000
0000
0000
0000
0000
0000
0000
0000
0000
0000
0000
0000
0000
0000
0000
1000
0000
0000
0000
0000
0000
0000
0000
0000
0000
0000
0000
0100
0000
0000
0000
0000
0000
0000
0000
0000
0000
0000
0000
0010
0000
0000
0000
0000
0000
0000
0000
0000
0000
0000
0000
0001
0000
0000
0000
0000
0000
0010
0000
0000
0000
0000
0000
0000
0000
0000
0000
0000
0000
0000
0000
0000
0000
0000
0000
1000
0000
0000
0000
0000
0000
0000
0000
0000
0000
0000
0000
0010
0000
0000
0000
0000
0000
0000
0000
0000
0000
0000
0000
0001
0000
0000
0000
0000
0000
0100
0000
0000
0000
0000
0000
0000
0000
0000
0000
0000
0000
0000
0000
0000
0000
0000
0000
0001
0000
0000
0000
0000
0000
0010
0000
0000
0000
0000
0000
0000
0000
0000
0000
0000
0000
0000
0000
0000
0000
0000
0000
,
0000
0000
0000
0000
0000
0000
0000
0000
0000
0000
0000
0000
1000
0000
0000
0000
0000
0000
0000
0000
0000
0000
0000
0000
0010
0000
0000
0000
0000
0000
0000
0000
0000
0000
0000
0000
0001
0000
0000
0000
0000
0000
0000
0000
0000
0000
0000
0000
1000
0000
0000
0000
0000
0000
0100
0000
0000
0000
0000
0000
0000
0000
0000
0000
0000
0000
0000
0000
0000
0000
0000
0000
0001
0000
0000
0000
0000
0000
0100
0000
0000
0000
0000
0000
0000
0000
0000
0000
0000
0000
0000
0000
0000
0000
0000
0000
0110
0000
0000
0000
0000
0000
0000
0000
0000
0000
0000
0000
0000
0000
0000
0000
0000
0000
0000
0000
0000
0000
0000
0000
0000
0000
0000
0000
0000
0000
0000
0000
0000
0000
0000
0000
0000
0000
0000
0000
0000
0000
0000
0000
0000
0000
0000
0000
1001
0000
0000
0000
0000
0000
0000
0000
0000
0000
0000
0000
0000
0000
0000
0000
0000
0000
0000
0000
0000
0000
0000
0000
0011
0000
0000
0000
0000
0000
0000
0000
0000
0000
0000
0000
0000
0000
0000
0000
0000
0000
0000
0000
0000
0000
0000
0000
,
0000
0110
0000
1100
0000
1000
0001
0110
,
1001
0000
0110
0000
0110
0000
1001
1100
,
0000
0110
0000
0011
0000
0001
1000
0010
,
0100
0001
0110
0000
2020
0000
0000
0000
,
0000
0000
0000
0030
3100
0010
0001
0000
0022
0000
0000
0000
0000
0000
0000
0000
,
0000
0000
0000
0030
0103
0010
1000
0000
0002
0000
0000
0000
1003
0010
0100
0000
,
2000
0000
0000
0000
3001
0010
0100
0000
1001
0000
0000
0000
1100
0000
0000
0000
,
0101
1001
0001
0110
,
1000
0001
0010
1100
,
0010
0100
0001
1010
,
0100
0001
0010
1100
,
0010
0000
1000
0010
0001
0000
0010
0000
,
0001
0010
1000
0000
0100
0000
1000
0100
,
0001
0000
1000
0010
0001
0000
1001
0000
,
0010
0100
0001
1100
,
0010
0100
0001
1010
,
0001
1000
0100
0011
,
1000
0002
0023
2030
,
3002
0203
2300
3002
,
0203
0000
0301
0010
0100
0000
1000
0000
,
0010
0100
0001
0000
1000
0000
0100
0010
,
0001
0000
1000
0100
0010
0000
0001
0100
,
0010
0000
1000
0100
0010
0000
0001
0100
,
0010
0120
0000
1030
,
0002
0000
0023
0000
,
2030
0000
3001
0100
,
1000
0010
0001
0010
,
0100
0000
0001
0100
1000
0000
0100
0000
,
0001
0010
0100
0010
,
1000
0000
0010
0001
0100
0000
0010
1000
,
0100
0000
0001
0010
0100
0000
1000
0010
,
0100
1001
0000
0011
,
1100
0000
0110
0000
,
1100
0000
0101
0000
,
0220
0000
0000
0330
,
0000
1010
1010
0000
,
0011
0011
0000
1100
,
1100
0101
0101
0000
,
0000
0000
0000
0000
0000
0000
1000
0100
,
0010
0000
0001
0000
2000
0000
0000
3001
0010
0000
0000
1000
0000
0002
0000
0000
,
0103
0010
1000
0000
0000
0010
0002
0000
0000
1003
0200
0000
0000
0301
0100
0000
,
0000
1000
0020
0000
0230
0000
0000
0301
0010
0000
0000
1010
0000
0101
0000
0000
,
0011
0000
1100
0000
0000
1000
0200
0000
0000
0301
0200
0000
0000
1300
0020
0000
,
0000
0031
0020
0000
2030
0000
0000
3100
0002
0000
0000
1003
0000
0002
0000
0000
,
0103
1000
0020
0000
0030
0001
0020
0000
0130
0010
1000
0000
0000
0001
0020
0000
,
0000
0130
0010
0000
1001
0000
0000
0010
0100
0000
0000
0110
0000
1001
0000
0000
,
1010
0000
0102
0000
0000
0013
0001
0000
0000
1000
0100
0000
0000
0001
0100
1000
,
0010
0001
0010
0100
0002
0000
0000
0000
0000
0000
0000
0000
0000
0000
0000
0000
,
0103
0001
1000
0000
0002
0000
0000
0000
0000
0000
0000
0000
0000
0000
0000
0000
,
0013
0001
0100
0000
0020
0000
0000
0000
1030
0001
0100
0001
0020
0000
0000
0000
,
0031
0100
0010
1000
0010
0000
1100
0000
0010
0000
0101
0000
0010
0000
0100
0000
,
0110
0000
1002
0000
1000
0100
0010
1000
,
0103
0001
0010
0001
2000
0000
0000
0000
0010
0000
0100
0000
0001
0000
0100
0000
,
3001
1000
0000
1001
1000
0000
0100
0110
0000
0011
0000
1010
0000
0101
0000
0100
,
0001
0000
0110
0000
0001
0000
1000
1100
0000
0011
0000
0110
0000
1100
0000
0001
,
0000
1000
0000
0000
0002
0000
0000
1003
0010
0000
0000
0001
0000
2000
0000
0000
,
3100
0010
0001
0000
0000
0010
2000
0000
0000
3001
0200
0000
0000
1300
0100
0000
,
0000
0001
0020
0000
0230
0000
0000
1300
0010
0000
0000
0011
0000
1100
0000
0000
,
1010
0000
0101
0000
0000
0001
0200
0000
0000
1300
0200
0000
0000
0301
0020
0000
,
0000
1030
0020
0000
0032
0000
0000
0103
2000
0000
0000
3001
0000
2000
0000
0000
,
3100
0001
0020
0000
0030
1000
0020
0000
0130
0010
0001
0000
0000
1000
0020
0000
,
0000
0130
0010
0000
1001
0000
0100
0000
0010
0000
0011
0000
0000
0000
1010
0000
,
0000
1100
0101
0110
,
0000
0000
0000
0000
1000
0100
0000
0010
0001
0000
0100
0000
0010
0000
0001
0000
,
0010
0000
1000
0000
0100
0001
0000
0000
0010
0001
0000
0000
1000
0100
0000
0010
,
0001
0010
0001
0100
1000
0100
0010
1000
,
0010
0000
0001
0000
0100
1000
0000
0000
0010
1000
0000
0010
0001
0000
0100
0000
,
0100
0000
0100
0000
0001
0100
0000
0010
1000
0000
0100
0000
0010
0000
1000
0000
,
0010
0000
0001
0000
0100
1000
0000
0000
0010
1000
0000
0000
0001
0100
0000
0010
,
1000
0010
1000
0100
0001
0100
0010
0001
,
0010
0000
1000
0000
0100
0001
0000
0000
0010
0001
0000
0010
1000
0000
0100
0000
,
0110
0000
1000
0100
0010
0100
0001
0100
,
0010
0100
1000
0010
0100
0010
0001
0010
,
0100
0000
0010
0000
1000
0100
0010
0000
0001
0000
0100
0000
1000
0100
0001
0000
,
0010
0100
1000
0001
0000
0100
0000
0010
,
0110
0000
0001
0100
0010
0100
1000
0100
,
0010
0100
0001
0010
0100
0010
1000
0010
,
0100
0000
0010
0000
0001
0100
0010
0000
1000
0000
0100
0000
0001
0100
1000
0000
,
0010
0100
0002
0000
1003
0020
0000
0130
,
1001
0000
0010
0100
1000
0100
0001
0100
,
1000
0010
0100
0001
0010
1000
0010
0100
,
0010
0010
0100
1000
0010
0100
0001
0100
,
1000
0000
0100
0000
0001
0000
0001
0000
0010
0000
0010
0000
0100
1000
0001
0100
,
0010
1000
0001
0010
0100
0000
1000
0000
0001
0000
0100
0000
1000
0000
0100
0000
,
0001
0010
0100
1000
0010
0001
0010
0100
,
0100
1000
0100
0100
0000
0010
0010
0000
,
0001
0001
1000
1000
0000
0100
0010
0000
,
1001
1000
0110
0001
,
1000
0010
0101
0010
,
0100
1000
0011
0100
,
1000
0010
0101
0010
,
0001
0010
1000
0000
0010
0000
1000
0010
,
0001
0000
0100
0000
0001
0100
1000
0000
,
0001
0010
1000
0000
1001
0000
0010
0000
,
0100
1000
0101
0010
,
0100
1000
0011
1000
,
0001
0100
1010
0001
,
2000
3020
0032
2003
,
3200
0302
2003
3200
,
1300
0010
0100
0000
0001
0000
0010
0100
,
1000
0000
0001
0000
0100
0010
1000
0000
,
0001
0100
0010
0000
1000
0100
0010
0000
,
0001
0100
0010
0000
1000
0100
0010
0000
,
0120
0000
0031
2000
,
0000
3020
0000
0032
,
0000
1003
0100
0001
,
0010
1000
0010
0100
,
1000
0100
0001
0000
0100
0000
1000
0000
,
0010
0100
0010
0001
,
0010
1000
0100
0000
0010
0001
0100
0000
,
1000
0010
0100
0000
0001
0010
0100
0000
,
1001
0000
1010
0101
,
0000
0110
0000
0101
,
0000
1100
0000
0220
,
0000
0000
0330
0000
,
0011
0011
0000
1010
,
1010
0000
0101
0101
,
1100
1100
0000
0000
,
0000
0000
0000
0000
0001
0100
0010
1000
,
0002
0000
0000
1003
0010
0000
0000
0001
0000
2000
0000
0000
3100
0010
0001
0000
,
0000
0010
2000
0000
0000
3001
0200
0000
0000
1300
0100
0000
0000
0001
0020
0000
,
0230
0000
0000
1300
0010
0000
0000
0011
0000
1100
0000
0000
1010
0000
0101
0000
,
0000
0001
0200
0000
0000
1300
0200
0000
0000
0301
0020
0000
0000
1030
0020
0000
,
0032
0000
0000
0103
2000
0000
0000
3001
0000
2000
0000
0000
3100
0001
0020
0000
,
0030
1000
0020
0000
0130
0010
0001
0000
0000
1000
0020
0000
0000
0130
0010
0000
,
1001
0000
0000
0010
0100
0000
0000
0110
0000
1001
0000
0000
0011
0000
2100
0000
,
0000
3010
1000
0000
0000
0001
0100
0000
0000
1000
0100
0001
0010
1000
0010
0100
,
2000
0000
0000
0000
0000
0000
0000
0000
0000
0000
0000
0000
3100
1000
0001
0000
,
2000
0000
0000
0000
0000
0000
0000
0000
0000
0000
0000
0000
3010
1000
0100
0000
,
0020
0000
0000
0000
0031
1000
0100
1000
0020
0000
0000
0000
1030
0100
0010
0001
,
0010
0101
0010
1100
0010
0100
0110
0000
,
1001
0000
0000
0000
,
;
