#TITLE:Candy Girl;
#SUBTITLE:Short Song;
#ARTIST:New Edition;
#TITLETRANSLIT:;
#SUBTITLETRANSLIT:;
#ARTISTTRANSLIT:;
#CREDIT:;
#BANNER:Candy Girl.png;
#BACKGROUND:Candy Girl-bg.png;
#LYRICSPATH:;
#CDTITLE:./CDTITLES/DanceDanceRevolution II.png;
#MUSIC:../Candy Girl (Full Song)/Candy Girl (Full Song).ogg;
#OFFSET:0.000;
#SAMPLESTART:22.680;
#SAMPLELENGTH:15.000;
#SELECTABLE:YES;
#DISPLAYBPM:105.000;
#BPMS:0.000=104.870;
#STOPS:;
#BGCHANGES:;

//---------------dance-single - ----------------
#NOTES:
     dance-single:
     :
     Beginner:
     2:
     0.043,0.063,0.000,0.027,0.000:
0000
0000
0000
0000
,
0000
0000
0000
0000
,
0000
0000
0000
0000
,
0000
0000
0000
0000
,
0000
0000
0000
0000
,
0000
0000
0000
0000
,
1000
0000
0000
0000
,
1000
0000
0000
0000
,
0001
0000
0000
0000
,
0001
0000
0000
0000
,
1000
0000
0001
0000
,
1000
0000
0000
0000
,
0001
0000
1000
0000
,
0001
0000
0000
0000
,
1000
0000
0001
0000
,
1000
0000
0000
0000
,
0001
0000
1000
0000
,
0001
0000
0000
0000
,
0000
0000
0000
0000
,
0010
0000
0010
0000
,
0010
0000
0000
0000
,
1000
0000
0100
0000
,
0001
0000
1000
0000
,
0010
0000
0010
0000
,
0010
0000
0000
0000
,
0001
0000
0100
0000
,
1000
0000
0001
0000
,
2000
0000
0000
0000
,
0000
3000
0000
0000
,
0002
0000
0000
0000
,
0000
0003
0000
0000
,
0010
0000
0010
0000
,
0010
0000
0000
0000
,
1000
0000
0100
0000
,
0001
0000
1000
0000
,
0010
0000
0010
0000
,
0010
0000
0000
0000
,
0001
0000
0100
0000
,
1000
0000
0001
0000
,
1000
1000
1000
0000
,
0001
0000
0010
0000
,
2000
3000
0000
0000
,
0002
0003
0000
0000
,
0001
0001
0001
0000
,
1000
0000
0010
0000
,
0002
0003
0000
0000
,
2000
3000
0000
0000
,
;

//---------------dance-single - ----------------
#NOTES:
     dance-single:
     :
     Easy:
     5:
     0.077,0.085,0.000,0.137,0.000: // measure 1
0000
0000
0000
0000
,  // measure 2
0000
0000
0000
0000
,  // measure 3
0000
0000
0000
0000
,  // measure 4
0000
0000
0000
0000
,  // measure 5
0000
0000
0000
0000
,  // measure 6
0000
0000
0000
0000
,  // measure 7
0001
0000
1000
0000
,  // measure 8
0001
1000
0001
0000
,  // measure 9
1000
1000
0001
0001
,  // measure 10
1000
0001
1000
0000
,  // measure 11
0002
0000
1003
0000
,  // measure 12
0200
0000
0310
0000
,  // measure 13
2000
0000
3001
0000
,  // measure 14
0020
0000
0130
0000
,  // measure 15
0002
0000
1003
0000
,  // measure 16
0200
0000
0310
0000
,  // measure 17
2000
0000
3001
0000
,  // measure 18
0020
0000
0130
0000
,  // measure 19
0000
0000
0000
0000
,  // measure 20
1000
0000
0010
0000
,  // measure 21
0100
0001
0100
0000
,  // measure 22
2000
3000
0002
0003
,  // measure 23
1000
0100
1000
0000
,  // measure 24
0001
0000
0010
0000
,  // measure 25
0100
1000
0100
0000
,  // measure 26
0002
0003
2000
3000
,  // measure 27
0001
0100
0001
0000
,  // measure 28
0002
0000
0000
0000
,  // measure 29
2003
0000
0000
0000
,  // measure 30
3002
0000
0000
0000
,  // measure 31
2003
0000
3001
0000
,  // measure 32
1000
0000
0010
0000
,  // measure 33
0100
0001
0100
0000
,  // measure 34
2000
3000
0002
0003
,  // measure 35
1000
0100
1000
0000
,  // measure 36
0001
0000
0010
0000
,  // measure 37
0100
1000
0100
0000
,  // measure 38
0002
0003
2000
3000
,  // measure 39
0001
0100
0001
0000
,  // measure 40
0002
0000
0013
0000
,  // measure 41
2000
0000
3010
0000
,  // measure 42
0002
0003
0020
0030
,  // measure 43
0200
0300
1000
0000
,  // measure 44
2000
0000
3010
0000
,  // measure 45
0002
0000
0013
0000
,  // measure 46
2000
3000
0020
0030
,  // measure 47
0200
0300
0001
0000
;

//---------------dance-single - ----------------
#NOTES:
     dance-single:
     :
     Medium:
     6:
     0.121,0.127,0.086,0.137,0.000:
0000
0000
0000
0000
,
0000
0000
0000
0000
,
0000
0000
0000
0000
,
0000
0000
0000
0000
,
0000
0000
0000
0000
,
0000
0000
0000
0000
,
0001
0001
1000
1000
,
0001
0100
0010
0010
,
0100
1001
0010
1001
,
0001
0010
0110
0000
,
2100
0100
3001
0000
,
0201
0010
0310
0000
,
0012
0010
0103
0000
,
2001
0001
3001
0000
,
0102
0100
1003
0000
,
1200
0010
0310
0000
,
2010
0010
3100
0000
,
0120
0100
0130
0000
,
0000
0000
0000
0000
,
1000
0010
1000
0010
,
1000
0100
1000
0100
,
2000
3010
0002
0013
,
1000
0100
1100
0000
,
0001
0010
0001
0010
,
0001
0100
0001
0100
,
0002
0013
2000
3010
,
0001
0100
0101
0000
,
0002
0000
0100
0010
,
2003
0000
0001
0010
,
3002
0000
0100
0010
,
2003
0001
3010
0000
,
1000
0010
1000
0010
,
1000
0100
1000
0100
,
2000
3010
0002
0013
,
1000
0100
1100
0000
,
0001
0010
0001
0010
,
0001
0100
0001
0100
,
0002
0013
2000
3010
,
0001
0100
0101
0000
,
0021
0100
0031
0000
,
2100
0010
3100
0000
,
0200
1300
0200
0301
,
0200
1300
0001
0000
,
1020
0100
1030
0000
,
0102
0010
0103
0000
,
0200
0301
0200
1300
,
0200
0301
1000
0000
,
;

//---------------dance-single - ----------------
#NOTES:
     dance-single:
     :
     Hard:
     8:
     0.151,0.159,0.059,0.173,0.000:
0000
0000
0000
0000
,
0000
0000
0000
0000
,
0000
0000
0000
0000
,
0000
0000
0000
0000
,
0000
0000
0000
0000
,
0000
0000
0000
0000
,
1000
0100
1000
0000
0001
0100
0001
0000
,
1000
1000
0010
0000
0100
0001
0100
0000
,
0010
1000
1010
0000
0100
0001
0001
0000
,
1000
1000
0100
0000
0010
0001
0100
0000
,
0012
1000
0200
0303
,
1020
0001
0200
0330
,
2001
0100
0020
3030
,
0102
0010
2000
3003
,
2010
0001
0200
3300
,
0021
1000
0200
0330
,
1002
0100
0020
0033
,
2001
0100
0002
3003
,
0000
0000
0000
0000
,
0001
0010
0100
0000
0001
0100
0010
0000
,
0001
0100
0010
0000
0100
0001
0010
0000
,
0002
0100
0023
0100
,
0031
0000
0100
0001
0100
0000
0000
0000
,
1000
0010
0100
0000
1000
0100
0010
0000
,
1000
0100
0010
0000
0100
1000
0010
0000
,
2000
0100
3020
0100
,
1030
0001
0010
0001
1000
0000
0000
0000
,
0200
0001
0010
1000
,
0302
0010
1000
0100
,
0203
1000
0010
0001
,
2300
0001
0100
3001
,
0001
0010
0100
0000
0001
0100
0010
0000
,
0001
0100
0010
0000
0100
0001
0010
0000
,
0002
0100
0023
0100
,
0031
0000
0100
0001
0100
0000
0000
0000
,
1000
0010
0100
0000
1000
0100
0010
0000
,
1000
0100
0010
0000
0100
1000
0010
0000
,
0200
1000
0320
1000
,
0130
0000
0001
1000
0001
0000
0000
0000
,
1200
0000
0010
0000
1300
0100
0010
0000
,
0012
0000
0100
0000
0013
0001
0100
0000
,
0020
1030
0020
1030
,
0020
0000
1030
0001
1000
0000
0000
0000
,
0201
0000
0010
0000
0301
0100
0010
0000
,
2010
0000
0100
0000
3010
1000
0100
0000
,
0020
0031
0020
0031
,
0020
0000
0031
1000
0001
0000
0000
0000
,
;

//---------------dance-double - ----------------
#NOTES:
     dance-double:
     :
     Easy:
     5:
     0.077,0.085,0.000,0.137,0.000:
00000000
00000000
00000000
00000000
,
00000000
00000000
00000000
00000000
,
00000000
00000000
00000000
00000000
,
00000000
00000000
00000000
00000000
,
00000000
00000000
00000000
00000000
,
00000000
00000000
00000000
00000000
,
00010000
00000000
10000000
00000000
,
00100000
01000000
00010000
00000000
,
00100000
00100000
00001000
00001000
,
00010000
00000010
00000100
00000000
,
00002000
00000000
00003001
00000000
,
00000200
00000000
00010300
00000000
,
00002000
00000000
00013000
00000000
,
00200000
00000000
01300000
00000000
,
00020000
00000000
10030000
00000000
,
02000000
00000000
03001000
00000000
,
00020000
00000000
00031000
00000000
,
00000020
00000000
00000130
00000000
,
00000000
00000000
00000000
00000000
,
00000001
00000000
00000100
00000000
,
00001000
00010000
00001000
00000000
,
02000000
03000000
00200000
00300000
,
10000000
01000000
10000000
00000000
,
10000000
00000000
01000000
00000000
,
00010000
00001000
00010000
00000000
,
00000200
00000300
00000020
00000030
,
00000001
00000100
00000001
00000000
,
00000020
00000000
00000000
00000000
,
00020030
00000000
00000000
00000000
,
00032000
00000000
00000000
00000000
,
02003000
00000000
03100000
00000000
,
10000000
00000000
01000000
00000000
,
00010000
00001000
00010000
00000000
,
00000200
00000300
00000020
00000030
,
00000001
00000100
00000001
00000000
,
00000001
00000000
00000100
00000000
,
00001000
00010000
00001000
00000000
,
02000000
03000000
00200000
00300000
,
10000000
01000000
10000000
00000000
,
00020000
00000000
00130000
00000000
,
20000000
00000000
30100000
00000000
,
02000000
03000000
00002000
00003000
,
00020000
00030000
00000010
00000000
,
00002000
00000000
00003010
00000000
,
00000002
00000000
00000013
00000000
,
00000200
00000300
00020000
00030000
,
00002000
00003000
00100000
00000000
,
;

//---------------dance-double - ----------------
#NOTES:
     dance-double:
     :
     Medium:
     6:
     0.120,0.127,0.096,0.137,0.000:
00000000
00000000
00000000
00000000
,
00000000
00000000
00000000
00000000
,
00000000
00000000
00000000
00000000
,
00000000
00000000
00000000
00000000
,
00000000
00000000
00000000
00000000
,
00000000
00000000
00000000
00000000
,
00010000
00010000
10000000
10000000
,
01000000
00010000
00001000
00000100
,
00000010
00001001
00000100
00001001
,
00000010
00000100
00000110
00000000
,
00001002
00000100
00000103
00000000
,
00020010
00001000
00031000
00000000
,
00012000
00100000
00103000
00000000
,
02010000
00100000
03100000
00000000
,
20010000
01000000
31000000
00000000
,
00102000
00010000
00013000
00000000
,
00021000
00000010
00030010
00000000
,
00001020
00000100
00000130
00000000
,
00000000
00000000
00000000
00000000
,
00000001
00000100
00000001
00000100
,
00001000
00010000
00001000
00010000
,
00200000
00300000
20000000
31000000
,
00100000
00010000
10010000
00000000
,
10000000
01000000
10000000
01000000
,
00010000
00001000
00010000
00001000
,
00000020
00000030
00000002
00000103
,
00000010
00001000
00001001
00000000
,
00000020
00000000
00001000
00000100
,
00020030
00000000
00000100
00001000
,
02030000
00000000
00010000
00100000
,
23000000
00010000
31000000
00000000
,
10000000
01000000
10000000
01000000
,
00010000
00001000
00010000
00001000
,
00000020
00000030
00000002
00000103
,
00000010
00001000
00001001
00000000
,
00000001
00000100
00000001
00000100
,
00001000
00010000
00001000
00010000
,
00200000
00300000
20000000
31000000
,
00100000
00010000
10010000
00000000
,
00210000
00001000
00310000
00000000
,
00012000
00100000
00013000
00000000
,
00000200
00000310
00002000
00003001
,
00000200
00001300
00011000
00000000
,
00001020
00010000
00001030
00000000
,
00021000
00000010
00031000
00000000
,
02000000
03100000
00020000
10030000
,
02000000
03010000
00011000
00000000
,
;

//---------------dance-double - ----------------
#NOTES:
     dance-double:
     :
     Hard:
     9:
     0.148,0.169,0.046,0.068,0.000:
00000000
00000000
00000000
00000000
,
00000000
00000000
00000000
00000000
,
00000000
00000000
00000000
00000000
,
00000000
00000000
00000000
00000000
,
00000000
00000000
00000000
00000000
,
00000000
00000000
00000000
00000000
,
00100000
00010000
00100000
00000000
00001000
00100000
00001000
00000000
,
00010000
00001000
00000100
00000001
00001000
00000001
00000100
00000000
,
00000010
00001000
00001010
00000000
00000100
00000001
00000010
00000000
,
00000001
00000100
00001000
00010000
01000000
10000000
01000000
00000000
,
10020000
00001000
10000000
00001000
,
01030000
00010000
00001000
00000000
00010000
00001000
00000010
00000000
,
00000210
00000001
00001000
00000001
,
00001300
00010000
00100000
00000000
00001000
00010000
01000000
00000000
,
10020000
00001000
10000000
00001000
,
01030000
00010000
00001000
00000000
00010000
00001000
00000010
00000000
,
00000210
00001000
00000001
00001000
,
00000310
00010000
00100000
00000000
00001000
00010000
01000000
00000000
,
00000000
00000000
00000000
00000000
,
10000000
01000000
00010000
00000000
10000000
01000000
00010000
00000000
,
00100000
00010000
00001000
00000000
00100000
00010000
00001000
00000000
,
00000100
00000001
00000100
00001000
,
00010000
00001000
00100000
00000000
00001000
00000000
00001100
00000000
,
00000001
00000100
00001000
00000000
00000001
00000100
00001000
00000000
,
00000010
00001000
00010000
00000000
00000010
00001000
00010000
00000000
,
01000000
10000000
01000000
00010000
,
00001000
00010000
00000010
00001000
00010000
00000000
01100000
00000000
,
20000000
01000000
00010000
00100000
,
30020000
00100000
00032000
00000100
,
00003002
00000100
00001000
00000010
,
00002003
00000000
00000010
00000000
00013000
01000000
01000000
00000000
,
10000000
01000000
00010000
00000000
10000000
01000000
00010000
00000000
,
00100000
00010000
00001000
00000000
00100000
00010000
00001000
00000000
,
00000100
00000001
00000100
00001000
,
00010000
00001000
00100000
00000000
00001000
00000000
00001100
00000000
,
00000001
00000100
00001000
00000000
00000001
00000100
00001000
00000000
,
00000010
00001000
00010000
00000000
00000010
00001000
00010000
00000000
,
01000000
00100000
00001000
00010000
,
10000000
00000000
00010000
01000000
01000000
00000000
00000000
00000000
,
10200000
00001000
10000000
00301000
,
01000000
00010000
00100000
00000000
00001000
00010000
00000010
00000000
,
00000200
00000001
00002300
00010000
,
00103000
00000000
00010000
00001000
00000100
00000000
00000000
00000000
,
00000021
00010000
00000001
00010030
,
00000100
00001000
00000010
00000000
00010000
00001000
00100000
00000000
,
02000000
10000000
03020000
00001000
,
00030010
00000000
00001000
00010000
01000000
00000000
00000000
00000000
,
;
