#TITLE:Pork And Beans;
#ARTIST:Weezer;
#BANNER:Pork And Beans.png;
#BACKGROUND:Pork And Beans-bg.png;
#CDTITLE:./CDTITLES/DanceDanceRevolution HOTTEST PARTY 3.png;
#MUSIC:Pork And Beans.ogg;
#SAMPLESTART:33.419;
#SAMPLELENGTH:15;
#DISPLAYBPM:119;
#BPMS:0=119.9,64=121,67=114,68=119,163=113,164=119.4,196=118.4,212=119,223=119.3;

//---------------dance-single - ----------------
#NOTES:
     dance-single:
     :
     Beginner:
     1:
     :
0000
0000
0000
0000
,
0000
0000
0000
0000
,
0000
0000
0000
0000
,
0000
0000
0000
0000
,
0000
0000
0000
0000
,
1000
0000
0000
0000
,
0000
0000
0000
0000
,
1000
0000
0000
0000
,
0000
0000
0000
0000
,
0001
0000
0000
0000
,
0000
0000
0000
0000
,
0001
0000
0000
0000
,
0000
0000
0000
0000
,
0010
0000
0000
0000
,
0000
0000
0000
0000
,
0010
0000
0000
0000
,
1001
0000
0000
0000
,
0010
0000
0000
0000
,
0001
0000
0001
0000
,
1000
0000
1000
0000
,
0001
0000
0001
0000
,
0010
0000
0000
0000
,
1000
0000
1000
0000
,
0001
0000
0001
0000
,
0010
0000
0010
0000
,
1000
0000
0000
0000
,
1000
0000
1000
0000
,
0001
0000
0000
0000
,
0001
0000
0001
0000
,
0010
0000
0000
0000
,
0010
0000
0010
0000
,
0100
0000
0000
0000
,
0100
0000
0100
0000
,
0001
0000
0000
0000
,
0000
0000
0000
0000
,
1000
0000
0000
0000
,
1000
0000
0000
0000
,
1000
0000
1000
0000
,
0001
0000
0001
0000
,
1000
1000
0000
0000
,
0001
0001
0001
0000
,
0010
0000
0000
0000
,
0001
0000
0001
0000
,
1000
0000
1000
0000
,
0001
0000
0001
0000
,
0010
0000
0000
0000
,
1000
0000
1000
0000
,
0001
0000
0001
0000
,
0010
0000
0010
0000
,
1000
0000
0000
0000
,
1000
0000
1000
0000
,
0001
0000
0000
0000
,
0001
0000
0001
0000
,
0010
0000
0000
0000
,
0010
0000
0010
0000
,
0100
0000
0000
0000
,
1001
0000
0000
0000
;

//---------------dance-single - ----------------
#NOTES:
     dance-single:
     :
     Easy:
     3:
     :
0000
0000
0000
0000
,
0000
0000
0000
0000
,
0000
0000
0000
0000
,
0000
0000
0000
0000
,
0000
0000
0000
0000
,
1000
0000
0000
0000
,
0001
0000
0000
0000
,
0100
0000
0000
0000
,
0000
0000
0000
0000
,
0001
0000
0000
0000
,
0100
0000
0000
0000
,
0010
0000
0000
0000
,
0000
0000
0000
0000
,
0001
0000
0000
0000
,
1000
0000
0000
0000
,
0100
0000
0000
0000
,
1001
0000
1001
0000
,
0010
0010
0010
0000
,
0100
0001
0100
0000
,
0001
0000
0001
0000
,
1000
1000
0100
0000
,
1000
0100
1000
0000
,
0001
0100
0001
0000
,
1000
0000
1000
0000
,
0001
0001
0100
0000
,
0002
0000
0000
0003
,
1000
0000
1000
0000
,
2000
0000
0000
3000
,
0001
0000
0001
0000
,
0200
0000
0000
0300
,
0010
0000
0010
0000
,
0020
0000
0000
0030
,
0100
0000
0100
0000
,
0001
0000
0000
0000
,
0001
0000
0000
0000
,
1000
0000
1000
0000
,
1000
0000
1000
0000
,
0001
0000
1000
0000
,
1000
0000
0001
0000
,
1000
1000
0001
0001
,
1000
0000
0001
0000
,
0100
0100
0100
0000
,
0010
0001
0010
0000
,
0001
0000
0001
0000
,
1000
1000
0010
0000
,
1000
0010
1000
0000
,
0001
0010
0001
0000
,
1000
0000
1000
0000
,
0001
0001
0010
0000
,
0002
0000
0000
0003
,
1000
0000
1000
0000
,
2000
0000
0000
3000
,
0001
0000
0001
0000
,
0020
0000
0000
0030
,
0100
0000
0100
0000
,
0200
0000
0000
0300
,
0100
0000
1001
0000
;

//---------------dance-single - ----------------
#NOTES:
     dance-single:
     :
     Medium:
     5:
     :
0000
0000
0000
0000
,
0000
0000
0000
0000
,
0000
0000
0000
0000
,
0000
0000
0000
0000
,
0000
0000
0000
0000
,
1000
0000
0000
0000
,
0001
0000
0100
0000
,
0100
0000
0000
0000
,
0000
0000
0000
0000
,
0001
0000
0000
0000
,
0100
0000
0100
0000
,
0010
0000
0000
0000
,
0000
0000
0000
0000
,
0001
0000
0000
0000
,
1000
0000
1000
0000
,
0100
0000
0000
0000
,
1000
0001
0000
1000
0001
0000
0000
0000
,
0010
0000
0100
0000
1000
0001
1000
0000
,
0100
0001
0100
1000
,
0001
0000
1000
0000
0001
0100
0010
0000
,
1000
0100
1000
0000
0100
1000
0001
0000
,
0010
0000
0100
0000
0001
1000
0001
0000
,
0100
1000
0100
0001
,
1000
0000
0001
0000
1000
0100
0010
0000
,
0001
0100
0001
0000
0100
0001
1000
0000
,
0002
1000
0000
1000
,
0000
0100
1000
0103
,
0020
1000
0000
1000
,
0000
1000
0100
1030
,
2000
0001
0000
0001
,
0000
0100
0001
3100
,
0020
0001
0000
0001
,
0000
0001
0100
0031
,
1000
0000
0000
0000
,
0001
0000
0000
0000
,
1000
0000
1000
0000
,
0001
0000
0001
0000
,
1000
0000
0001
0000
,
0001
0000
1000
0000
,
1000
0100
1000
0000
0001
0100
0001
0000
,
1000
0001
0000
1000
0001
0000
0000
0000
,
0100
0000
0010
0000
1000
0001
1000
0000
,
0010
0001
0010
1000
,
0001
0000
1000
0000
0001
0010
0100
0000
,
1000
0010
1000
0000
0010
1000
0001
0000
,
0100
0000
0010
0000
0001
1000
0001
0000
,
0010
1000
0010
0001
,
1000
0000
0001
0000
1000
0010
0100
0000
,
0001
0010
0001
0000
0010
0001
1000
0000
,
0002
1000
0000
1000
,
0000
0010
1000
0013
,
0200
1000
0000
1000
,
0000
1000
0010
1300
,
2000
0001
0000
0001
,
0000
0010
0001
3010
,
0200
0010
0000
0310
,
0110
0000
1001
0000
;

//---------------dance-single - ----------------
#NOTES:
     dance-single:
     :
     Hard:
     7:
     :
0000
0000
0000
0000
,
0000
0000
0000
0000
,
0000
0000
0000
0000
,
0000
0000
0000
0000
,
0000
0000
0000
0000
,
1000
0000
1000
0000
,
0001
0000
0100
0000
,
0100
0000
0000
0000
,
0000
0000
0000
0000
,
0001
0000
0001
0000
,
0100
0000
0100
0000
,
0010
0000
0000
0000
,
0000
0000
0000
0000
,
0001
0000
0001
0000
,
1000
0000
1000
0000
,
0100
0000
0000
0000
,
1000
0001
0000
0001
1000
0000
0000
0000
,
0010
0100
1000
0010
1000
0100
1000
0010
,
0100
0001
0100
0010
0100
0001
0100
0010
,
1000
0100
0010
0001
0010
1000
0010
0001
,
0100
1000
0100
0001
1000
0001
1000
0000
,
0010
0100
0001
0010
0001
0100
0001
0010
,
0100
1000
0100
0010
0100
1000
0100
0010
,
0001
0100
0010
1000
0010
0001
0010
1000
,
0100
0001
0100
1000
0001
1000
0001
0000
,
2000
0010
0100
0010
,
0100
0010
0001
3100
,
0020
0001
0100
0001
,
0100
0001
1000
0130
,
0002
0010
0100
0010
,
0100
0010
1000
0103
,
0020
1000
0100
1000
,
0100
1000
0001
0130
,
1000
0000
0000
0000
,
0001
0000
0000
0000
,
1000
0000
1000
0000
,
0001
0000
0001
0000
,
1000
0001
1000
0001
,
0010
0100
0010
0100
,
1000
0100
1000
0010
0100
0001
0010
0001
,
0100
0010
0000
1000
0100
0000
0000
0000
,
0100
0010
1000
0100
1000
0010
1000
0100
,
0010
0001
0010
0100
0010
0001
0010
0100
,
1000
0010
0100
0001
0100
1000
0100
0001
,
0010
1000
0010
0001
1000
0001
1000
0000
,
0100
0010
0001
0100
0001
0010
0001
0100
,
0010
1000
0010
0100
0010
1000
0010
0100
,
0001
0010
0100
1000
0100
0001
0100
1000
,
0010
0001
0010
1000
0001
1000
0001
0000
,
2000
0100
0010
0100
,
0010
0100
0001
3010
,
0200
0001
0010
0001
,
0010
0001
1000
0310
,
0002
0100
0010
0100
,
0010
0100
1000
0013
,
0200
1000
0010
1300
,
0110
0110
1001
0000
;
