#TITLE:HOTTEST PARTY 2;
#ARTIST:Various Artists;
#BANNER:HOTTEST PARTY 2.png;
#BACKGROUND:HOTTEST PARTY 2-bg.png;
#CDTITLE:./CDTITLES/DanceDanceRevolution HOTTEST PARTY 3.png;
#MUSIC:HOTTEST PARTY 2.ogg;
#SAMPLESTART:2.534;
#SAMPLELENGTH:15;
#DISPLAYBPM:100:192;
#BPMS:0=135,72=140,151=107.7,152=102,153=100,185=170,249=169.78,314=157,381=128,437=143.55,442.5=143.76,500.5=175,569=192;

//---------------dance-single - ----------------
#NOTES:
     dance-single:
     :
     Beginner:
     4:
     :
0000
0000
0000
0000
,
0000
0000
0000
0000
,
0001
0000
0001
0000
,
1000
0000
1000
0000
,
1000
0000
0100
0000
,
0010
0000
0000
0000
,
0001
0000
0001
0000
,
1000
0000
1000
0000
,
0100
0000
0000
0000
,
0000
1000
0001
0001
,
1000
0000
1000
0000
,
0001
0000
0001
0000
,
0001
0000
0100
0000
,
0010
0000
0000
0000
,
1000
0000
1000
0000
,
0001
0000
0001
0000
,
0010
0000
1000
0000
,
0010
0000
0001
0000
,
1000
0000
1000
0000
,
0001
0000
0001
0000
,
1000
1000
1000
0000
,
0001
0001
0001
0000
,
1000
0000
1000
0000
,
0001
0000
0001
0000
,
1000
1000
1000
0000
,
0001
0001
0001
0000
,
0000
1000
0000
0001
,
0000
1000
0000
0001
,
0001
0001
0001
0000
,
1000
1000
1000
0000
,
1000
0000
0001
0000
,
1000
0000
0001
0000
,
1000
0000
0001
0000
,
0000
0010
0000
0010
,
0010
0000
0000
0000
,
0001
0000
0000
0000
,
0100
0000
0000
0000
,
1000
0000
0000
0010
,
0000
0000
0001
0001
,
0000
0200
0000
0300
,
0000
0000
1000
1000
,
0000
0020
0000
0030
,
0000
0100
0000
0000
,
0000
0010
0000
0000
,
0000
0001
0001
1000
,
1000
0000
0000
0000
,
0000
0000
0000
1000
,
1000
0000
0000
0001
,
0001
0000
0000
0010
,
0010
0000
0000
1000
,
1000
0000
0000
0001
,
0001
2000
0000
0000
,
0000
0000
0000
0000
,
0000
0000
0000
0000
,
3000
0000
0000
1000
,
1000
0000
0000
0001
,
0001
0000
0000
0100
,
0100
0000
0000
0010
,
0010
0000
0000
0000
,
0000
0000
0010
0000
,
0010
0000
0010
0000
,
0010
0010
0010
0010
,
0010
2000
0000
0000
,
3000
0000
0000
0000
,
0000
0002
0000
0000
,
0003
0000
0000
0000
,
0000
2000
0000
0000
,
3000
0000
0000
0000
,
0000
0002
0000
0000
,
0003
0000
2000
0000
,
0000
0002
0000
0000
,
3003
0000
0000
0000
,
0000
0020
0000
0000
,
0030
0000
0000
0000
,
0000
0200
0000
0000
,
0300
0000
0000
0000
,
0000
0020
0000
0000
,
0000
0000
0030
0000
,
0000
1001
0000
0000
,
0000
0000
0000
1000
,
0000
0000
0000
0001
,
0000
0100
0000
0000
,
0000
1000
0000
0000
,
0000
0000
0000
0001
,
0000
0000
0000
1000
,
0000
0010
0000
0000
,
0000
0001
0000
0000
,
0000
0000
0000
1000
,
0000
0000
0000
0001
,
0000
0100
0000
0000
,
0000
1000
0000
0000
,
0000
0000
0000
1000
,
0000
0000
0000
0001
,
0000
0100
0000
0000
,
0000
1000
0000
0000
,
0000
1000
0001
0001
,
0001
0000
0000
0000
,
0000
1000
0001
0000
,
0000
1000
0001
0000
,
0000
1000
0001
1000
,
0001
1000
0001
1000
,
0000
0000
0000
0001
,
0000
0000
0000
1000
,
0000
0010
0000
0000
,
0000
0100
0000
0000
,
0000
0000
0000
1000
,
0000
0000
0000
0001
,
0000
0010
0000
0000
,
0000
0100
0000
0000
,
0000
1001
0000
0000
,
0000
1001
0000
0000
,
0000
1000
0000
1000
,
0000
0001
0000
0001
,
0000
1000
1000
0001
,
0000
1000
0000
0000
,
0000
1000
0000
1000
,
0000
0001
0000
0001
,
0000
1000
1000
0001
,
0000
1000
0000
0000
,
0000
1000
1000
1000
,
1000
0001
0000
0000
,
0000
0001
0000
1000
,
0000
0001
0000
1000
,
0000
0001
0001
0001
,
0001
1000
0000
0000
,
0000
0000
0000
0000
,
0000
1001
0000
0000
,
0000
0010
0000
1000
,
1000
1000
0000
0000
,
0000
0001
0000
0100
,
0100
0100
0000
0000
,
0000
1000
0000
0010
,
0010
0010
0000
0000
,
0000
0110
0000
0000
,
0000
1001
0000
0000
,
0000
0010
0000
0001
,
0001
0001
0000
0000
,
0000
1000
0000
0100
,
0100
0100
0000
0000
,
0000
0001
0000
0010
,
0010
0010
0000
0000
,
0000
0110
0000
0000
,
0000
2002
0000
3003
,
0000
0001
0001
0001
,
0000
1000
1000
1000
,
0000
0001
0001
1000
,
1000
0001
1000
0001
,
0000
1000
1000
0001
,
0000
0001
0001
1000
,
0000
0001
0000
1000
,
0000
2002
0000
3003
,
0000
0001
0001
1000
,
0000
1000
1000
0001
,
0000
0001
0001
1000
,
1000
0001
1000
0001
,
0000
1000
1000
0001
,
0000
0001
0001
1000
,
0000
1000
1000
0001
,
0001
1000
0001
1000
,
1001
0001
0001
0001
,
0001
1000
1000
1000
,
1000
0001
0001
1000
,
1000
0001
1000
0001
,
1000
0001
0001
1000
,
0000
1000
1000
0001
,
0000
0001
0001
1000
,
1000
0001
1000
0001
,
2002
0000
0000
0000
,
3003
0000
0000
0000
;

//---------------dance-single - ----------------
#NOTES:
     dance-single:
     :
     Easy:
     8:
     :
0000
0000
0000
0000
,
0000
0000
0000
0000
,
1000
0000
0000
1000
,
0100
0000
0000
0100
,
0001
0000
0000
0001
,
0010
0000
0000
0010
,
1000
0000
1000
0000
,
0001
0000
0001
0000
,
0100
0000
0000
0001
,
0001
0000
0100
0100
,
0001
0000
0001
0001
,
0010
0000
0010
0010
,
1000
0000
1000
1000
,
0100
0000
0100
0100
,
0001
0000
0001
0000
,
1000
0000
1000
0000
,
0010
0000
0000
0000
,
0100
0010
1000
0001
,
1000
0010
1000
0000
,
1000
0010
0100
0001
,
1000
0100
0000
0100
,
1000
0100
0001
0100
,
0001
0010
0001
0000
,
0001
0010
0100
1001
,
0001
0100
0000
0100
,
0001
0100
1000
0100
,
0000
0010
0000
0100
,
0000
0010
0000
0001
,
0000
0100
0000
0100
,
0000
0100
0000
0100
,
0010
0001
0010
1000
,
0010
0001
0010
1000
,
0010
0001
0010
1000
,
0110
0000
1001
0000
,
1000
1000
0001
0001
,
1000
0001
1000
0001
,
0100
1000
0100
0001
,
0100
1000
0100
0001
,
0000
0000
0100
0000
,
0010
2000
0000
3000
,
0000
0000
0010
0000
,
0001
0020
0000
0030
,
0000
0200
0000
0300
,
0000
0020
0000
0030
,
0000
0010
0100
0001
,
1000
0002
0000
0000
,
0003
0000
0000
1000
,
0100
0100
0000
0001
,
0100
0100
0000
0010
,
0100
0000
0000
0001
,
0100
0100
0000
1000
,
0100
0100
0000
0010
,
0100
0002
0000
0000
,
0203
0000
0000
0000
,
0300
0000
0000
1000
,
0010
0010
0000
0001
,
0010
0010
0000
0100
,
0010
0000
0000
0001
,
0010
1001
0000
0000
,
0000
0000
0010
0000
,
0010
0001
0000
1000
,
0000
0001
0001
1000
,
1000
2000
0000
0000
,
3000
0001
0000
0100
,
1000
0002
0000
0000
,
0003
1000
0000
0010
,
0001
2000
0000
0000
,
3000
0001
0000
0010
,
1000
0002
0000
0003
,
0000
2000
0000
0000
,
0010
0002
0000
0000
,
3003
1000
0100
1000
,
0001
0020
0000
0000
,
0030
0001
0100
0001
,
1000
0200
0000
0000
,
0300
1000
0001
1000
,
0001
0200
0000
0000
,
0000
0000
0300
0000
,
0000
1000
0001
0100
,
0000
0001
0010
0001
,
0000
1000
0001
1000
,
0000
0010
0000
1000
,
0000
0010
0000
0001
,
0000
0001
0100
0001
,
0000
1000
0010
1000
,
0000
0001
0000
0100
,
0010
1000
0100
0010
,
0000
0002
0000
0003
,
0000
2000
0000
3000
,
0000
0010
0000
1000
,
0000
0010
0000
0001
,
0000
0001
0100
0001
,
0000
1000
0010
1000
,
0000
0001
0000
0100
,
0010
1000
0100
0010
,
0000
0000
0100
0100
,
0100
0000
0000
0000
,
0000
0100
0100
0000
,
0000
0100
0100
0000
,
0000
1000
1000
0100
,
0100
0001
0001
0100
,
0000
1000
0100
1000
,
0000
0010
0000
0001
,
0000
1000
0000
0010
,
0000
1001
0000
0000
,
0000
0001
0010
0001
,
0000
0100
0000
1000
,
0000
0001
0000
0100
,
0000
1001
0000
0000
,
0000
0220
0000
0330
,
0000
2002
0000
3003
,
0000
1000
0000
0010
,
0000
0001
0000
0100
,
0000
1000
0100
1000
,
0000
1000
0010
1000
,
0000
0001
0000
0010
,
0000
1000
0000
0100
,
0000
0001
0100
0001
,
0000
0001
0010
0001
,
0000
1000
1000
1000
,
1000
0002
0003
2000
,
3000
0001
0010
0010
,
0001
1000
0000
0100
,
0000
0001
0001
0001
,
0001
2000
3000
0000
,
0000
0000
0000
0000
,
0000
2000
0000
3000
,
0000
0100
0010
0100
,
0100
2000
0000
3000
,
0000
1000
0001
1000
,
1000
0200
0000
0300
,
0000
0001
0010
0001
,
0010
0002
0000
0003
,
0000
0110
0000
1000
,
0001
0002
0000
0003
,
0000
0100
0010
0100
,
0100
0002
0000
0003
,
0000
0001
1000
0001
,
0001
0200
0000
0300
,
0000
1000
0010
1000
,
0010
2000
0000
3000
,
0000
0110
0000
0000
,
0000
0000
1001
0000
0000
0110
0000
0000
,
0000
0000
0100
0000
0010
0000
0001
0100
,
1000
0100
0100
0001
,
0001
1000
0010
0001
,
0010
0000
0100
0000
0010
0000
0001
1000
,
0100
0010
0001
0100
,
0001
0010
1000
0100
,
1000
0001
0001
1000
,
1000
0120
0000
1000
,
1030
0001
0101
1000
,
1100
0110
1001
0110
,
1001
0100
0001
0100
,
1000
0000
0100
0010
1000
0000
0010
0000
,
0001
0110
1001
0010
,
0100
0010
0001
0010
,
1000
0010
1001
0010
,
1001
0000
1000
0001
0010
0000
1000
0000
,
0110
0000
0001
0010
,
1000
0200
0001
0000
,
0301
0000
1000
0010
,
0001
0200
1000
0000
,
1300
0010
0001
0100
,
1000
0010
0001
0100
,
1000
0010
0101
0010
,
1100
0000
0001
1000
0100
0000
0010
0000
,
2002
0000
0000
0000
,
3003
0000
0000
0000
;

//---------------dance-single - ----------------
#NOTES:
     dance-single:
     :
     Medium:
     12:
     :
0000
0000
0000
0000
,
0000
0000
0000
0000
,
1000
0010
1000
0000
0010
1000
1100
0000
,
0001
0100
0001
0000
0100
0001
0011
0000
,
1000
0000
0001
0010
0001
0000
0100
0000
,
0100
0010
0100
0010
0100
1000
0100
0000
,
1000
0010
1000
0000
0010
0100
1100
0000
,
0001
0100
0001
0000
0100
0010
0011
0000
,
0200
0010
1000
0301
,
1000
0001
0100
0100
,
0001
0100
0001
1000
0100
0010
0011
0000
,
1000
0010
1000
0001
0010
0100
1100
0000
,
0001
0000
1000
0100
1000
0000
0110
0000
,
0010
0100
0010
0100
0010
0001
0010
0000
,
0001
0100
0001
1000
0100
0010
0011
0000
,
1000
0010
1000
0001
0010
0100
1100
0000
,
0020
0100
0001
1030
,
0001
1000
0010
0100
,
1000
0000
0010
0000
1000
0001
0100
0000
,
1010
0110
0101
1001
,
1000
0100
0001
0100
,
1000
0000
0001
0100
1000
0000
0100
0000
,
0001
0000
0010
0000
0001
1000
0100
0000
,
0011
0110
1100
1001
,
0001
0100
1000
0100
,
0001
0000
1000
0100
0001
0000
0100
0000
,
0000
1000
0000
0010
0000
1000
0000
0001
,
0000
1010
0000
0110
0000
0101
0000
1001
,
0000
1000
0000
0100
0000
0001
0000
0100
,
0000
1000
0000
0001
0000
1000
0000
0100
,
0010
0000
0001
0000
0010
0000
1000
0010
,
0010
0000
0001
0000
0010
0000
1000
0010
,
0010
0000
0001
0000
0010
0000
1000
0010
,
0010
1001
0110
1001
,
1000
0000
0101
0000
0001
0000
0100
0001
,
0010
0100
1100
0001
,
1000
1100
0100
0001
,
0001
1000
0110
1001
,
0000
1000
0100
0010
,
0010
0100
2000
0000
0010
0000
3010
0000
,
0000
1000
0010
0100
,
0001
0020
0200
0000
,
0330
0002
0000
1003
,
1000
0020
1000
0030
,
0100
0000
0010
0100
1000
0000
0100
0000
,
1010
0200
0000
0010
,
0310
0000
0001
0000
1000
0000
0001
0010
,
1000
0000
0001
0000
0100
0010
0000
1000
,
0010
0000
1000
0010
1000
0000
0001
0100
,
0001
0000
1000
0010
1000
0000
0001
0100
,
0001
0000
1000
0000
0001
0000
1000
0100
,
0001
1000
0000
1000
0010
0000
0100
0010
,
0000
0010
0002
0000
0000
2000
0000
3003
,
0200
0000
0000
0000
,
0300
0000
1000
0000
0001
0000
1000
0010
,
0001
0000
1000
0000
0100
0010
0000
0001
,
0010
0000
0001
0010
0001
0000
1000
0100
,
1000
0000
0001
0010
0001
0000
1000
0100
,
1000
1001
0000
0000
,
0000
0000
0010
0100
,
0010
0001
0100
0010
,
1000
0000
0001
0010
0001
1000
0100
1000
,
0001
0002
1000
1003
,
0001
0100
0010
0000
0010
1000
0100
0000
,
0100
0010
2000
0000
0001
0000
3001
0000
,
1000
0010
0100
0000
0100
0001
0010
0000
,
0010
0100
0002
0000
1000
0000
1003
0000
,
0001
0100
0010
0000
0010
1000
0100
0000
,
0100
0010
2000
0000
0000
0000
3000
0000
,
0000
0002
0000
0003
,
0100
2000
0000
3000
,
1000
0100
0001
0100
1000
0000
0001
0010
,
0001
0200
0000
0300
,
0001
0100
1000
0100
0001
0000
1000
0010
,
1000
0200
0000
0300
,
0001
0010
1000
0010
0001
0000
1000
0100
,
1000
0020
0000
0000
,
0000
0000
0030
0000
,
0000
0011
1010
0011
,
1010
0000
0100
0001
1001
0000
1000
0000
,
1100
0000
0100
0001
0101
0000
0001
0000
,
0011
1100
0010
1000
,
0101
0000
0010
0100
0010
0000
1001
0000
,
0000
0000
0010
1000
1001
0000
0001
0000
,
0011
0000
0010
1000
1010
0000
1000
0000
,
1100
0000
1000
0100
0010
0000
0001
0010
,
0100
1000
0001
0000
0010
0000
0100
0000
,
0000
0210
0000
1000
,
0301
0120
0000
0001
,
1030
1100
0010
1000
,
0101
0000
0010
0100
0010
0000
1001
0000
,
0000
0000
0100
1000
1010
0000
0001
0000
,
0011
0000
0100
1000
1001
0000
1000
0000
,
1010
0000
0100
0000
0010
0000
0001
0010
,
0100
1000
0001
0000
0010
0000
1000
0000
,
0001
1000
0010
0010
,
0010
0000
0000
0000
,
0000
0100
1010
0000
,
0000
0100
0011
0000
,
0000
1010
0100
1010
,
0100
0011
0100
0011
,
0000
0001
0100
0010
,
0100
1000
0010
1000
,
0001
1000
0001
0000
0000
0000
0010
0000
,
0100
1001
0000
0100
,
0010
0100
1000
0000
0100
0000
0010
0000
,
0100
0001
0010
0001
,
1000
0001
1000
0000
0001
0000
0010
0000
,
0100
1001
0010
0100
,
0010
0000
0000
0000
1010
0000
0000
1010
0000
0000
1010
0000
0000
0000
0000
0000
,
0000
0000
0000
0000
1001
0000
0000
1001
0000
0000
1001
0000
0000
0000
0000
0000
,
0000
1000
1010
0100
,
1100
0001
0011
0100
,
0101
1000
1001
1000
,
0110
0000
0000
0000
0010
0000
0001
0000
0010
0000
0000
0000
0100
0000
0000
0100
,
0000
0100
0001
0000
0011
0000
0100
0000
,
0101
1000
1010
0100
,
1100
0001
1001
0001
,
0110
0000
0000
0000
0010
0000
1000
0000
0010
0000
0000
0000
0100
0000
0000
0100
,
0000
0100
0001
0000
0001
0000
0001
0000
,
0001
0000
0001
0010
1000
0000
1000
0010
,
0001
0000
0001
0100
1000
0000
1000
0100
,
0001
0000
0001
1000
0010
0100
0001
1000
,
0100
1000
1000
1000
,
1000
0000
1000
0010
0001
0000
0000
0000
,
0000
0000
0000
0010
,
1100
0021
0000
0130
,
1000
0000
1000
0100
0010
0000
0001
0010
,
0001
2000
0000
3010
,
0100
0000
1000
0100
1000
0000
1000
0010
,
1000
0201
0000
0301
,
0010
0000
0001
0000
0010
0000
0001
0100
,
1000
0200
0300
1000
,
0001
0000
0110
0000
0000
1001
0000
0000
,
0101
1020
0000
0130
,
0001
0000
0001
0100
0010
0000
1000
0010
,
1000
0002
0000
0013
,
0100
0000
0001
0100
0001
0000
0001
0010
,
0001
1200
0000
1300
,
0010
0000
1000
0000
0010
0000
1000
0010
,
0001
0200
0300
0001
,
1000
1100
0000
0000
,
1001
0000
1001
0000
0100
0010
0000
0100
,
1000
0000
1010
0000
0101
0000
1000
0100
,
0001
0000
0010
0001
0010
0000
1000
0010
,
1000
0000
0001
0100
0100
0000
1000
0100
,
0100
0000
0010
0001
0100
1000
0100
0001
,
0010
0000
0101
0000
1100
0000
0010
0100
,
1000
0000
1010
0000
0011
0000
0010
0100
,
0001
0000
1000
0100
0001
0100
1000
0010
,
0001
0010
0200
0000
0000
0000
0001
0000
,
0301
1010
0101
1100
,
0011
1100
0101
1100
,
0101
0000
0010
1000
0100
0000
0010
0001
,
0100
0000
0010
0100
0001
0010
0100
1000
,
0010
0000
0101
0000
0011
0000
0100
1000
,
0010
0000
0100
0010
1000
0100
0100
0000
,
1001
0110
1001
0110
,
1001
0000
0001
1000
0100
0010
0001
0000
,
0110
0000
1000
0100
0010
0100
1000
0100
,
0000
0110
0000
1010
0000
1100
0000
0010
,
0100
0000
0001
0100
0010
0100
0001
0100
,
0000
0110
0000
0011
0000
0101
0000
0010
,
0100
0000
1000
0100
0001
0100
1000
0100
,
0001
0100
1000
0010
0001
0010
1000
0010
,
0001
0010
1000
0100
2000
0000
3001
0100
,
0002
0000
0013
0010
0100
0010
0100
0000
,
2002
0000
0000
0000
,
3003
0000
0000
0000
;

//---------------dance-single - ----------------
#NOTES:
     dance-single:
     :
     Hard:
     15:
     :
0000
0000
0000
0000
,
0000
0000
0000
0000
,
1100
0000
0010
0000
0001
0000
0010
0000
0000
0000
0100
0000
0000
1000
0100
0000
,
0010
0001
0010
1000
0010
0100
1000
0010
,
0011
0000
0001
0010
1000
0100
0010
0001
,
0010
0001
0100
1000
0000
1000
0100
0001
,
0101
0000
0100
0000
1000
0000
0100
0000
0000
0000
0010
0000
0000
0001
0010
0000
,
0100
1000
0100
0001
0000
0100
1000
0100
,
0010
0100
1000
0010
0100
0010
0001
0010
,
1000
0001
1000
0001
1000
0001
0100
0010
1000
0001
0000
0000
,
0011
0000
0100
0000
1000
0000
0100
0000
0000
0000
0010
0000
0000
0001
0010
0000
,
0100
1000
0100
0001
0100
0010
0001
0100
,
1100
0000
1000
0100
0011
0010
0100
1000
,
0100
1000
0010
0001
0000
0001
0010
1000
,
1010
0000
0010
0000
0001
0000
0010
0000
0000
0000
0100
0000
0000
1000
0100
0000
,
0010
0001
0010
1000
0000
0010
0001
0010
,
0100
0000
0001
0100
0010
0000
1000
0010
,
0011
0010
0100
0010
1100
0100
0010
0100
,
1000
0100
0001
0000
0100
0000
1100
0000
,
1000
0000
0001
0100
0001
0100
0001
0000
,
0101
0000
0100
0000
1000
0100
0001
0010
,
1000
0010
1000
0100
,
0001
0100
1000
0000
0100
0000
0101
0000
,
0001
0000
0010
0100
1000
0100
1000
0000
,
1100
0000
0100
0000
0001
0100
1000
0010
,
0001
0010
0001
0100
,
0000
1000
0100
1000
0000
0010
1000
0010
,
0000
0001
0010
0001
0000
0100
0001
0100
,
0000
0101
0000
0100
0000
1000
0100
0001
,
0010
1000
0000
0010
0000
1000
0000
0100
,
1000
0010
0100
0001
1000
0001
0100
0001
,
1000
0010
0100
0001
1000
0001
0100
0001
,
1000
0010
0100
0001
1000
0001
0100
0001
,
0011
1001
0110
1001
,
0010
0001
0100
0001
1000
0100
1100
0000
,
1001
0000
0010
0100
0001
0010
0100
1000
,
1100
0000
0100
0000
0001
0100
1000
0010
,
0001
0010
0001
0100
,
1000
0000
1000
1200
0000
0310
0002
0000
,
0013
0000
0100
0000
1000
0000
0100
0010
0001
0000
0010
0000
1000
0100
1000
0000
,
1100
0000
1000
1020
0000
0130
0002
0000
,
0103
0000
1000
0000
0010
0000
0100
1000
0010
0000
0100
0000
0010
0001
0100
0000
,
0110
0000
0001
1100
0000
0001
1000
0000
,
1000
0001
0010
0100
0000
0100
0010
0000
,
0100
0000
1000
0000
0010
0000
0100
0001
1000
0000
0010
0000
0100
0000
1000
0000
,
1010
0000
0000
0000
0100
0000
0010
0001
0010
0100
0010
1000
0010
0000
0000
0000
,
0101
0000
1000
1000
0100
0010
0010
0001
,
1000
0100
1000
0000
0010
0000
0000
0000
1000
0000
0100
0000
0000
0000
0001
0000
,
0100
0000
0001
0001
0010
0100
0100
1000
,
0001
0010
0001
0000
0100
0000
1000
0000
0100
0000
0010
0000
0010
0000
0001
0000
,
0000
0001
1000
1000
0100
0010
0010
0001
,
1000
0100
1000
0000
0010
0000
0000
0000
1000
0000
0100
0000
0000
0000
1000
0000
,
0100
0000
2000
0000
0000
0002
0000
3003
,
0200
0000
0000
0000
,
0300
0000
1000
0100
0100
0010
0001
0001
,
0100
0001
0100
0000
0001
0000
0010
0000
0010
0000
0100
0000
1000
0000
1000
0000
,
0001
0010
0001
0000
2000
0000
0000
0000
0000
0000
0002
0000
0000
0000
3003
0000
,
1001
0000
0000
0000
0000
0000
0000
0000
0100
0000
0100
0000
1000
0001
1000
0000
,
0000
1001
0000
0000
,
0000
0000
0000
0000
0100
0000
0100
0000
1000
0001
1000
0000
0001
0000
0100
0000
,
1000
1000
0010
0100
,
0001
0000
1000
0100
1000
0001
0010
0001
,
1000
0002
1000
0103
,
0001
0000
0100
0000
0020
0000
0030
0000
2000
0100
3000
0000
0200
0010
0300
0000
,
0020
0001
0030
0000
2100
0000
0000
0000
0001
0000
0000
0000
3010
0000
0000
0000
,
1000
0000
0100
0000
0020
0000
0030
0000
0002
0010
0003
0000
0020
0100
0030
0000
,
0200
1000
0300
0000
0012
0000
0000
0000
1000
0000
0000
0000
0103
0000
0000
0000
,
0001
0000
0100
0000
0020
0000
0030
0000
2000
0100
3000
0000
0200
0010
0300
0000
,
0020
0001
0030
0000
2000
0000
0000
0000
0000
0000
0000
0000
3000
0000
0000
0000
,
0000
0000
0002
0000
0000
0020
0003
0000
,
0230
2300
0000
3000
,
0001
0000
0010
0000
0200
1000
0300
0000
2000
0100
3000
0000
0200
0010
0300
0000
,
0020
0100
0030
0000
0200
1000
0000
0000
0000
0000
0000
0000
0300
0000
0000
0000
,
1000
0000
0100
0000
0020
0001
0030
0000
0002
0010
0003
0000
0020
0100
0030
0000
,
0200
0010
0300
0000
0020
0001
0000
0000
0000
0000
0000
0000
0030
0000
0000
0000
,
0100
0000
1000
0000
0002
0100
0003
0000
0200
0010
0300
0000
0020
1000
0030
0000
,
2000
0001
3000
0000
0200
0010
0000
0000
0000
0000
0000
0000
0000
0000
0000
0000
,
0000
0000
0300
0000
,
0000
1020
0001
0100
,
0130
0000
0010
1000
0100
0000
0001
0010
,
0100
0000
0010
1000
0100
0001
1000
0100
,
1100
0000
0011
0000
0010
0100
0001
0000
,
1100
0000
0110
0100
1000
0001
1001
1000
,
0010
0000
0010
0001
0100
0000
1000
0100
,
0010
0000
0010
0001
0110
0000
0001
1000
,
0101
0000
0001
0100
0010
1000
0001
0100
,
1000
0100
0001
0001
0010
0100
1000
0001
,
1000
2100
0000
3001
,
1000
0100
0002
0000
0000
0000
1003
0000
,
0001
0010
1100
0000
0100
0010
1000
0000
,
0011
0000
0110
0100
0001
1000
0001
0001
,
0010
0000
0100
1000
0010
0000
0001
0010
,
1000
0000
0100
1000
0110
0000
1000
0001
,
1010
0000
0001
1000
0100
0010
0101
0000
,
1010
1000
0001
0220
,
0330
0000
0000
0000
1000
0100
0000
0000
0001
0010
0000
0000
1000
0100
0000
0000
,
0001
0010
0000
0000
0000
0000
0000
0000
0000
0000
0000
0000
0000
0000
0000
0000
,
0000
0000
0000
0000
0001
0010
0000
0000
1000
0010
0000
0000
0000
0000
0000
0000
,
0000
0000
0000
0000
0001
0010
0000
0000
1000
0010
0000
0000
0000
0000
0000
0000
,
0000
0000
0000
0000
1000
0010
0000
0000
1000
0010
0000
0000
1000
0100
0000
0000
,
1000
0100
0000
0000
0001
0010
0000
0000
0001
0010
0000
0000
0001
0100
0000
0000
,
1001
0000
0000
0000
0010
0000
0000
0100
0010
0000
0000
0000
1000
0000
0000
0001
,
1000
0000
0000
0000
0100
0000
0000
0010
0100
0000
0000
0000
0001
0000
0000
0000
,
0001
1000
0001
0000
0010
0000
0000
0100
0010
0000
0000
0000
1000
0000
0000
0001
,
1000
0000
0000
0000
0100
0000
0000
0010
0100
0000
0000
0000
0001
0000
0000
0000
,
0001
1000
0001
0000
0100
0000
0000
0010
0100
0000
0000
0000
0001
0000
0000
1000
,
0001
0000
0000
0000
0010
0000
0000
0100
0010
0000
0000
0000
1000
0000
0000
0001
,
1000
0000
1000
0000
0100
0000
0000
0010
0100
0000
0000
0000
0001
0000
0000
1000
,
0001
0000
0000
0000
0010
0000
0000
0100
0010
0000
0000
0000
1000
0000
0000
0001
,
1000
0000
1000
0000
1010
0000
0000
1001
0000
0000
1001
0000
0000
0000
0000
0000
,
0000
0000
0000
0000
0110
0000
0000
1001
0000
0000
1001
0000
0000
0000
0000
0000
,
0000
0000
0000
0000
0100
0000
0000
0001
1000
0000
0100
0000
0010
0000
0000
0001
,
1000
0000
0010
0000
0100
0000
0000
0001
1000
0000
0100
0000
0001
0000
0000
1000
,
0001
0000
0010
0000
0100
0000
0000
1000
0100
0000
1000
0000
0001
0000
0000
1000
,
0100
0000
1000
0000
0010
0000
0000
1000
0001
0000
0010
0000
0100
0000
0000
0100
,
0000
0000
0100
1000
0100
0000
0000
1000
0001
0000
0100
0000
0010
0000
0000
1000
,
0001
0000
0010
0000
0100
0000
0000
1000
0001
0000
0100
0000
1000
0000
0000
0001
,
1000
0000
0010
0000
0100
0000
0000
0001
0100
0000
0001
0000
1000
0000
0000
0001
,
0100
0000
0001
0000
0010
0000
0000
0001
1000
0000
0010
0000
0100
0000
0000
0100
,
0000
0100
0010
0000
1100
0000
0010
0000
,
0101
0000
0000
0000
1000
0100
0010
0001
0010
0000
0000
0000
0001
0000
0000
0010
,
0001
0000
0000
0001
0100
0000
0000
0100
0001
0000
0000
0001
0100
0000
0000
0100
,
0010
0000
0000
0010
1000
0000
0000
1000
0010
0000
0000
0010
0100
0000
0000
0100
,
0010
0000
0000
0001
0100
0000
0000
0000
0011
0000
0000
0000
0110
0000
0000
0000
,
1010
0000
0000
0000
0001
0010
0100
1000
0100
0000
0000
0000
0000
0000
0000
0000
,
0000
0000
0000
1000
,
0011
0000
1001
0001
0010
0001
0100
0010
,
1000
0010
0200
0000
0301
0020
0000
0130
,
1000
0000
0011
0010
0001
0100
0010
0100
,
0010
1000
0002
0000
1003
0020
0000
1030
,
0100
0000
0101
0001
1000
0010
0100
0010
,
1000
0001
2000
0000
3100
0200
0000
0310
,
0001
0010
0001
0010
0100
0010
0001
0010
,
0100
1000
1100
0000
0001
0101
0000
0100
,
0010
0100
1001
1000
0010
1000
0100
0010
,
0001
0010
0200
0000
1300
0020
0000
0130
,
0001
0000
1010
0010
1000
0100
0010
0100
,
0010
0001
2000
0000
3001
0020
0000
0031
,
0100
0000
1100
1000
0001
0010
0100
0010
,
0001
1000
0002
0000
0103
0200
0000
0310
,
1000
0010
1000
0010
0100
0010
1000
0010
,
0100
0001
1001
0000
0000
0000
0000
0000
,
0110
0000
1001
1000
0100
0020
0000
0130
,
1000
0000
0011
0001
0101
0000
1010
1000
,
1100
0000
0000
0000
0010
0000
0001
0010
0002
0000
1003
0010
2000
0000
3001
0100
,
0002
0000
1003
0100
2000
0000
3100
0000
0110
0000
0000
0000
0001
0000
0100
0000
,
0110
0000
0010
1000
0100
0001
0100
1000
,
0010
0000
0000
0000
1100
0000
0000
0200
0001
0000
0000
0301
0100
0000
1000
0000
,
0010
0000
0000
0000
0011
0000
0000
0020
1000
0000
0000
1030
0010
0000
0001
0000
,
1000
0000
0001
0100
1000
0100
0001
0010
,
1000
0010
0210
0000
0000
0000
1000
1000
,
1300
0000
0000
0000
0011
0000
0000
0020
0100
0000
0000
0230
1000
0000
0000
2300
,
0010
0000
0000
3020
0100
0000
0000
0230
1000
0000
0000
2300
0100
0000
0000
3100
,
0001
0000
0010
0002
0100
0103
0010
2000
,
0100
3100
0010
0100
1000
0010
0100
0001
,
0011
0000
0000
0000
1100
0000
0000
2000
0010
0000
0000
3020
0100
0000
0000
0130
,
0001
0000
0010
0100
0010
0001
0100
0010
,
1001
0000
0000
0000
0010
0000
1000
0200
1000
0000
0000
0000
0310
0000
0001
0100
,
0002
0000
1003
0001
0100
0010
1001
0000
,
0110
0000
1001
0100
1000
0100
0002
0100
,
0103
0010
0100
0001
0010
0100
0010
1000
,
0110
0000
1001
0100
0001
0100
2000
0100
,
3100
0010
0100
1000
0010
0100
0010
0001
,
0110
0000
0000
0000
0010
0000
1000
0100
1000
0000
0001
0100
0001
0000
0010
0001
,
0010
0000
0100
1000
0100
0000
1000
0010
1000
0000
0100
0010
0100
0000
1000
0001
,
1000
0000
0001
0010
0001
0000
0100
0001
0200
0000
0000
0000
1300
0000
0100
1000
,
0200
0000
0000
0000
0310
0000
1000
0100
0010
0000
0001
0100
0010
0000
0000
0000
,
2002
0000
0000
0000
,
3003
0000
0000
0000
;
