#TITLE:All Good Things (Come to an End);
#ARTIST:Hamel & Naughty G.;
#BANNER:All Good Things (Come to an End).png;
#BACKGROUND:All Good Things (Come to an End)-bg.png;
#CDTITLE:./CDTITLES/DanceDanceRevolution HOTTEST PARTY 2.png;
#MUSIC:All Good Things (Come to an End).ogg;
#SAMPLESTART:25.96;
#SAMPLELENGTH:15;
#BPMS:0=120;

//---------------dance-single - ----------------
#NOTES:
     dance-single:
     :
     Beginner:
     1:
     :
0000
0000
0000
0000
,
0000
0000
0000
0000
,
0000
0000
0000
0000
,
0000
0000
0000
0000
,
0000
0000
0000
0000
,
1000
0000
0000
0000
,
0001
0000
0000
0000
,
1000
0000
0000
0000
,
0010
0010
0010
0000
,
0001
0000
0000
0000
,
1000
0000
0000
0000
,
0001
0000
0000
0000
,
0100
0100
0100
0100
,
0000
0000
0000
1001
,
0000
0000
0000
1001
,
0000
0000
0000
0100
,
0000
0000
0000
0010
,
0010
0000
0000
1001
,
0000
0000
0000
0100
,
0000
0000
0000
1001
,
0000
0000
0000
0010
,
0010
0000
0000
0010
,
0010
0000
0000
0010
,
0010
0000
0000
1001
,
0000
0000
0000
0100
,
0100
0000
0000
0100
,
0100
0000
0000
0100
,
0100
0000
0000
0001
,
1000
0000
0000
0100
,
0100
0000
0000
0000
,
0001
0000
0000
0000
,
0100
0000
0000
0000
,
1000
0000
0100
0000
,
0000
0000
0000
0000
,
1000
0000
0000
0000
,
0010
0000
0000
0000
,
0001
0000
0010
0000
,
0000
0000
0000
1001
,
0000
0000
0000
1001
,
0000
0000
0000
0010
,
0000
0000
0000
0100
,
0100
0000
0000
1001
,
0000
0000
0000
0010
,
0000
0000
0000
1001
,
0000
0000
0000
0010
,
0010
0000
0000
0010
,
0010
0000
0000
0010
,
0010
0000
0000
0000
,
1000
0001
0000
0100
,
0100
0000
0000
0000
;

//---------------dance-single - ----------------
#NOTES:
     dance-single:
     :
     Easy:
     3:
     :
0000
0000
0000
0000
,
0000
0000
0000
0000
,
0000
0000
0000
0000
,
0000
0000
0000
0000
,
0000
0000
0000
0000
,
0100
0000
0000
0000
,
0100
0000
0000
0000
,
0100
0000
0000
0000
,
0001
1000
0100
0000
,
0010
0000
0000
0000
,
0010
0000
0000
0000
,
0010
0000
0000
0000
,
1000
0001
0010
0100
,
0000
1000
0000
0110
,
0000
0010
0100
0110
,
0000
0001
0010
0110
,
0000
1000
0000
0001
,
0001
0001
0000
0110
,
0000
0010
0100
0110
,
0000
0001
0010
0110
,
0000
0001
0000
1000
,
1000
0001
0001
1000
,
1000
0001
0001
1000
,
1000
0000
0001
0010
,
0100
1000
0000
0001
,
0001
1000
1000
0001
,
0001
1000
1000
0001
,
0001
0000
1000
0100
,
0010
0001
1000
0100
,
0100
0000
0000
0000
,
1000
0000
0000
0001
,
0100
0000
0000
0110
,
0000
1001
0000
0001
,
0010
0000
0000
0000
,
0001
0000
0000
1000
,
0010
0000
0000
0110
,
0000
1001
0000
1000
,
0000
0001
0010
0110
,
0000
0100
0010
0110
,
0000
1000
0100
0110
,
0000
0001
0000
1000
,
1000
1000
0000
0110
,
0000
0010
0100
0110
,
0000
1000
0100
0110
,
0000
1000
0000
0001
,
0001
1000
1000
0001
,
0001
1000
1000
0001
,
0001
0000
1000
0100
,
0010
0001
1000
0100
,
0100
0000
0000
0000
;

//---------------dance-single - ----------------
#NOTES:
     dance-single:
     :
     Medium:
     4:
     :
0000
0000
0000
0000
,
0000
0000
0000
0000
,
0000
0000
0000
0000
,
0000
0000
0000
0000
,
0000
0000
0000
0000
,
1000
0000
0100
1000
,
0001
0000
0100
0010
,
1000
0001
0100
0010
,
2000
3002
0203
0300
,
0001
0000
0010
0001
,
1000
0000
0100
1000
,
0001
1000
0010
0100
,
0002
2003
3020
0130
,
0000
0001
0000
0110
,
0001
0000
0100
0001
,
0100
0001
0100
0010
,
0100
0000
0001
0000
0200
0000
0310
1000
,
0010
1000
0000
0110
,
1000
0000
0010
1000
,
0010
1000
0010
0100
,
0010
0000
1000
0000
0020
0000
0130
0001
,
0100
0001
1000
0001
0020
0000
0130
1000
,
0100
1000
0001
1000
0020
0000
0130
0001
,
0100
0001
0010
0100
,
0010
0000
0001
0000
0020
0000
0130
1000
,
0100
1000
0001
1000
0020
0000
0130
0001
,
0100
0001
1000
0001
0200
0000
0310
1000
,
0010
1000
0010
0100
,
0010
0000
1000
0000
0200
0000
0310
0001
,
0010
0000
0000
0001
0010
0000
0100
0000
,
0010
0000
0000
1000
0010
0000
0100
1000
,
0100
0000
0000
0100
0010
0000
1001
0000
,
0000
0101
1000
1000
,
0010
0000
0000
1000
0010
0000
0100
0000
,
0010
0000
0000
0001
0010
0000
0100
0001
,
0100
0000
0000
0100
0010
0000
1001
0000
,
0000
1010
0001
0001
,
0220
0000
0000
0330
,
0001
0000
0100
0001
,
0100
0001
0100
0010
,
0100
0000
0001
0000
0200
0000
0310
1000
,
0010
1000
0000
0110
,
1000
0000
0010
1000
,
0010
1000
0010
0100
,
0010
0000
1000
0000
0020
0000
0130
0001
,
0100
0001
1000
0001
0020
0000
0130
1000
,
0100
1000
0001
1000
0020
0000
0130
0001
,
0100
0001
0010
0100
,
0010
0000
0001
0000
0020
0000
0130
1000
,
0100
0000
0000
0000
;

//---------------dance-single - ----------------
#NOTES:
     dance-single:
     :
     Hard:
     6:
     :
0000
0000
0000
0000
,
0000
0000
0000
0000
,
0000
0000
0000
0000
,
0000
0000
0000
0000
,
0000
0000
0000
0000
,
0001
0010
0000
0001
0010
0000
0101
0000
,
0010
0000
1001
0001
1000
0001
0010
0000
,
0100
0000
1000
0001
0100
0000
0010
0000
,
2100
3000
0012
0003
0220
0330
0000
0000
,
1000
0100
0000
1000
0100
0000
1010
0000
,
0100
0000
1001
1000
0001
1000
0100
0000
,
0010
0000
0001
1000
0010
0000
0100
0000
,
0012
0003
1020
0030
2002
3003
0110
0000
,
0000
0000
1000
0100
0010
0000
0110
0000
,
1000
0000
1000
0100
0001
0000
0101
0000
,
1000
0000
1000
0010
0001
0000
1010
0000
,
0100
0000
0001
1000
0020
0000
0130
0001
,
0100
0010
1000
0010
1000
0000
0110
0000
,
0001
0000
0001
0010
0100
0000
1010
0000
,
0100
1010
0101
0010
,
0100
0000
0001
1000
0020
0000
0130
0001
,
0010
0000
0001
0000
1000
0001
0000
0001
0200
0000
0000
0000
0310
0000
1000
0000
,
0010
0000
1000
0000
0001
1000
0000
1000
0200
0000
0000
0000
0310
0000
1000
0000
,
0010
0101
1010
0100
,
0100
0000
0001
1000
0020
0000
0130
0001
,
0010
0000
0001
0000
1000
0001
0000
0001
0200
0000
0000
0000
0310
0000
1000
0000
,
0010
0000
1000
0000
0001
1000
0000
1000
0200
0000
0000
0000
0310
0000
1000
0000
,
0010
0101
1010
0100
,
0100
0000
0001
1000
0020
0000
0130
0001
,
1000
0100
0000
0100
0001
0000
0010
0100
,
1000
0010
0000
0010
0001
0000
0100
0010
,
0100
1000
0000
1000
0010
0000
1010
0000
,
0101
0000
0000
0000
1001
1001
1001
0000
,
0001
0100
0000
0100
1000
0000
0010
0100
,
0001
0010
0000
0010
1000
0000
0100
0010
,
0100
0001
0000
0001
0010
0000
0011
0000
,
1100
0000
0000
0000
1002
0003
2001
3000
,
0220
0000
0000
0330
,
0001
0000
0001
0010
1000
0000
1010
0000
,
0001
0000
0001
0100
1000
0000
0101
0000
,
0010
0000
1000
0001
0200
0000
0310
1000
,
0010
0100
0001
0100
0001
0000
0110
0000
,
1000
0000
1000
0100
0010
0000
0101
0000
,
0010
0101
1010
0100
,
0010
0000
1000
0001
0200
0000
0310
1000
,
0100
0000
1000
0000
0001
1000
0000
1000
0020
0000
0000
0000
0130
0000
0001
0000
,
0100
0000
0001
0000
1000
0001
0000
0001
0020
0000
0000
0000
0130
0000
0001
0000
,
0100
1010
0101
0010
,
0010
0000
1000
0001
0200
0000
0310
1000
,
0100
0000
0000
0000
;
