#TITLE:We Will Live Together;
#ARTIST:Happy CoreMAN;
#BANNER:We Will Live Together.png;
#BACKGROUND:We Will Live Together-bg.png;
#CDTITLE:./CDTitles/DDR HOTTEST PARTY.png;
#MUSIC:We Will Live Together.ogg;
#SAMPLESTART:56.232;
#SAMPLELENGTH:15;
#BPMS:0=175;

//---------------dance-single - ----------------
#NOTES:
     dance-single:
     :
     Beginner:
     2:
     :
0000
0000
0000
0000
,
0000
0000
0000
0000
,
0000
0000
0000
0000
,
0000
0000
0000
0000
,
0000
0000
0000
0000
,
0000
0000
0000
0000
,
0100
0000
0000
0000
,
0100
0000
0000
0000
,
1000
0000
0000
0000
,
0010
0000
0000
0000
,
1000
0000
0001
0000
,
0000
0000
0000
0000
,
0010
0000
0000
0000
,
0100
0000
0000
0000
,
0100
0000
0010
0000
,
0000
0000
0000
0000
,
1000
0000
0000
0000
,
0010
0000
0000
0000
,
1000
0000
0001
0000
,
0000
0000
0000
0000
,
0010
0000
0000
0000
,
0100
0000
0000
0000
,
1000
0000
1000
0000
,
0001
0000
0001
0000
,
0010
0000
0000
0000
,
1000
0000
0000
0000
,
0010
0000
0000
0000
,
0001
0000
0000
0000
,
0010
0000
0000
0000
,
0100
0000
0000
1000
,
1000
0000
0000
0001
,
0001
0000
0000
0000
,
0010
0000
0000
0000
,
1000
0000
0000
0000
,
0010
0000
0000
0000
,
0001
0000
0000
0000
,
0010
0000
0010
0000
,
0100
0000
0100
0000
,
0001
0000
1000
0000
,
0010
0000
0000
0000
,
0000
0010
0000
0010
,
0010
0000
0000
0000
,
0100
0000
0000
0000
,
0010
0000
0000
0000
,
0002
0003
0000
0000
,
0010
0000
0000
0000
,
0100
0000
0000
0000
,
0010
0000
0000
0000
,
0002
0003
0000
0000
,
0001
0000
0000
0000
,
1000
0000
0000
0000
,
0001
0000
0000
0000
,
2000
3000
0000
0000
,
0001
0000
0000
0000
,
1000
0000
0000
0000
,
0001
0000
0000
0000
,
2000
3000
0000
0000
,
0010
0000
0000
0000
,
1000
0000
0000
0000
,
0001
0000
0000
0000
,
0100
0000
0001
0000
,
0001
0000
0000
0000
,
1000
0000
0000
0000
,
0001
0000
0000
0000
,
1000
0000
0000
0000
,
1001
0000
0000
0000
,
2000
0000
3000
0000
,
0200
0000
0300
0000
,
0020
0000
0030
0000
,
0002
0000
0003
0000
,
1000
0000
0000
0000
;

//---------------dance-single - ----------------
#NOTES:
     dance-single:
     :
     Easy:
     5:
     :
0000
0000
0000
0000
,
0000
0000
0000
0000
,
0000
0000
0000
0000
,
0000
0000
0000
0000
,
0000
0000
0000
0000
,
0000
0000
0000
0000
,
0100
0000
0000
0001
,
1000
0000
0000
1000
,
0001
0000
0000
0000
,
0010
0001
0010
0100
,
2000
3000
0002
0003
,
0000
0000
0000
0000
,
0020
0030
0200
0300
,
0002
0003
2000
3000
,
0002
0003
0020
0030
,
0000
0000
0000
0000
,
0001
0000
0000
0000
,
0010
0001
0010
0100
,
2000
3000
0002
0003
,
0000
0000
0000
0000
,
0020
0030
0200
0300
,
0002
0003
2000
3000
,
0020
0030
0200
0300
,
0010
0000
1000
0000
,
0020
0000
0000
0030
,
0001
0000
0000
0000
,
0020
0000
0000
0030
,
1000
0000
0000
0000
,
0020
0000
0000
0030
,
0100
0000
0000
0001
0000
0000
1000
0000
,
0001
0000
0000
1000
0000
0000
0100
0000
,
0002
0003
0000
0000
,
0020
0000
0000
0030
,
0001
0000
0000
0000
,
0020
0000
0000
0030
,
1000
0000
0000
0000
,
0010
0010
0001
1000
,
1000
1000
0001
0100
,
0100
0100
0001
0010
,
0020
0000
0030
0000
,
0000
0010
0000
1001
,
0000
0010
0000
1000
,
0000
0001
0000
0100
,
0000
0001
0000
0100
,
0020
0030
0000
0000
,
0000
0010
0000
1000
,
0000
0001
0000
0100
,
0000
0010
0000
0100
,
0200
0300
0000
0000
,
0000
0100
0000
0001
,
0000
1000
0000
0010
,
0000
1000
0000
0010
,
0200
0300
0000
0000
,
0000
0100
0000
0001
,
0000
1000
0000
0010
,
0000
0100
0000
0010
,
0020
0030
0000
0000
,
0000
0010
0000
1000
,
0000
0001
0000
0100
,
0000
0001
0000
0100
,
0020
0030
0200
0300
,
0001
0000
0000
1000
,
1000
0000
0000
0001
,
0001
0000
0000
1000
,
1000
0000
0010
0000
,
1002
0000
0000
0000
,
0023
0000
0000
0000
,
0230
0000
0000
0000
,
2300
0000
0000
0000
,
3002
0000
0000
1003
,
0010
0000
0000
0000
;

//---------------dance-single - ----------------
#NOTES:
     dance-single:
     :
     Medium:
     6:
     :
0000
0000
0000
0000
,
0000
0000
0000
0000
,
0000
0000
0000
0000
,
0000
0000
0000
0000
,
0000
0000
0000
0000
,
0000
0000
0000
0000
,
0100
1000
0100
1000
,
0001
0000
0000
2002
0000
3003
0000
0000
,
1000
0000
0000
1000
0000
0000
0010
0010
,
0010
0001
0010
0100
,
1000
0001
2000
3000
,
0000
0001
0001
0100
,
0001
0000
0010
0100
1000
0000
1000
0000
,
0001
0100
0110
0100
,
2002
3003
0220
0330
,
2000
0100
0001
3010
,
0001
0000
0000
0001
0000
0000
0100
0100
,
0100
1000
0100
0010
,
0001
1000
0002
0003
,
0000
1000
1000
0010
,
1000
0000
0100
0010
0001
0000
0001
0000
,
1000
0010
0110
0010
,
2200
3300
0022
0033
,
0202
0303
2020
3030
,
0100
1000
0100
0010
,
0002
0003
1000
0001
,
0100
1000
0100
0010
,
0002
0003
0000
0000
,
0010
0100
1000
0100
,
0001
0001
1000
1000
,
0011
0000
0110
0000
,
2200
0000
3300
0000
0000
0000
0100
0100
,
0010
0001
0010
0100
,
2000
3000
0001
1000
,
0010
0001
0010
0100
,
2000
3000
0000
0000
,
0010
0100
1001
0010
,
0100
0010
1001
0100
,
1001
0100
1001
0010
,
0220
0000
0000
0330
,
0000
0011
1100
1001
,
0000
0001
0010
0100
,
0100
1000
0100
0000
0010
0001
0010
0000
,
0001
0000
0010
0000
0010
0100
1000
0000
,
0020
0000
0030
0000
,
0000
0001
0010
0100
,
0100
1000
0100
0010
0001
0010
0001
0010
,
0001
0000
0001
0000
0010
0100
0010
0000
,
0200
0000
0300
0000
,
0000
1000
0100
0010
,
0010
0001
0010
0000
0100
1000
0100
0000
,
1000
0000
0100
0000
0100
0010
0001
0000
,
0200
0000
0300
0000
,
0000
1000
0100
0010
,
0010
0001
0010
0100
1000
0100
1000
0100
,
1000
0000
1000
0000
0100
0010
0100
0000
,
0020
0000
0030
0000
,
0000
0001
0100
1000
,
0100
0001
0100
0000
0010
1000
0010
0000
,
0001
0000
0010
0000
0100
1000
0100
0001
,
0200
0300
0020
0030
,
0011
0000
0010
1010
,
0010
0000
0101
0001
,
1100
0000
0100
0101
,
0100
0000
1010
1000
,
1001
0000
0001
0110
,
1000
0110
0001
0110
,
1000
0110
0001
0110
,
1000
0000
0011
0110
,
2200
0000
3300
0000
0001
1000
0001
0000
,
0220
0000
0330
0000
;

//---------------dance-single - ----------------
#NOTES:
     dance-single:
     :
     Hard:
     9:
     :
0000
0000
0000
0000
,
0000
0000
0000
0000
,
0000
0000
0000
0000
,
0000
0000
0000
0000
,
0000
0000
0000
0000
,
0000
0000
0000
0000
,
1100
0100
0010
0001
0100
1000
0001
0000
,
0001
0000
0010
2002
0000
3003
0000
0000
,
1000
0100
1000
0000
0001
0010
0001
0000
,
0020
0001
1030
0101
,
1000
0000
0010
0000
0001
0010
0100
0000
,
1010
0000
0001
0101
,
1000
0010
1000
0000
1000
0000
0101
0000
,
0001
0000
0010
0100
0010
0000
0001
0000
,
1000
0010
1001
0000
,
0100
1000
0100
0001
0100
0010
1100
0000
,
0001
0010
0001
0000
1000
0100
1000
0000
,
0200
1000
0301
1010
,
0001
0000
0010
0000
1000
0100
0010
0000
,
0101
0000
1000
1010
,
0001
0100
0001
0000
0001
0000
1010
0000
,
1000
0000
0100
0010
0100
0000
1000
0000
,
0001
0100
1001
0100
,
0010
0001
0010
1000
0010
0100
0011
0000
,
1000
0100
0000
0000
0100
0000
0000
0000
0100
0010
0000
0000
0010
0000
0000
0000
,
0001
0010
1100
0001
,
0001
0010
0000
0000
0010
0000
0000
0000
0010
0100
0000
0000
0100
0000
0000
0000
,
2000
0100
3010
0000
,
1000
0010
0000
0000
0010
0000
0000
0000
0010
0100
0000
0000
0100
0000
0000
0000
,
0001
0100
1010
0011
,
1000
1100
0010
0011
,
0102
0010
0103
0000
,
0001
0100
0000
0000
0001
0000
0000
0000
1000
0100
0000
0000
1000
0000
0000
0000
,
0100
0010
0100
0000
0001
0000
1000
0000
,
1000
0010
0000
0000
1000
0000
0000
0000
0001
0010
0000
0000
0001
0000
0000
0000
,
0010
0001
0010
0000
1010
0000
0101
0000
,
1100
0000
0000
0000
0100
0000
0000
0000
0100
0010
0000
0000
0010
0001
0000
0000
,
0011
0000
0000
0000
0010
0000
0000
0000
0010
0100
0000
0000
0100
1000
0000
0000
,
0110
0000
0000
0000
0010
0001
0000
0000
0100
1000
0000
0000
0010
0001
0000
0000
,
2002
0000
0000
3003
,
0000
0101
1100
0101
,
0010
0000
0001
0100
1000
0100
0001
0000
,
0001
0010
0000
0000
0010
0100
0000
0000
0100
1000
0000
0000
1000
0100
0000
0000
,
0100
0010
1000
0010
0001
0010
1000
0000
,
0020
0030
0110
0000
,
0010
0000
1000
0100
0001
0100
1000
0000
,
0001
0100
0000
0000
0100
1000
0000
0000
1000
0100
0000
0000
0100
0001
0000
0000
,
0010
0100
0011
1100
,
0202
0000
0303
0000
,
0100
0000
0001
0010
1000
0010
0001
0000
,
0001
0100
0000
0000
0100
0010
0000
0000
0010
1000
0000
0000
1000
0010
0000
0000
,
0010
0100
0001
0100
1000
0100
0001
0000
,
0200
0300
0110
0000
,
0100
0000
1000
0010
0001
0010
1000
0000
,
1000
0100
0000
0000
0100
0001
0000
0000
0001
0100
0000
0000
0100
1000
0000
0000
,
0100
0010
1100
0011
,
2020
0000
3030
0000
,
0100
1000
0001
0100
1000
0100
0001
0000
,
0001
0010
0000
0000
0010
0100
0000
0000
0100
1000
0000
0000
1000
0100
0000
0000
,
0100
1000
0100
0010
0100
0001
0100
1000
,
2100
3100
0012
0013
,
1000
1000
0100
0000
0001
0000
0100
1000
,
0100
0010
0001
0010
,
0001
0001
0010
0000
1000
0000
0010
0001
,
0010
0100
1000
1001
,
0001
1000
0100
1000
0010
1000
0001
1000
,
0100
0001
0100
0010
0100
1000
0100
0010
,
1000
0010
0001
0010
1000
0010
0001
1000
,
0000
0000
0001
0000
0000
0000
0000
0000
1000
0100
0000
0000
0010
0001
0000
0000
,
0022
0000
0000
0000
0000
0000
0033
0000
0001
0010
0000
0000
0100
1000
0000
0000
,
2200
0000
3300
0000
;
