#TITLE:The Sign;
#ARTIST:Honey Sweets;
#BANNER:The Sign.png;
#BACKGROUND:The Sign-bg.png;
#CDTITLE:./CDTITLES/Dance Dance Revolution HOTTEST PARTY.png;
#MUSIC:The Sign.ogg;
#SAMPLESTART:45.606;
#SAMPLELENGTH:15;
#DISPLAYBPM:100;
#BPMS:0=99.75,4=100;

//---------------dance-single - ----------------
#NOTES:
     dance-single:
     :
     Beginner:
     1:
     :
0000
0000
0000
0000
,
0000
0000
0000
0000
,
1000
0000
0000
0000
,
0001
0000
0000
0000
,
1000
0000
0000
0000
,
0010
0000
0000
0000
,
0100
0000
0000
0000
,
0010
0000
0000
0000
,
0100
0000
0100
0000
,
0100
0000
0000
0000
,
0001
0000
0001
0000
,
0001
0000
0000
0000
,
1000
0000
1000
0000
,
2000
0000
0000
3000
,
0000
0000
0000
0000
,
0010
0000
0010
0000
,
0010
0000
0010
0000
,
0100
0000
0100
0000
,
0100
0000
0100
0000
,
0001
0000
0001
0000
,
0001
0000
0001
0000
,
1000
0000
1000
0000
,
1000
0000
1000
0000
,
1001
0000
0001
0001
,
2000
0000
0000
3000
,
1000
1000
0000
0000
,
0002
0000
0000
0003
,
0001
0001
0000
0000
,
0100
0100
0100
0000
,
0010
0000
0100
0000
,
0010
0010
0010
0000
,
0100
0000
0010
0000
,
1000
1000
1000
0000
,
0001
0000
1000
0000
,
0100
0100
0100
0000
,
0010
0000
0100
0000
,
1000
1000
1000
0000
,
0001
0000
1000
0000
,
0010
0000
0010
0000
,
0100
0000
0100
0000
,
0110
0000
0000
0000
;

//---------------dance-single - ----------------
#NOTES:
     dance-single:
     :
     Easy:
     3:
     :
0000
0000
0000
0000
,
0000
0000
0000
0000
,
0001
0000
1000
0000
,
0001
0000
1000
0000
,
0010
0000
0100
0000
,
0010
1000
0001
0000
,
1000
1000
0001
0001
,
1000
1000
0100
0000
,
0010
0000
0010
0000
,
0001
0001
0100
0000
,
1000
0000
0100
0000
,
0010
1000
0001
0000
,
0001
1000
0100
0000
,
2002
0000
0000
3003
,
1001
1001
0000
0000
,
0010
1000
0100
0000
,
0100
0000
0010
0001
,
0100
0000
0010
0000
,
1000
0001
0100
0000
,
0100
0001
0010
0000
,
0010
0000
0100
1000
,
0010
0000
1000
1000
,
0001
0001
0100
0000
,
0110
0000
1001
0000
,
0010
1000
0100
0000
,
1000
0001
0001
0000
,
0001
1000
1000
0000
,
0001
0010
0100
0000
,
0010
0001
0100
0000
,
0100
0000
0010
1000
,
0100
0000
0010
0000
,
0001
1000
0100
0000
,
1000
0001
0100
0010
,
1000
0001
0100
0000
,
0001
1000
0010
0100
,
0001
1000
0010
0000
,
1000
0100
0010
0001
,
1000
0100
0010
0000
,
0001
0100
0010
1000
,
0001
0100
0010
0000
,
0110
0000
0000
0000
;

//---------------dance-single - ----------------
#NOTES:
     dance-single:
     :
     Medium:
     5:
     :
0000
0000
0000
0000
,
0000
0000
0000
0000
,
0010
1000
0001
1000
,
0100
0001
1000
0001
,
0010
0100
1000
0010
,
0110
0001
0110
1000
,
1100
1000
0101
0001
,
0001
0100
0001
0100
,
0010
1000
0010
1000
,
0100
0010
0100
0010
,
0100
0000
1000
0000
0001
0000
1000
0100
,
0001
0100
0001
0100
,
1000
0000
0100
0000
1000
0000
0100
1000
,
0010
0100
0010
0100
,
0002
0000
1003
1000
,
1001
0110
1001
1001
,
0001
0001
0100
0000
1000
1000
0100
0000
,
1001
0010
0100
0010
,
1000
1000
0010
0000
0001
0001
0010
0000
,
1001
0110
1001
1001
,
1000
1000
0100
0000
0001
0001
0100
0000
,
1001
0010
0100
0010
,
0001
0001
0010
0000
1000
1000
0010
0000
,
1010
1000
0101
0001
,
1001
0110
0110
0000
,
0110
1001
1001
1001
,
1001
0110
1001
1001
,
0220
0000
0000
0330
,
0001
0100
1000
0100
,
0001
0100
0001
0000
1000
0100
1000
0000
,
1001
0010
1000
0010
,
0001
0010
0001
0000
1000
0010
1000
0000
,
1020
0130
0020
0130
,
0002
1003
0002
1003
,
0020
0130
2000
3001
,
0020
0130
2000
3001
,
2000
3100
2000
3100
,
0002
0103
0002
0103
,
2000
3010
0002
0013
,
2000
3100
0002
0203
,
0310
0000
0000
0000
;

//---------------dance-single - ----------------
#NOTES:
     dance-single:
     :
     Hard:
     7:
     :
0000
0000
0000
0000
,
0000
0000
0000
0000
,
0010
1000
0100
1000
0010
0100
0001
0000
,
0011
0001
0100
0001
0010
0100
1000
0000
,
1001
1000
0100
0001
0100
1000
0010
0000
,
0100
0001
0100
0010
2000
0000
3002
0000
,
2003
0000
3020
0030
,
0110
0000
0100
0001
0100
1000
0000
0001
,
0010
1000
0010
0001
1000
0001
0100
1000
,
0010
0000
0100
0001
1000
0100
1000
0000
,
0001
0010
0100
1000
0010
0100
0001
1000
,
0001
0000
1001
0001
0100
0010
0100
0001
,
0100
0010
1000
0100
0001
0100
1000
0010
,
0100
0001
1000
0100
0020
0000
0100
0000
,
0001
0000
0000
0000
0130
0000
1000
0001
1000
0000
0010
0000
1000
0000
0100
0000
,
0010
0001
1000
0100
0010
0001
1000
0001
,
0100
0010
1000
0001
0100
0010
1000
0100
,
0010
0000
0001
0010
0100
1000
1100
0000
,
1000
0010
0100
0001
0101
0100
0101
0000
,
0010
1000
0001
0100
0010
1000
0001
1000
,
0100
0010
0001
1000
0100
0010
0001
0100
,
0010
0000
1000
0010
0100
0001
0101
0000
,
0001
0010
0100
1000
0100
1100
0100
1100
,
2000
3002
2003
3010
,
0001
0100
0011
0100
0001
0000
0110
0000
,
1000
0010
1100
0010
1000
0000
0110
0000
,
0001
0100
1001
0100
0001
0000
1001
0000
,
1000
0100
1001
0100
1000
0001
1001
0001
,
0100
1000
0001
0010
0100
1000
0001
1000
,
0010
0100
0001
1000
0010
0100
0001
0010
,
0100
0000
1000
0100
0010
0001
0011
0000
,
0001
0100
0010
1000
1010
0010
1010
1000
,
1010
0000
0000
0000
0010
0000
0000
0100
0010
0000
0000
0000
0110
0000
0000
0100
,
0001
0000
0000
0001
0100
0000
0000
0100
0001
0000
0000
0000
0011
0000
0000
0000
,
1100
0000
0000
0000
0010
0000
0000
0100
1000
0000
0000
0000
0010
0000
0000
1000
,
0010
0000
0000
0010
1000
0000
0000
1000
0001
0000
0000
0000
0110
0000
0000
0000
,
1001
0000
0000
0000
0010
0000
0000
0100
0001
0000
0000
0010
0100
0000
0000
1000
,
0010
0000
0000
0100
0001
0000
0000
1000
0100
0000
0010
0000
0100
0000
1000
0000
,
0001
0010
1000
0001
0100
0010
0001
1000
,
0001
0000
0010
0000
1000
0000
0100
0000
0010
0000
0001
0000
0100
0000
0010
0100
;
