#TITLE:Gonna Make You Sweat (Everybody Dance Now);
#ARTIST:RAVE ATTACKERS;
#BANNER:Gonna Make You Sweat (Everybody Dance Now).png;
#BACKGROUND:Gonna Make You Sweat (Everybody Dance Now)-bg.png;
#CDTITLE:./CDTITLES/Dance Dance Revolution HOTTEST PARTY.png;
#MUSIC:Gonna Make You Sweat (Everybody Dance Now).ogg;
#SAMPLESTART:7.925;
#SAMPLELENGTH:15;
#BPMS:0=150;
#STOPS:201.5=0.4,216.5=0.4;

//---------------dance-single - ----------------
#NOTES:
     dance-single:
     :
     Beginner:
     2:
     :
0000
0000
0000
0000
,
0000
0000
0000
0000
,
0000
0000
0000
0000
,
0000
0000
0000
0000
,
0000
0000
0000
0000
,
0000
0000
0000
0000
,
1000
0000
1000
0000
,
0001
0000
0001
0000
,
0100
0000
0100
0000
,
0020
0000
0000
0030
,
0010
0010
0000
0000
,
1000
1000
0000
0000
,
0001
0001
0000
0000
,
1001
0000
0000
0000
,
1000
0000
0001
0000
,
1000
0000
0010
0000
,
0100
0000
0010
0000
,
0100
0000
0100
0000
,
0001
0000
1000
0000
,
0001
0000
0010
0000
,
0100
0000
0010
0000
,
1000
0000
0001
0000
,
1000
0000
0001
0000
,
0010
0000
0010
0000
,
0001
0000
0001
0000
,
0100
0000
0100
0000
,
1000
0000
1000
0000
,
0010
0000
0010
0000
,
0100
0100
0100
0000
,
0010
0010
0010
0000
,
1000
0000
1000
0000
,
0001
0000
0001
0000
,
0010
0000
0000
0000
,
0100
0000
0000
0000
,
1000
0000
1000
0000
,
0010
0000
0010
0000
,
0001
0000
0001
0000
,
0100
0000
0100
0000
,
0001
0000
0010
0000
,
1000
0000
0100
0000
,
0001
0000
0010
0000
,
1001
0000
0000
0000
,
0010
0010
0010
0000
,
1000
1000
1000
0000
,
0100
0100
0100
0000
,
1001
0000
0000
0000
,
0010
0000
0010
0000
,
0001
0000
1000
0000
,
0001
0000
1000
0000
,
0100
0100
0100
0000
,
0100
0000
0000
0010
,
0000
0000
0000
0100
,
0000
0000
0000
1001
,
0000
0000
0000
0100
,
0000
0000
0010
0000
,
0000
0000
0100
0000
,
0000
0000
1001
0000
,
0100
0000
0100
0000
,
0100
0000
1001
0000
;

//---------------dance-single - ----------------
#NOTES:
     dance-single:
     :
     Easy:
     4:
     :
0000
0000
0000
0000
,
0000
0000
0000
0000
,
0000
0000
0000
0000
,
0000
0000
0000
0000
,
0000
0000
0000
0000
,
0000
0000
0000
0000
,
0010
1000
0100
0000
,
0010
0001
0100
0000
,
0010
1000
0100
0000
,
0010
0001
0100
0000
,
0001
1000
0100
0000
,
1000
0001
0100
0000
,
0010
0010
0010
0000
,
1001
0000
0000
0000
,
1000
0000
0010
0000
,
0001
0000
0010
0000
,
1000
0000
0010
0000
,
0001
0010
0100
1000
,
0001
0000
0100
0000
,
1000
0000
0100
0000
,
0001
0000
0100
0000
,
1000
0100
0010
0001
,
1000
0000
1000
0000
,
0001
0000
0001
0000
,
1000
0100
1000
0001
,
0010
0001
0100
0000
,
0001
0100
0001
1000
,
0010
1000
0100
0000
,
1000
1000
0001
0001
,
0010
0100
1000
0000
,
0001
0001
1000
1000
,
0010
0100
0001
0000
,
1001
0000
0000
0000
,
1001
0000
0000
0000
,
2000
0000
3001
0000
,
0002
0000
1003
0000
,
2000
0000
3100
0000
,
0002
0000
0103
0000
,
2000
0000
3000
0000
,
0002
0000
0003
0000
,
0020
0000
0030
0000
,
1001
0000
0000
0000
,
1000
0000
0100
0000
,
1000
0100
0010
0000
,
0001
0100
0010
0000
,
1001
0000
0000
0000
,
0001
0000
0100
0000
,
0001
0100
0010
0000
,
1000
0100
0010
0000
,
1001
0000
0000
0000
,
0100
0000
0010
0100
,
0000
0000
0001
1000
,
0000
0000
0010
1001
,
0000
0000
0000
0100
,
0000
0010
0100
0000
,
0000
0001
1000
0000
,
0000
0010
1001
0000
,
1000
0000
0100
0000
,
0001
0000
0110
0000
;

//---------------dance-single - ----------------
#NOTES:
     dance-single:
     :
     Medium:
     5:
     :
0000
0000
0000
0000
,
0000
0000
0000
0000
,
0000
0000
0000
0000
,
0000
0000
0000
0000
,
0000
0000
0000
0000
,
0000
0000
0000
0000
,
0010
0000
0000
0100
0000
0000
1000
0000
,
1000
0000
0000
0001
0000
0000
0010
0000
,
0010
0000
0000
0100
0000
0000
1000
0000
,
1000
0000
0000
0001
0000
0000
0010
0000
,
0010
0000
0000
0100
0000
0000
1000
0000
,
1000
0000
0000
0001
0000
0000
0010
0000
,
0010
0000
0000
0100
0000
0000
1000
0000
,
1000
0001
0110
1001
,
0100
0010
0001
0010
,
0100
0000
1000
0000
0010
0100
0001
0000
,
0100
0010
1000
0010
,
0100
0000
0001
0000
0010
0100
1000
0000
,
0010
0100
0001
0100
,
0010
0000
1000
0000
0100
0010
0001
0000
,
0010
0100
1000
0100
,
0010
0000
0001
0000
0100
0010
1000
0000
,
0200
0010
0000
0310
,
0002
1000
0000
1003
,
1010
0100
0001
0000
,
0011
0100
1000
0000
,
0101
0010
1000
0000
,
1100
0010
0001
0000
,
1001
0010
0100
0000
,
1100
0001
0010
0000
,
0101
1000
0010
0000
,
0110
1000
0001
1000
,
1100
0000
0000
1001
0000
0000
0000
0000
,
0101
0000
0000
1001
0000
0000
0000
0000
,
0100
0010
0100
0100
,
0010
0010
1000
0001
,
0100
0001
0100
0100
,
0010
0010
1000
0001
,
2000
0000
0000
3001
0000
0000
0000
0000
,
0002
0000
0000
1003
0000
0000
0000
0000
,
1001
0000
0000
1001
0000
0000
0000
0000
,
1000
0001
1000
0001
,
0010
0000
0000
0001
0000
0000
1000
0000
,
1000
0000
0000
0001
0000
0000
0010
0000
,
0010
0000
0000
0001
0000
0000
0100
0000
,
0100
0001
1100
0101
,
0010
0000
0000
1000
0000
0000
0001
0000
,
0001
0000
0000
0100
0000
0000
0010
0000
,
0010
0000
0000
1000
0000
0000
0001
0000
,
0001
1000
0001
1000
,
0100
0010
0100
0000
0110
0000
0001
1000
,
0001
0000
0000
0000
1001
0000
0100
0010
,
0100
0000
1001
0010
,
0100
0000
1000
0000
0001
0000
1000
0001
,
1000
0000
1100
0000
0010
0001
0100
0000
,
0000
0000
0101
0000
0010
1000
0100
0000
,
0000
1001
1000
0001
,
1100
0101
2002
0000
,
0000
3003
0110
0000
;

//---------------dance-single - ----------------
#NOTES:
     dance-single:
     :
     Hard:
     8:
     :
0000
0000
0000
0000
,
0000
0000
0000
0000
,
0000
0000
0000
0000
,
0000
0000
0000
0000
,
0000
0000
0000
0000
,
0000
0000
0000
0000
,
0001
0000
0100
0000
0001
0000
0010
0000
0000
0000
0100
0000
0000
1000
0000
0000
,
0010
0000
0100
0000
0010
0000
1000
0000
0000
0000
0100
0000
0000
0010
0000
0000
,
0001
0000
1000
0000
0001
0000
0100
0000
0000
0000
0010
0000
0000
1000
0000
0000
,
0100
0000
0010
0000
0100
0000
1000
0000
0000
0000
0001
0000
0000
0100
0000
0000
,
0010
0000
1000
0000
0001
0000
0010
0000
0000
0000
1100
0000
0000
0001
0000
0000
,
0100
0000
0010
0000
1000
0000
0100
0000
0000
0000
0011
0000
0000
0100
0000
0000
,
1000
0000
0010
0000
0100
0000
0001
0000
0000
0000
1010
0000
0000
0100
0000
0000
,
0001
1000
0001
1000
0002
0000
2000
3003
,
1001
0000
0001
0000
0010
1000
0100
0000
,
0010
0000
0100
0000
1000
0100
0010
0000
,
0001
0000
1000
0010
0100
0001
1000
0000
,
0001
0010
0001
1000
0100
0001
0100
0010
,
0001
1000
0010
0100
1000
0100
0001
0100
,
0010
1000
0100
1000
0001
0010
0100
1000
,
0001
0000
1000
0100
0010
0001
0100
0000
,
0001
0000
1000
0000
0001
0100
0010
0000
,
1000
0000
0001
0000
1000
0100
0010
0000
,
0001
1000
0001
0000
0010
0000
0100
0000
1000
0000
0010
0000
0100
0000
0001
0000
,
1000
0100
0010
0100
0000
1000
0100
0001
,
0100
0010
0001
0100
0000
0010
0001
0010
,
1000
0001
0010
1000
0000
0010
0001
0100
,
0001
1000
0100
1000
0000
0010
0100
0001
,
0010
0001
0100
1000
0000
0100
0001
1000
,
0100
0010
1000
0010
0000
0001
1000
0001
,
0100
0001
0010
0100
0000
1000
0010
0100
,
0001
1000
0100
0010
0000
0001
1000
0001
,
1001
0000
0000
0000
0000
0000
1100
0000
0000
0000
0011
0000
0000
0001
0000
0000
,
0101
0000
0000
0000
0000
0000
0110
0000
0000
0000
1010
0000
0000
1000
0000
0000
,
0001
0100
0000
0001
0000
0100
0000
0010
0000
0000
0010
0000
0000
1000
0000
0000
,
0001
0000
0000
1000
0000
0000
0001
0000
0100
0001
0000
1000
0000
0100
0000
0000
,
0010
0100
0000
1000
0000
0010
0000
0100
0000
0001
0000
0000
0100
0000
0000
0100
,
0000
0000
0100
0000
0000
0100
0000
0000
0001
1000
0000
0100
0000
0010
0000
0000
,
1001
0000
0010
0000
0100
0000
0110
0000
0000
0000
1000
0000
0000
0001
0000
0000
,
0110
0000
1000
0000
0001
0000
0110
0000
0000
0000
1000
0000
0000
0100
0000
0000
,
0011
0000
0010
0000
0100
0000
1100
0000
0000
0000
0001
0000
0000
0001
0000
0000
,
0100
0010
0100
0010
0200
0000
0310
0000
,
0010
1000
0001
1000
0010
1000
0100
1000
,
0001
1000
0100
1000
0010
1000
0100
1000
,
0002
0000
0000
0000
0000
0000
1003
0000
0000
0000
0100
0000
0000
0010
0000
0000
,
0001
0010
0001
0010
0002
0000
0013
0000
,
0010
0001
1000
0001
0010
0001
0100
0001
,
1000
0001
0100
0001
0010
0001
0100
0001
,
2000
0000
0000
0000
0000
0000
3001
0000
0000
0000
0010
0000
0000
0001
0000
0000
,
1000
0100
1000
0100
2000
0000
3100
0000
,
0001
0000
1000
0000
0001
0000
1000
0000
0000
0010
0001
0000
1000
0000
0001
0000
,
1000
0001
0000
0100
0101
0001
1000
0000
,
0000
0010
1000
0001
0010
0100
1000
0001
,
1000
0001
2000
0000
3001
0000
0010
0100
,
0010
0000
0001
0000
0000
0010
1000
0000
0001
0000
1000
0000
0100
0000
0010
0000
,
0000
0001
1001
1000
0100
0000
0000
0010
,
0001
1000
0001
0100
0001
1000
0001
1000
,
0002
1003
0220
0000
,
0000
0330
1001
0000
;
