#TITLE:Bigger Than Big (Original Vocal Mix);
#ARTIST:Super Mal feat. Luciana;
#BANNER:Bigger Than Big (Original Vocal Mix).png;
#BACKGROUND:Bigger Than Big (Original Vocal Mix)-bg.png;
#CDTITLE:./CDTITLES/DanceDanceRevolution Full-Full Party.png;
#MUSIC:Bigger Than Big (Original Vocal Mix).ogg;
#SAMPLESTART:30.815;
#SAMPLELENGTH:15;
#DISPLAYBPM:132;
#BPMS:0=132.29;

//---------------dance-single - ----------------
#NOTES:
     dance-single:
     :
     Beginner:
     1:
     :
0000
0000
0000
0000
,
0000
0000
0000
0000
,
0000
0000
0000
0000
,
0000
0000
0000
0000
,
0000
0000
0000
0000
,
1000
0000
0100
0000
,
1000
0000
0001
0000
,
0001
0000
0100
0000
,
0001
0001
0001
0000
,
1000
0000
0000
0000
,
0001
0000
0000
0000
,
0100
0000
0000
0000
,
0001
0000
1000
0000
,
0000
0000
1000
1000
,
0000
0001
0000
0001
,
0000
0000
1000
1000
,
1000
0000
0001
0000
,
1000
0000
0000
0000
,
0100
0000
0000
0000
,
0001
0000
0000
0000
,
0010
0000
0000
0000
,
1000
1000
0000
0000
,
1000
1000
0000
0000
,
0001
0001
0000
0000
,
0001
0001
0000
0000
,
1000
0000
0000
0000
,
0000
0000
0000
0000
,
0100
0000
0000
0000
,
0000
0000
0000
0000
,
0001
0000
0000
0000
,
0000
0000
0000
0000
,
0010
0000
0000
0000
,
0000
0000
0000
0000
,
1000
0000
1000
0000
,
0010
0000
0010
0000
,
0001
0000
0001
0000
,
1000
1000
1000
0000
,
0001
0000
0100
0000
,
0001
0000
1000
0000
,
1000
0000
0100
0000
,
1000
1000
1000
0000
,
0001
0000
0000
0000
,
1000
0000
0000
0000
,
0100
0000
0000
0000
,
1000
0000
0001
0000
,
0000
0000
0001
0001
,
0000
0000
1000
1000
,
0000
0000
0001
0001
,
0001
0000
1000
0000
;

//---------------dance-single - ----------------
#NOTES:
     dance-single:
     :
     Easy:
     4:
     :
0000
0000
0000
0000
,
0000
0000
0000
0000
,
0000
0000
0000
0000
,
0000
0000
0000
0000
,
0000
0000
0000
0000
,
1000
0100
0001
0100
,
1000
0100
0010
0100
,
1000
0100
0001
0100
,
1000
0100
0001
0100
,
1000
0001
1000
0100
,
0001
1000
0001
0100
,
0100
0010
0100
1000
,
0001
0000
1000
0000
,
1000
0000
1000
0100
,
0001
0100
0000
0100
,
0001
0000
0001
0100
,
1000
0100
0010
0001
,
1000
0000
1000
0000
,
0001
0000
0100
0000
,
1000
0000
0001
0000
,
0001
0000
0010
0000
,
1000
1000
0100
0000
,
1000
1000
0100
0000
,
0001
0001
0100
0100
,
0001
0001
0100
0010
,
1000
0000
0000
0001
,
0001
0000
0000
0010
,
0010
0000
0000
1000
,
1000
0000
0001
0000
,
0001
0000
0000
1000
,
1000
0000
0000
0100
,
0100
0000
0000
0001
,
0001
0000
1000
0000
,
1000
0100
1000
0100
,
0010
0100
0010
0100
,
0001
0100
0001
0100
,
1000
0100
1000
0110
,
0001
0010
1000
0010
,
0001
0010
0100
0010
,
0001
0010
1000
0010
,
0001
0010
0100
1001
,
0001
1000
0001
0010
,
1000
0001
1000
0010
,
0010
0100
0010
0001
,
1000
0000
0001
0000
,
0001
0000
0001
0010
,
1000
0010
0000
0010
,
1000
0000
1000
0010
,
0001
0010
0100
1000
;

//---------------dance-single - ----------------
#NOTES:
     dance-single:
     :
     Medium:
     5:
     :
0000
0000
0000
0000
,
0000
0000
0000
0000
,
0000
0000
0000
0000
,
0000
0000
0000
0000
,
0000
0000
0000
0000
,
1000
0000
0100
0000
0001
0100
1000
0000
,
1000
0100
0001
0000
0001
0000
0100
0000
,
0001
0000
0100
0000
0001
0100
1000
0000
,
1000
0100
0001
0000
0001
1000
0100
0000
,
1000
0001
1000
0000
1000
0010
1000
0000
,
0001
1000
0001
0000
0001
0100
0001
0000
,
0100
0010
0100
0000
0100
1000
0100
0000
,
0001
0000
1000
0000
0000
0001
0001
0000
,
1000
0000
0100
0000
1000
0100
1000
0100
,
0001
0010
1000
0001
,
0001
0000
0100
0000
0001
0100
0001
0100
,
1000
0000
0100
0000
0010
1000
0001
0000
,
1000
0000
0000
1000
1000
0000
0000
0000
,
0001
0000
0000
0001
0001
0000
0000
0000
,
1000
0000
0000
0100
0100
0000
0000
0000
,
0001
0000
0000
0010
0010
0000
0000
0000
,
1000
0000
0000
1000
0100
0000
0001
0000
,
1000
0000
0000
1000
0100
0000
0001
0000
,
0001
0000
1000
0100
1000
0000
0100
0000
,
0001
0000
0001
0010
0001
1000
0100
0000
,
1000
0000
1000
0000
1000
0001
1100
0000
,
0001
0000
0001
0000
0001
1000
0101
0000
,
0010
0000
0010
0000
0010
0100
0110
0000
,
1000
0001
0000
1001
,
1000
0000
0100
0000
1000
0010
1100
0000
,
0001
0000
0100
0000
0001
0010
0101
0000
,
1000
0000
0010
0000
1000
0100
1010
0000
,
0001
0000
1000
0000
0000
0001
0001
0000
,
1000
0000
0100
0010
0100
0000
1000
0000
,
0001
0000
0100
0010
0100
0000
0101
0000
,
1000
0000
0010
0100
0010
0000
1000
0000
,
0001
0000
0010
0100
0010
0000
1001
0000
,
0001
0000
0100
0000
1000
0100
0001
0000
,
0001
0000
0100
0000
0001
0100
1001
0000
,
1000
0000
0100
0000
1000
0100
0001
0000
,
1000
0000
0100
0000
1000
0100
1001
0000
,
0001
1000
0001
0000
0001
0010
0011
0000
,
1000
0001
1000
0000
1000
0100
1100
0000
,
0100
0010
0100
0000
0100
0001
0110
0000
,
1000
0000
0001
0000
0000
1000
1000
0000
,
0001
0000
0010
0000
0001
0010
0001
0010
,
1000
0100
0001
0100
,
1000
0000
0100
0000
1000
0100
1000
0100
,
0001
0000
0010
0010
0100
0100
1000
0000
;

//---------------dance-single - ----------------
#NOTES:
     dance-single:
     :
     Hard:
     7:
     :
0000
0000
0000
0000
,
0000
0000
0000
0000
,
0000
0000
0000
0000
,
0000
0000
0000
0000
,
0000
0000
0000
0000
,
1000
0100
0001
0100
0010
0100
1000
0100
,
0010
0001
0100
0010
0100
0001
1000
0000
,
1000
0010
0001
0010
0100
0010
1000
0000
,
0001
0000
0001
0100
1000
0001
0100
0000
,
1000
0001
1000
0100
1000
0010
1000
0000
,
0001
1000
0001
0010
0001
0100
0001
0000
,
0100
0010
0100
0001
0100
1000
0100
0000
,
0001
0010
0100
1000
0000
0001
0001
0000
,
1000
0010
1000
0100
1000
0010
1000
0100
,
0001
0010
0001
0100
0001
0010
0001
0100
,
1000
0010
1000
0100
1000
0100
0010
0001
,
1000
0000
0100
0010
0100
1000
0001
0100
,
0100
0000
0000
1000
1000
0000
1000
0001
,
0001
0000
0000
0010
0010
0000
0001
1000
,
1000
0000
0000
0100
0100
0000
1000
0001
,
0001
0000
0000
1000
1000
0000
0000
0000
,
1000
0000
1000
0100
0001
0000
0001
0100
,
1000
0000
1000
0001
0100
0000
0100
0001
,
1000
0000
0001
0100
0001
0000
0010
0100
,
0010
0000
1000
0100
1000
0100
0001
0000
,
1000
0000
0110
0000
1000
0100
0001
0000
,
0001
0000
0110
0000
0001
0100
1000
0000
,
1000
0000
0110
0000
1000
0010
0001
0000
,
0001
0010
0100
1000
0000
0000
1001
0000
,
1000
0100
0011
0000
1000
0100
0001
0000
,
0001
0010
1100
0000
0001
0010
1000
0000
,
1000
0010
0101
0000
1000
0010
0001
0000
,
1000
0100
0010
0001
0000
0001
0001
0000
,
1000
0100
0010
0100
1000
0001
0100
0010
,
0100
0001
1000
0010
0100
0010
1001
0000
,
0010
0100
0010
0001
1000
0100
0110
0000
,
1000
0001
0100
0010
0100
0001
1001
0000
,
0001
0100
1000
0100
0010
0100
0001
0100
,
1000
0100
0001
0100
0010
0100
0101
0000
,
0001
0010
1000
0010
0100
0010
0001
0010
,
1000
0010
0001
0010
0100
0010
0011
0000
,
0001
0010
0100
1000
0100
1000
1100
0000
,
0010
0100
0001
0010
0001
0010
0011
0000
,
0100
1000
0001
0100
0001
0100
0101
0000
,
0001
0100
0010
1000
0000
1000
1000
0000
,
0100
1000
0100
0010
0100
1000
0100
0001
,
0010
0100
0010
1000
0010
0100
0010
0001
,
1000
0100
1000
0001
0100
0001
1000
0000
,
1000
1000
0100
0100
0010
0010
0001
0000
;
