#TITLE:umbrella (for plugout);
#SUBTITLE:;
#ARTIST:IDEAL;
#TITLETRANSLIT:;
#SUBTITLETRANSLIT:;
#ARTISTTRANSLIT:;
#CREDIT:;
#BANNER:banner.png;
#BACKGROUND:bgblack.PNG;
#LYRICSPATH:;
#CDTITLE:;
#MUSIC:umbrella (for plugout).mp3;
#OFFSET:-0.180;
#SAMPLESTART:14.610;
#SAMPLELENGTH:12.000;
#SELECTABLE:YES;
#BPMS:0.000=133.020;
#STOPS:;
#BGCHANGES:0.000=umbrella (for plugout) bga.avi=1.000=0=1=0,
168.000=bgblack.PNG=1.000=0=0=1,
99999=-nosongbg-=1.000=0=0=0 // don't automatically add -songbackground-
;

//---------------dance-single - ----------------
#NOTES:
     dance-single:
     :
     Beginner:
     1:
     0.068,0.114,0.011,0.000,0.000:
0000
0000
0000
0000
,
0000
0000
0000
0000
,
0000
0000
0000
0000
,
0000
0000
0000
0000
,
0000
0000
0000
0000
,
0000
0000
0000
0000
,
0000
0000
0000
0000
,
0000
0000
0000
0000
,
1000
0000
0000
0000
,
0010
0000
0000
0000
,
0100
0000
0000
0000
,
0001
0000
0000
0000
,
0010
0000
0000
0000
,
0001
0000
0000
0000
,
0100
0000
0000
0000
,
0010
0000
0000
0000
,
1000
0000
0000
0000
,
0001
0000
0000
0000
,
0100
0000
0000
0000
,
0010
0000
0000
0000
,
0100
0000
0000
0000
,
0001
0000
0000
0000
,
0010
0000
0000
0000
,
0100
0000
0000
0000
,
1000
0000
0100
0000
,
1000
0000
0000
0000
,
0001
0000
0010
0000
,
0001
0000
0000
0000
,
0100
0000
0010
0000
,
0100
0000
0000
0000
,
0001
0000
1000
0000
,
0001
0000
0000
0000
,
0010
0000
1000
0000
,
0100
0000
0000
0000
,
0010
0000
0001
0000
,
0100
0000
0000
0000
,
0100
0000
0001
0000
,
0010
0000
0000
0000
,
0100
0000
1000
0000
,
0010
0000
0000
0000
,
1001
0000
0000
0000
;

//---------------dance-single - ----------------
#NOTES:
     dance-single:
     :
     Easy:
     2:
     0.134,0.168,0.011,0.023,0.000: // measure 1
0000
0000
0000
0000
,  // measure 2
0000
0000
0000
0000
,  // measure 3
0000
0000
0000
0000
,  // measure 4
0000
0000
0000
0000
,  // measure 5
0000
0000
0000
0000
,  // measure 6
0000
0000
0000
0000
,  // measure 7
0000
0000
0000
0000
,  // measure 8
0000
0000
0000
0000
,  // measure 9
1000
0000
0100
0000
,  // measure 10
1000
0000
0100
0000
,  // measure 11
0010
0000
0001
0000
,  // measure 12
0010
0000
0001
0000
,  // measure 13
0100
0000
0010
0000
,  // measure 14
0100
0010
0100
0000
,  // measure 15
0001
0000
1000
0000
,  // measure 16
0001
1000
0001
0000
,  // measure 17
0010
0000
0001
0000
,  // measure 18
0100
0010
0100
0000
,  // measure 19
0010
0000
1000
0000
,  // measure 20
0100
0010
0100
0000
,  // measure 21
1000
0000
0010
0000
,  // measure 22
0100
0001
0100
0000
,  // measure 23
0001
0000
0010
0000
,  // measure 24
0100
1000
0100
0000
,  // measure 25
0010
0001
0010
0000
,  // measure 26
0001
0000
0100
0000
,  // measure 27
0010
1000
0010
0000
,  // measure 28
1000
0000
0100
0000
,  // measure 29
1000
0010
0001
0000
,  // measure 30
0100
0000
0001
0000
,  // measure 31
0010
0100
1000
0000
,  // measure 32
0010
0000
0100
0000
,  // measure 33
0001
0010
1000
0000
,  // measure 34
0010
0000
0001
0000
,  // measure 35
0100
1000
0100
0000
,  // measure 36
0010
0000
0001
0000
,  // measure 37
0100
0010
0100
0000
,  // measure 38
0001
0000
0010
0000
,  // measure 39
0100
1000
0100
0000
,  // measure 40
0010
0000
0001
0000
,  // measure 41
2002
0000
0000
0000
,  // measure 42
0000
0000
0000
0000
,  // measure 43
3003
0000
0000
0000
;

//---------------dance-single - ----------------
#NOTES:
     dance-single:
     :
     Medium:
     4:
     0.243,0.264,0.011,0.034,0.000:
0000
0000
0000
0000
,
0000
0000
0000
0000
,
0000
0000
0000
0000
,
0000
0000
0000
0000
,
0010
0000
1000
0000
,
0100
0000
0001
0000
,
0010
0000
0001
0000
,
0200
0000
0300
0000
,
0010
1000
0100
1000
,
0010
0100
0001
0000
,
0001
0010
0100
0010
,
0001
0100
0010
0000
,
0010
1000
0100
1000
,
0010
0100
0001
0000
,
0010
0001
0100
0010
,
1000
0001
0010
0000
,
0010
0000
0001
0000
0100
0010
0100
0000
,
0001
0010
0100
0000
,
0100
0000
1000
0000
0010
0100
0010
0000
,
1000
0100
0010
0000
,
0010
0000
0001
0000
1000
0100
1000
0000
,
0010
0100
0001
0010
,
0001
0000
0100
0000
0010
1000
0001
0000
,
0010
0100
1000
0010
,
0100
0001
0100
0001
,
1000
0010
1000
0010
,
0100
0001
0100
0001
,
0010
0001
0010
0001
,
1000
0000
0100
0000
1000
0100
1000
0000
,
0100
0000
1000
0000
0100
1000
0100
0000
,
0010
0000
0001
0000
0010
0001
0010
0000
,
0001
0000
0010
0000
0001
0010
0001
0000
,
0100
0000
0001
0000
0010
0100
1000
0000
,
0100
0000
0010
0000
0001
0100
0010
0000
,
1000
0000
0001
0000
0010
0100
0010
0000
,
0001
0000
0100
0000
0010
1000
0001
0000
,
0010
0000
0100
0000
1000
0010
0100
0000
,
0001
0000
0010
0000
0001
0100
0010
0000
,
1000
0000
0100
0000
0010
0100
1000
0000
,
0001
0100
0010
1000
,
2002
0000
0000
0000
,
0000
0000
0000
0000
,
3003
0000
0000
0000
;

//---------------dance-single - ----------------
#NOTES:
     dance-single:
     :
     Hard:
     6:
     0.338,0.407,0.000,0.011,0.074:
0000
0000
0000
0000
,
0000
0000
0000
0000
,
0000
0000
0000
0000
,
0000
0000
0000
0000
,
0000
0000
0000
0000
,
0000
0000
0000
0000
,
0000
0000
0000
0000
,
0000
0000
0000
0000
,
0010
0000
1000
0000
0100
1000
0001
1000
,
0100
0000
0010
0000
0001
0100
0001
1000
,
0001
0000
0010
0000
0100
1000
0100
0010
,
0100
0000
1000
0000
0001
0100
0010
0100
,
0001
0000
0010
0000
0001
0000
0000
1000
0000
0000
0010
0000
0100
0000
0000
0001
,
0000
0010
0100
0000
0010
0001
0100
0010
,
0000
0000
1000
0000
0100
0000
0000
1000
0000
0000
0001
0000
0010
0000
0000
0001
,
0000
0000
0100
0000
0010
0000
0000
0100
0000
0000
0010
0000
1000
0000
0001
0000
,
0010
0000
0100
0000
0010
0000
0000
0001
0000
0000
0100
0000
0010
0000
0000
1000
,
0000
0100
1000
0000
0001
0100
0010
1000
,
0000
0000
0100
0000
0010
0000
0000
0100
0000
0000
1000
0000
0001
0000
0000
0100
,
0000
0010
0100
0000
0001
0010
0100
1000
,
0000
0000
0010
0000
0100
0000
0000
0001
0000
0000
0100
0000
0010
0000
0000
1000
,
0000
0100
1000
0000
0010
0100
0001
1000
,
0000
0000
0100
0000
0010
0000
0000
0100
0000
0000
1000
0000
0001
0000
0000
0100
,
0000
0010
1000
0000
1000
0010
0100
0001
,
0010
0000
0001
0100
0010
1000
0001
0010
,
0100
0000
1000
0100
0010
0001
1000
0010
,
0100
0000
0010
1000
0001
0010
0100
1000
,
0010
0000
0010
1000
0100
0010
0001
1000
,
0010
0000
0100
0000
0001
0100
0010
1000
,
0001
0010
0100
0000
1000
0010
0100
0001
,
0100
0000
0010
1000
0000
1000
0001
0010
,
0100
1000
0100
0010
0000
0001
0100
0000
,
0010
1000
0100
1000
0010
0100
0001
0010
,
0001
0100
0010
1000
0001
0010
0001
0100
,
1000
0000
0100
0000
1000
0010
0100
0001
,
0010
0000
0001
0000
0100
0010
1000
0001
,
0010
0000
0001
0000
0100
0010
1000
0001
,
0010
0000
0100
1000
0001
0100
0010
1000
,
0010
0000
0100
0001
0000
0001
0100
0010
,
0000
1000
0100
1000
0001
0100
0010
1000
,
0002
0000
0000
0000
,
0000
0000
0000
0000
,
0003
0000
0000
0000
;
