#TITLE:funny crasher;
#SUBTITLE:;
#ARTIST:TOMA;
#TITLETRANSLIT:;
#SUBTITLETRANSLIT:;
#ARTISTTRANSLIT:;
#CREDIT:;
#BANNER:;
#BACKGROUND:;
#LYRICSPATH:;
#CDTITLE:;
#MUSIC:funny crasher.mp3;
#OFFSET:-10.120;
#SAMPLESTART:57.670;
#SAMPLELENGTH:12.000;
#SELECTABLE:YES;
#BPMS:0.000=192.001;
#STOPS:;
#BGCHANGES:;

//---------------dance-single - ----------------
#NOTES:
     dance-single:
     :
     Beginner:
     2:
     0.191,0.240,0.000,0.047,0.000: // measure 1
1000
0000
1000
0000
,  // measure 2
1000
0000
0000
0000
,  // measure 3
0010
0000
0010
0000
,  // measure 4
0010
0000
0000
0000
,  // measure 5
0100
0000
0100
0000
,  // measure 6
0100
0000
0000
0000
,  // measure 7
0001
0000
0001
0000
,  // measure 8
0001
0000
0000
0000
,  // measure 9
0001
0000
0100
0000
,  // measure 10
0001
0000
0000
0000
,  // measure 11
1000
0000
0010
0000
,  // measure 12
1000
0000
0000
0000
,  // measure 13
0001
0000
1000
0000
,  // measure 14
0001
0000
0000
0000
,  // measure 15
0100
0000
0010
0000
,  // measure 16
0200
0000
0300
0000
,  // measure 17
0100
0000
0100
0000
,  // measure 18
0100
0000
0100
0000
,  // measure 19
0100
0000
0100
0000
,  // measure 20
0100
0000
0000
0000
,  // measure 21
0010
0000
0010
0000
,  // measure 22
0010
0000
0010
0000
,  // measure 23
0010
0000
0010
0000
,  // measure 24
0010
0000
0010
0000
,  // measure 25
0010
0010
0010
0000
,  // measure 26
0010
0010
0010
0000
,  // measure 27
0010
0010
0010
0010
,  // measure 28
0020
0000
0000
0030
,  // measure 29
0010
0000
0010
0000
,  // measure 30
0001
0000
0001
0000
,  // measure 31
0100
0000
0100
0000
,  // measure 32
1000
0000
1000
0000
,  // measure 33
0010
0000
0010
0000
,  // measure 34
1000
0000
1000
0000
,  // measure 35
0100
0000
0100
0000
,  // measure 36
0001
0000
0001
0000
,  // measure 37
0020
0000
0000
0000
,  // measure 38
0000
0000
0030
0000
,  // measure 39
0001
0000
0001
0000
,  // measure 40
0001
0001
0001
0000
,  // measure 41
0100
0000
0100
0000
,  // measure 42
0100
0100
0100
0000
,  // measure 43
0010
0000
0010
0000
,  // measure 44
0010
0010
0010
0000
,  // measure 45
1000
0000
1000
0000
,  // measure 46
1000
1000
1000
0000
,  // measure 47
0001
0000
1000
0000
,  // measure 48
0001
0001
0001
0000
,  // measure 49
1000
0000
0001
0000
,  // measure 50
1000
1000
1000
0000
,  // measure 51
0010
0000
0100
0000
,  // measure 52
0010
0010
0010
0000
,  // measure 53
0100
0000
0010
0000
,  // measure 54
0100
0100
0100
0100
,  // measure 55
0200
0000
0000
0000
,  // measure 56
0000
0000
0000
0000
,  // measure 57
0000
0000
0000
0000
,  // measure 58
0000
0000
0000
0000
,  // measure 59
0300
0000
0000
0000
;

//---------------dance-single - ----------------
#NOTES:
     dance-single:
     :
     Easy:
     5:
     0.346,0.343,0.000,0.177,0.000: // measure 1
1000
0100
0010
0001
,  // measure 2
0010
0001
0100
0100
,  // measure 3
0010
1000
0100
0010
,  // measure 4
0001
0100
0010
0010
,  // measure 5
0100
0001
0010
0100
,  // measure 6
1000
0010
0001
0001
,  // measure 7
0100
0010
1000
0100
,  // measure 8
0001
0010
1000
1000
,  // measure 9
1000
0010
0100
0001
,  // measure 10
0100
0010
1000
0001
,  // measure 11
1000
0010
0100
0001
,  // measure 12
0010
0100
0010
0001
,  // measure 13
1000
0010
0001
0010
,  // measure 14
1000
0100
0001
0100
,  // measure 15
1000
0010
0100
0001
,  // measure 16
2000
0000
0000
3000
,  // measure 17
0001
0100
0001
0100
,  // measure 18
0001
0100
0002
0000
,  // measure 19
1003
0010
1000
0010
,  // measure 20
1000
0010
2000
0000
,  // measure 21
3010
0100
0020
0000
,  // measure 22
0130
0010
0200
0000
,  // measure 23
0320
0000
2030
0000
,  // measure 24
3200
0000
0320
0000
,  // measure 25
0032
1000
1000
1000
,  // measure 26
1000
1000
1000
1000
,  // measure 27
2003
0000
3002
0000
,  // measure 28
2000
0000
0000
3003
,  // measure 29
1000
0100
1000
1000
,  // measure 30
0010
1000
0010
0010
,  // measure 31
0100
0001
0100
0000
,  // measure 32
0001
0100
0001
0000
,  // measure 33
0010
0001
0010
0010
,  // measure 34
0001
0100
0001
0001
,  // measure 35
0100
0010
1000
0000
,  // measure 36
0010
1000
0010
0000
,  // measure 37
0200
0000
0000
0000
,  // measure 38
0000
0000
0310
0000
,  // measure 39
0001
0100
1000
0100
,  // measure 40
0001
0010
1000
0010
,  // measure 41
0001
0100
0010
1000
,  // measure 42
0001
0010
0001
0000
,  // measure 43
0010
0001
0100
1000
,  // measure 44
0100
0001
0010
0100
,  // measure 45
1000
0010
0100
0001
,  // measure 46
0010
0100
1000
0000
,  // measure 47
0010
1000
0010
1000
,  // measure 48
0001
0100
0001
0100
,  // measure 49
0001
0010
0100
1000
,  // measure 50
0010
0100
0001
1000
,  // measure 51
0001
0001
1000
1000
,  // measure 52
0010
0010
0100
0100
,  // measure 53
0001
0010
0001
0100
,  // measure 54
0010
1000
0100
0010
,  // measure 55
0002
0000
0000
0000
,  // measure 56
0000
0000
0000
0000
,  // measure 57
0000
0000
0000
0000
,  // measure 58
0000
0000
0000
0000
,  // measure 59
1003
0000
0000
0000
;

//---------------dance-single - ----------------
#NOTES:
     dance-single:
     :
     Medium:
     7:
     0.471,0.582,0.142,0.154,0.000:
1000
0010
0100
0001
,
0010
0000
0001
0000
0100
0001
0100
0000
,
0010
1000
0100
1000
,
0001
0000
0100
0000
0010
1000
0010
0000
,
0100
0001
0010
0100
,
1000
0000
0100
0000
0010
0001
0010
0000
,
0001
0100
0010
1000
,
1001
1001
0110
0110
,
0010
0000
1000
0000
0100
0001
0100
0000
,
1000
0000
0010
0000
0001
0010
1000
0000
,
0010
0000
0100
0000
0001
0010
0100
0000
,
1000
0000
0100
0000
0010
0001
0100
0000
,
0010
0000
1000
0000
0100
0001
0100
0000
,
0010
0000
1000
0000
0100
0010
0100
0000
,
1000
0000
0001
0000
0100
0010
1000
0001
,
0020
0000
0000
0030
,
1000
1100
1000
1100
,
1000
1100
2000
0000
,
3001
0101
0001
0101
,
0001
0101
0002
0000
,
0103
0110
0200
0000
,
0310
0110
0020
0000
,
1030
0100
2000
0000
3001
0100
0002
0000
,
0013
1000
0200
0000
0310
0001
0200
0000
,
0310
0000
0100
0000
0010
0100
0010
0000
,
0100
0000
0010
0000
0100
0010
0100
0000
,
0010
0100
0010
0000
0100
0010
0100
0000
,
0020
0000
0230
0000
,
0301
0000
0100
0000
0001
0000
0010
0001
,
0000
0100
0000
0010
0000
1000
0100
0000
,
0001
0000
0100
0000
0010
0000
0000
0100
,
0000
0001
0000
1000
0001
0000
0000
0000
,
0100
0000
0010
0000
0100
0000
0001
0010
,
0000
0001
0000
0100
0000
0010
1000
0000
,
0100
0000
1000
0000
0001
0000
0000
0100
,
0000
0010
0000
0100
0001
0000
1000
0000
,
0010
0000
0100
0000
0001
1000
0100
0000
,
0010
0001
1000
0000
0020
0000
0130
0000
,
0001
0000
0100
0000
0010
1000
0001
0000
,
0010
0000
0100
0000
1000
0100
0010
0000
,
0001
0000
0100
0000
0010
1000
0001
0000
,
1000
0010
0100
0001
0100
0010
1000
0000
,
0010
0000
0100
0000
0001
0010
0001
0000
,
0100
0000
0010
0000
1000
0100
1000
0000
,
0010
0000
0100
0000
0001
0010
0001
0000
,
0100
0010
1000
0001
0010
0100
1000
0000
,
0100
0000
0010
0000
0001
0100
1000
0000
,
0100
0000
0001
0000
0010
1000
0010
0000
,
0001
0000
0100
0000
0010
1000
0001
0000
,
0010
0000
0100
0000
1000
0010
0100
0000
,
0001
0000
0100
0000
1000
0100
0001
0000
,
0010
0000
1000
0000
0010
0001
0010
0000
,
0100
0000
1000
0000
0010
0100
0001
0000
,
0010
0100
1000
0001
0100
0010
1000
0001
,
0020
0000
0000
0000
,
0000
0000
0000
0000
,
0000
0000
0000
0000
,
0000
0000
0000
0000
,
0130
0000
0000
0000
;

//---------------dance-single - ----------------
#NOTES:
     dance-single:
     :
     Hard:
     9:
     0.613,0.582,0.106,0.118,0.000:
1000
0010
0100
0000
0001
0010
0100
0000
,
1000
0100
0010
0000
0001
0100
0010
0000
,
0010
1000
0100
0000
0100
0010
0001
0000
,
0001
0100
0010
0000
0010
1000
0001
0000
,
0001
0010
0100
0000
0100
1000
0010
0000
,
0010
1000
0100
0000
0100
0010
0001
0000
,
0001
1000
0010
0000
0010
0100
0001
0000
,
0001
0100
1000
0000
1000
0100
0001
0000
,
0000
0001
0010
0001
0000
1000
0100
1000
,
0000
0010
0100
0010
0000
0100
0001
0000
,
0100
0001
0010
0100
0000
0100
1000
0100
,
0000
0010
0001
0100
0000
0100
0010
1000
,
0001
0010
0100
1000
0000
1000
0100
0010
,
0001
1000
0010
0100
0000
0100
0010
1000
,
0001
0000
0001
0010
0100
0000
0100
1000
,
0010
0110
1001
0110
,
0010
1000
0100
0001
0100
1000
0010
0100
,
0001
0010
0100
1000
0200
0000
0000
0000
,
0310
0001
0100
1000
0100
0001
0010
0100
,
1000
0010
0100
0001
0020
0000
0000
0000
,
0031
0100
0010
1000
0002
0000
0000
0000
,
0013
0100
1000
0100
0020
0000
0000
0000
,
0031
0100
1000
0000
1000
0100
0001
0000
,
0001
0010
1000
0000
1000
0010
0001
0000
,
0001
1000
0001
1000
0001
0100
0001
0100
,
0010
1000
0010
1000
0010
0100
0010
0100
,
0001
0100
0010
1000
0001
0010
0100
1000
,
0020
0000
0200
0030
,
0301
0000
0100
0000
0010
0000
1000
0100
,
0000
0100
0000
1000
0001
0100
0010
1000
,
0001
0000
0011
0000
1100
0000
0000
1010
,
0000
1010
0000
0001
0100
0000
0010
0000
,
1000
0001
0010
0100
1000
0000
0100
0010
,
0000
0001
0000
1000
0000
0010
0100
0001
,
0010
0000
0011
0000
0101
0000
0010
1000
,
0000
0100
0000
1000
0001
0000
0100
0000
,
0010
1000
0001
0100
0010
1000
0001
0010
,
0100
1000
0100
0010
0002
0000
1003
0000
,
0001
0010
0100
1000
0010
0100
0010
1000
,
0001
0010
0100
1000
0100
0010
0001
0000
,
0001
0100
0010
1000
0001
0010
0100
1000
,
0100
0010
0001
1000
0010
0100
0001
0000
,
0001
0100
0010
1000
0001
0010
0100
1000
,
0010
0001
0010
1000
0100
0001
0010
0000
,
0010
0001
0100
0010
1000
0010
0100
0001
,
1000
0001
0100
0010
1000
0001
0010
0000
,
0001
0010
0001
0100
0010
1000
0100
0000
,
0100
1000
0010
0100
0001
0010
0100
0000
,
0100
0010
0001
0100
0010
1000
0001
0000
,
0010
0001
0100
1000
0100
0001
0010
0000
,
0001
0100
0010
1000
0001
0010
0100
0000
,
1000
0100
0010
0001
1000
0010
0100
0000
,
0010
1000
0001
0000
0010
0100
1000
0000
,
0100
0010
0001
1000
0010
0100
0001
0010
,
0200
0000
0000
0000
,
0302
0000
0000
0000
,
0023
0000
0000
0000
,
0000
0000
0000
0000
,
1030
0000
0000
0000
;

//---------------dance-single - ----------------
#NOTES:
     dance-single:
     :
     Challenge:
     10:
     0.790,0.857,0.201,0.154,0.201:
1000
0000
0100
0010
0100
0000
1000
0000
0010
0000
0100
0000
0001
0000
0010
0000
,
0100
0000
1000
0100
0010
0000
0001
0000
0100
0000
0010
0000
2000
0000
0000
0000
,
3010
0000
0100
0001
0100
0000
0010
0000
1000
0000
0100
0000
0001
0000
0100
0000
,
1000
0000
0010
0100
0010
0000
1000
0000
0001
0000
0010
0000
0200
0000
0000
0000
,
0310
0000
0001
0100
0001
0000
0010
0000
0100
0000
1000
0000
0010
0000
0100
0000
,
0001
0000
0010
0001
0010
0000
0100
0000
1000
0000
0010
0000
0200
0000
0000
0000
,
0301
0000
0010
0001
0010
0000
0100
0000
1000
0000
0010
0000
0100
0000
0001
0000
,
0011
1100
1001
0110
,
1000
0000
0100
1000
0100
0000
0010
0000
0001
0000
0100
0000
0010
0000
1000
0000
,
0100
0000
1000
0010
1000
0000
0010
0000
0100
0000
0001
0000
0020
0000
0000
0000
,
0031
0000
0100
0001
0100
0000
0010
0000
1000
0000
0100
0000
0001
0000
0100
0000
,
1000
0000
0010
1000
0010
0000
0100
0000
0001
0000
0010
0000
0200
0000
0000
0000
,
0310
0000
0001
0100
0001
0000
0010
0000
0100
0000
1000
0000
0010
0000
0100
0000
,
0001
0000
1000
0010
1000
0000
0100
0000
0010
0000
0001
0000
0100
0000
0010
0000
,
1000
0000
0001
0010
0001
0000
0100
0000
0010
0000
1000
0000
0100
0000
0001
0000
,
0100
1001
0010
0110
,
1000
0100
0001
0100
1000
0010
0001
0010
,
1000
0000
0100
0000
0010
0000
0001
0000
1000
0000
0010
1000
0001
0100
0010
0000
,
1000
0100
0010
0100
1000
0010
0001
0010
,
1000
0000
0100
0000
0001
0000
0100
0000
1000
0000
0001
0010
0001
0010
0001
0000
,
0100
0000
0010
0000
1000
0000
0001
0000
0100
0000
0010
1000
0010
1000
0010
0000
,
0100
0000
0001
0000
0010
0000
0100
0000
0010
0000
0001
0100
0001
0100
0001
0000
,
0010
0000
0100
1000
0100
1000
0100
0000
0010
0000
0001
0010
0001
0010
0001
0000
,
1000
0000
0100
1000
0100
1000
0100
0000
0010
0000
0001
1000
0001
1000
0001
0000
,
1000
1000
0100
0100
0010
0010
0001
0001
,
0100
0010
1000
0001
0010
0100
1000
0100
,
0010
0001
0010
0000
0100
0000
1000
0000
0100
1000
0100
0000
0010
0000
0001
0000
,
0100
0010
0100
0010
0100
0000
0001
0000
2000
0000
0000
0000
0000
0000
0000
0000
,
3001
0100
0010
1000
0001
0010
0100
1000
,
0100
0010
0001
1000
0010
0100
0001
0010
,
0100
0000
1100
0000
0011
0000
0001
0101
,
0000
1010
0000
1000
2100
0010
3010
0100
,
0001
0100
1000
0100
0001
0010
0100
1000
,
0010
0100
0001
0010
0100
1000
0100
0010
,
0001
0000
0101
0000
1100
0000
0010
1010
,
0000
0110
0000
0001
0021
0000
0031
0100
,
0010
1000
0100
0001
0010
0001
0100
1000
,
0010
0001
0100
1000
0020
0000
0030
0000
,
1000
0100
0010
0100
1000
0001
0100
0010
,
1000
0001
0010
0100
1000
0100
0010
0001
,
0100
0010
1000
0001
0010
0100
1000
0100
,
0010
0001
1000
0010
0100
0001
0010
0000
,
0001
0100
0010
1000
0100
0010
0100
1000
,
0001
0100
0010
1000
0100
0001
0100
1000
,
0010
0100
0001
0010
0001
0100
0010
1000
,
0001
0010
1000
0010
0001
0100
0020
0000
,
1030
0100
0001
0100
1000
0010
0001
0010
,
1000
0100
0010
0100
0001
0100
0010
0100
,
0001
0010
0100
1000
0100
0010
0001
1000
,
0010
0100
0001
1000
0010
0100
0001
0010
,
0100
1000
0100
0010
0001
1000
0010
0100
,
0001
0100
0010
1000
0001
0010
0100
1000
,
0100
0010
0010
0001
1000
0010
0100
0001
,
1000
0100
0010
0100
1000
0001
0100
0010
,
2000
0000
0000
0000
,
3020
0000
0000
0000
,
0230
0000
0000
0000
,
0000
0000
0000
0000
0000
0000
0000
0300
,
1001
0000
0000
0000
;
