#TITLE:VALLISTA;
#SUBTITLE:;
#ARTIST:sakuzyo;
#TITLETRANSLIT:;
#SUBTITLETRANSLIT:;
#ARTISTTRANSLIT:;
#CREDIT:;
#BANNER:banner.png;
#BACKGROUND:bgblack.PNG;
#LYRICSPATH:;
#CDTITLE:;
#MUSIC:VALLISTA.mp3;
#OFFSET:0.000;
#SAMPLESTART:12.030;
#SAMPLELENGTH:12.000;
#SELECTABLE:YES;
#BPMS:0.000=90.000,17.000=180.001,18.000=359.999,276.000=90.000,284.000=359.999,308.000=180.000,312.000=359.998,428.000=359.998,430.000=359.998,432.000=89.999,433.000=179.999,434.000=359.998,436.000=89.999,444.000=179.999,452.000=89.999,456.000=359.998,488.000=89.999,489.000=102.999,490.000=133.999,491.000=164.999,492.000=199.999,493.000=241.999,495.000=267.999,499.000=291.999,502.000=359.998;
#DISPLAYBPM:*;
#STOPS:;
#BGCHANGES:0.000=VALLISTA BGA.avi=1.000=1=0=0,
99999=-nosongbg-=1.000=0=0=0 // don't automatically add -songbackground-
;

//---------------dance-single - ----------------
#NOTES:
     dance-single:
     :
     Beginner:
     3:
     0.218,0.375,0.084,0.110,0.000:
0000
0000
0000
0000
,
0000
0000
0000
0000
,
0000
0000
0000
0000
,
0000
0000
0000
0000
,
0000
0000
0000
0000
,
0010
0000
0000
0000
,
0010
0000
0000
0000
,
1000
0000
0000
0000
,
1000
0000
0000
0000
,
0001
0000
0000
0000
,
0001
0000
0000
0000
,
0100
0000
0000
0000
,
0100
0000
0000
0000
,
0010
0000
0000
0000
,
0001
0000
0000
0000
,
0100
0000
0000
0000
,
1000
0000
0000
0000
,
0010
0000
0000
0000
,
1000
0000
0000
0000
,
0100
0000
0000
0000
,
0001
0000
0000
0000
,
0010
0000
0000
0000
,
0001
0000
0000
0000
,
0010
0000
0000
0000
,
0010
0000
0000
0000
,
0100
0000
0000
0000
,
1000
0000
0000
0000
,
0100
0000
0000
0000
,
0100
0000
0000
0000
,
1000
0000
0000
0000
,
0010
0000
0000
0000
,
0001
0000
0000
0000
,
0100
0000
0000
0000
,
0001
0000
0000
0000
,
0010
0000
0000
0000
,
0100
0000
0000
0000
,
1000
0000
0000
0000
,
0001
0000
0100
0000
,
0001
0000
0100
0000
,
0010
0000
1000
0000
,
0010
0000
1000
0000
,
0010
0000
0001
0000
,
0010
0000
0001
0000
,
1000
0000
0100
0000
,
1000
0000
0100
0000
,
0010
0000
0100
0000
,
0010
0000
0100
0000
,
1000
0000
0001
0000
,
1000
0000
0001
0000
,
2000
0000
3000
0000
,
0020
0000
0030
0000
,
0200
0000
0300
0000
,
0002
0000
0003
0000
,
0001
0000
0001
0000
,
0001
0000
0000
0000
,
0100
0000
0100
0000
,
0100
0000
0000
0000
,
0010
0000
0010
0000
,
0010
0000
0000
0000
,
1000
0000
1000
0000
,
1000
0000
0000
0000
,
0010
0000
0010
0000
,
0010
0000
0000
0000
,
0100
0000
0100
0000
,
0100
0000
0000
0000
,
0001
0000
0001
0000
,
0001
0000
0000
0000
,
1000
0000
1000
0000
,
1000
0000
0000
0000
,
0010
0000
1000
0000
,
0100
0000
0001
0000
,
0010
0000
0010
0000
,
0100
0000
0100
0000
,
0010
0000
0010
0000
,
0100
0000
0100
0000
,
0020
0000
0030
0000
,
0200
0000
0300
0000
,
0110
0000
0000
0000
,
1000
0000
0100
0000
,
0000
0000
0100
0000
,
0000
0000
0010
0000
,
0000
0000
0001
0000
,
0010
0000
0001
0000
,
0000
0100
0000
0000
,
0000
0000
0010
0000
,
0000
0000
1000
0000
,
0100
0000
1000
0000
,
0000
0000
0010
0000
,
0000
0000
0100
0000
,
0000
0000
0001
0000
,
0010
0000
0100
0000
,
0000
0000
1000
0000
,
0000
0000
0010
0000
,
0000
0100
0000
0000
,
0001
0000
0000
0000
,
0100
0000
0000
0000
,
0010
0000
0000
0000
,
1000
0000
0000
0000
,
0010
0000
0000
0000
,
0110
0000
0000
0000
,
1001
0000
0000
0000
,
0110
0000
0000
0000
,
0001
0000
0001
0000
,
1000
0000
1000
0000
,
0001
0000
0001
0000
,
1000
0000
1000
0000
,
0002
0000
0003
0000
,
2000
0000
3000
0000
,
2002
0000
3003
0000
,
0020
0000
0000
0000
,
0000
0000
0030
0000
,
1000
0000
0100
0000
,
0010
0000
0001
0000
,
0001
0001
1000
1000
,
1000
0000
0100
0000
,
1000
0000
0000
0000
,
0001
0000
0010
0000
,
0001
0000
0000
0000
,
1001
0000
0000
0000
,
1001
0000
0000
0000
,
0110
0000
0000
0000
,
1001
0000
0000
0000
,
0220
0000
0000
0000
,
0000
0000
0000
0000
,
0000
0000
0000
0000
,
0000
0000
0000
0000
,
0000
0000
0000
0000
,
0330
0000
0000
0000
;

//---------------dance-single - ----------------
#NOTES:
     dance-single:
     :
     Easy:
     7:
     0.340,0.696,0.093,0.160,0.000:
0000
0000
0000
0000
,
0000
0000
0000
0000
,
0000
0000
0000
0000
,
0000
0000
0000
0000
,
0000
0000
0000
0000
,
1000
0000
0100
0000
,
1000
0000
0100
0000
,
0010
0000
0001
0000
,
0010
0000
0001
0000
,
0100
0000
0010
0000
,
0100
0000
0010
0000
,
1000
0000
0001
0000
,
0010
0000
0010
0000
,
0001
0000
0100
0000
,
1000
0000
0100
0000
,
0001
0000
0010
0000
,
1000
0000
0010
0000
,
0001
0000
0100
0000
,
0010
0000
1000
0000
,
0010
0000
0001
0000
,
0100
0000
0000
0000
,
0010
0000
1000
0000
,
0010
0000
0010
0000
,
0100
0000
0001
0000
,
0100
0000
0100
0000
,
0001
0000
0010
0000
,
0001
0000
0001
0000
,
1000
0000
0010
0000
,
1000
0000
1000
0000
,
0010
0000
0000
1000
,
0100
0000
0001
0000
,
0100
0000
1000
0000
,
0010
0000
0010
0000
,
0100
0000
0001
0000
,
0010
0000
0100
0000
,
1000
0000
0010
0000
,
0100
0000
0100
0000
,
0001
0000
0001
0000
,
1000
0000
1000
0000
,
0002
0000
0000
0000
,
0203
0000
0000
0000
,
0320
0000
0000
0000
,
2030
0000
0000
0000
,
3200
0000
0000
0000
,
0320
0000
0000
0000
,
0031
0000
0100
0000
,
0010
0000
1000
0000
,
0200
0000
0000
0000
,
2300
0000
0000
0000
,
3020
0000
0000
0000
,
0230
0000
0000
0000
,
0302
0000
0000
0000
,
0023
0000
0000
0000
,
0130
0000
1000
0000
,
0100
1000
0100
0000
,
0010
0000
0001
0000
,
0100
0010
0100
0000
,
0001
0000
0010
0000
,
0001
1000
0100
0000
,
1000
0000
0010
0000
,
0100
0001
0010
0000
,
0001
0000
1000
0000
,
0001
0000
1000
0000
,
0010
0100
0010
0000
,
1000
0001
1000
0000
,
0001
0000
0010
0000
,
0100
0000
1000
0000
,
0100
0000
0010
0001
,
0010
0000
0001
0000
,
0100
0010
1000
0100
,
0010
0001
0100
0010
,
1000
0000
1000
0000
,
0001
0000
0001
0000
,
1000
0000
0001
0000
,
1000
0000
0001
0000
,
1000
0001
1000
0001
,
1000
0001
1000
0001
,
2000
0000
0000
0000
,
3001
0000
0101
0000
,
0001
0010
0001
0100
,
0000
0010
1000
0100
,
0000
1000
0100
0000
,
0010
0000
0011
0000
,
0001
0100
0001
1000
,
0000
0100
0010
0100
,
0000
1000
0001
0000
,
0100
0000
0110
0000
,
0010
1000
0100
0001
,
0000
0001
0100
0010
,
0000
1000
0100
0000
,
1000
0000
1100
0000
,
0001
0000
0100
0000
,
0001
0000
0010
0000
,
0100
0000
1000
0000
,
0001
0000
0001
0000
,
0010
0000
0010
0000
,
0100
0000
0100
0000
,
1000
0000
1000
0000
,
0001
0000
0100
0000
,
0010
0000
0000
1000
0000
0000
0100
0000
,
0010
0000
0000
0001
0000
0000
1000
0000
,
0000
0001
0000
0001
,
1000
0000
0001
0000
,
1000
0000
0001
0000
,
1000
0000
1000
0000
,
0001
0000
0001
0000
,
1000
0001
1000
0001
,
1000
0001
1000
0001
,
2000
0000
0000
0000
,
3002
0000
0000
0000
,
0000
0000
0000
0003
,
1000
1000
0100
0100
,
0010
0010
0001
0001
,
0020
0032
0203
2300
,
3010
0000
0010
0000
,
0100
0000
0100
0000
,
0001
0000
0001
0000
,
1000
0000
1000
0000
,
1001
0000
0000
1001
,
0000
0000
0000
1010
,
0000
1100
0000
0000
,
0101
0000
0011
0000
,
1001
0000
0000
0000
,
0000
0000
0000
0000
,
0000
0000
0000
0000
,
0000
0000
0000
0000
,
0000
0000
0000
0000
,
0010
0000
0000
0000
;

//---------------dance-single - ----------------
#NOTES:
     dance-single:
     :
     Medium:
     9:
     0.514,0.696,0.067,0.295,0.004: // measure 1
0000
0000
0000
0000
,  // measure 2
0000
0000
0000
0000
,  // measure 3
0000
0000
0000
0000
,  // measure 4
0000
0000
0000
0000
,  // measure 5
0000
0000
0000
0000
,  // measure 6
0010
0000
1000
0100
,  // measure 7
0000
0100
1000
0010
,  // measure 8
0100
0000
0001
0010
,  // measure 9
0000
0010
0001
0100
,  // measure 10
0010
0000
0010
1000
,  // measure 11
0000
0001
0010
0001
,  // measure 12
0100
0000
0010
1000
,  // measure 13
0000
1000
0100
1000
,  // measure 14
0001
0000
0010
0001
,  // measure 15
0000
0001
0100
0010
,  // measure 16
1000
0000
0001
0010
,  // measure 17
0000
0001
0100
0010
,  // measure 18
1000
0000
0001
0010
,  // measure 19
0000
0010
0001
0100
,  // measure 20
0010
0000
1000
0100
,  // measure 21
0000
0000
1000
0001
1000
0000
0010
0000
,  // measure 22
0100
0001
0010
0001
,  // measure 23
0000
1000
0100
0010
,  // measure 24
0100
1000
0001
0100
,  // measure 25
0000
0010
0100
0001
,  // measure 26
0010
0100
1000
0100
,  // measure 27
0000
0010
0001
0100
,  // measure 28
0010
1000
0001
0010
,  // measure 29
0000
0001
0100
0010
,  // measure 30
1000
0001
0010
0001
,  // measure 31
0000
1000
0100
0010
,  // measure 32
0100
1000
0001
0100
,  // measure 33
0000
0010
0100
0010
,  // measure 34
1000
0000
0001
0010
,  // measure 35
0000
0010
0001
0000
,  // measure 36
1000
0100
0010
0100
,  // measure 37
1000
0001
0100
0010
,  // measure 38
2000
0020
3000
0030
,  // measure 39
2000
0000
3200
0000
,  // measure 40
0320
0000
0032
0000
,  // measure 41
0203
0000
0320
0000
,  // measure 42
2030
0000
3002
0000
,  // measure 43
0023
0000
0032
0000
,  // measure 44
0203
0000
0320
0000
,  // measure 45
2030
0000
3200
0000
,  // measure 46
0302
0000
0023
0000
,  // measure 47
0032
0000
0203
0000
,  // measure 48
0320
0000
2030
0000
,  // measure 49
3020
0000
0032
0000
,  // measure 50
0023
0000
0032
0000
,  // measure 51
0203
0000
2300
0000
,  // measure 52
3020
0000
2030
0000
,  // measure 53
3002
0000
0103
0000
,  // measure 54
0100
0010
0100
0010
,  // measure 55
1000
0001
1000
0001
,  // measure 56
0010
0001
0010
0001
,  // measure 57
1000
0100
1000
0100
,  // measure 58
1000
0010
0100
0001
,  // measure 59
0010
0001
1000
0100
,  // measure 60
0010
0100
1000
0001
,  // measure 61
0100
0010
1000
0001
,  // measure 62
0010
0001
0010
0001
,  // measure 63
1000
0100
1000
0100
,  // measure 64
1000
0010
0100
0001
,  // measure 65
0100
0010
1000
0001
,  // measure 66
0010
0001
0010
0001
,  // measure 67
1000
0100
1000
0100
,  // measure 68
1000
0010
0100
0001
,  // measure 69
0010
0100
1000
0100
,  // measure 70
0010
0000
0000
0000
0001
0000
0000
0000
0100
0000
0000
0001
0000
0000
0010
0000
,  // measure 71
0100
0000
1000
0000
0010
0100
0001
1000
,  // measure 72
0001
0001
1000
1000
,  // measure 73
0001
0001
1000
1000
,  // measure 74
0001
0001
1000
1000
,  // measure 75
0001
0001
1000
1000
,  // measure 76
0001
1000
0001
1000
,  // measure 77
0001
0000
1000
0000
0001
1000
0001
1000
,  // measure 78
0002
0000
0000
0003
,  // measure 79
1000
0100
1000
0000
,  // measure 80
0010
0100
0001
0100
,  // measure 81
0000
0100
0010
1000
,  // measure 82
0000
1000
0001
0010
,  // measure 83
0001
0100
0001
0000
,  // measure 84
0010
0100
1000
0100
,  // measure 85
0000
0010
0001
0100
,  // measure 86
0000
0010
1000
0010
,  // measure 87
0100
0010
0100
0000
,  // measure 88
0001
0010
0001
1000
,  // measure 89
0000
0100
0010
0100
,  // measure 90
0000
1000
0001
0100
,  // measure 91
0010
1000
0010
1000
0010
0000
0000
0000
,  // measure 92
1000
0001
0010
0001
,  // measure 93
0100
0010
1000
0100
,  // measure 94
0010
0001
1000
0001
,  // measure 95
0010
0010
1000
1000
,  // measure 96
0100
0100
0010
0010
,  // measure 97
0001
0001
1000
1000
,  // measure 98
0010
0010
0100
0100
,  // measure 99
0001
0000
0100
0000
,  // measure 100
0010
0000
0000
1100
0000
0000
0100
0000
,  // measure 101
0010
0000
0000
0101
0000
0000
0100
0000
,  // measure 102
0000
0110
0000
1000
,  // measure 103
0001
0001
1000
1000
,  // measure 104
0001
0001
1000
1000
,  // measure 105
0001
1000
0001
1000
,  // measure 106
0001
1000
0001
1000
,  // measure 107
0001
1000
0001
1000
,  // measure 108
0001
1000
0001
1000
0001
1000
0001
1000
,  // measure 109
0002
0000
0000
0000
,  // measure 110
2003
0000
0000
0000
,  // measure 111
0000
0000
0000
3000
,  // measure 112
0001
0001
0000
0000
0100
0100
0000
0000
,  // measure 113
0010
0010
0000
0000
1000
1000
0000
0000
,  // measure 114
0010
1000
0100
0001
,  // measure 115
0010
0001
0010
0000
,  // measure 116
0100
1000
0100
0000
,  // measure 117
1000
0001
0100
0000
,  // measure 118
0010
1000
0001
0000
,  // measure 119
0011
0000
0000
1100
,  // measure 120
0000
0000
0000
1010
,  // measure 121
0000
0101
0000
0000
,  // measure 122
0011
0000
0000
0000
0001
1000
0010
0000
,  // measure 123
0200
0000
0000
0000
,  // measure 124
0000
0000
0000
0000
,  // measure 125
0000
0000
0000
0000
,  // measure 126
0000
0000
0000
0000
,  // measure 127
0000
0000
0000
0000
,  // measure 128
0310
0000
0000
0000
;

//---------------dance-single - ----------------
#NOTES:
     dance-single:
     :
     Hard:
     10:
     0.749,0.910,0.540,0.354,0.063:
0000
0000
0000
0000
,
0000
0000
0000
0000
,
0000
0000
0000
0000
,
0000
0000
0000
0000
,
0000
0000
0000
0000
,
0010
1000
0001
0010
,
0001
0100
0010
1000
,
0100
0010
0100
1000
,
0001
0100
0010
1000
,
0001
0010
0001
0100
,
0010
1000
0100
0010
,
0100
1000
0001
0100
,
0010
1000
0002
0000
,
0013
0001
0010
0000
0100
0000
1000
0100
,
0000
1000
0010
0000
0100
0000
0001
0010
,
0000
0100
1000
0000
0010
0000
1000
0000
,
0010
0100
0001
0100
0010
0000
1000
0010
,
1000
0001
0100
0000
0010
0000
1000
0010
,
0000
0100
0001
0000
0010
0000
0100
1000
,
0100
1000
0010
0100
,
0001
0010
0100
0000
2002
0000
3003
0000
,
1000
0100
1000
0000
0001
0100
0000
0001
,
0100
0000
0010
1000
0000
0001
0100
0000
,
0010
1000
0100
0001
,
0010
0001
0100
0010
,
1000
0010
0100
0001
,
0010
0000
0100
1000
0100
0000
0010
0000
,
0001
0000
0100
0000
0010
1000
0100
0000
,
0010
0001
0100
0000
0010
1000
0100
0000
,
0010
1000
0010
0000
0100
0001
0100
0000
,
0010
0000
1000
0100
1000
0000
0010
0000
,
0100
0010
1000
0100
,
0010
0001
0100
0001
,
0010
0100
1000
0100
,
0010
0000
0001
0100
0001
0000
0010
0000
,
0100
1000
0000
0001
0100
0000
0010
1000
,
0000
0001
0010
0000
0110
0000
0110
0000
,
0012
0003
0102
0003
,
2010
3000
2100
3000
,
0021
0030
0201
0300
,
1200
0300
1020
0030
,
2001
3000
0012
0003
,
0201
0300
1020
0030
,
2001
3000
1200
0300
,
0021
0030
0210
0300
,
2001
3000
1200
0300
,
1020
0030
0102
0003
,
0210
0300
2001
3000
,
1200
0300
0021
0030
,
0102
0003
1020
0030
,
2001
3000
0021
0030
,
0201
0300
1020
0030
,
1200
0300
0220
0330
,
1000
0010
0100
0001
0010
0100
0010
0001
,
0100
0010
1000
0001
0010
0100
1000
0100
,
0010
0001
0100
0010
,
1000
0001
0010
0100
,
1000
0000
0010
0000
0100
0001
0000
0001
,
0100
0000
0010
1000
0000
0100
0010
0000
,
0001
0100
0000
0000
0010
1000
0000
1000
,
0010
0000
0100
0001
0000
0001
1000
0000
,
0010
0100
0001
0010
0001
0100
0010
1000
,
0100
0010
0100
1000
0001
0100
0010
1000
,
0001
0100
0010
1000
,
0001
0010
0100
1000
,
0010
1000
0100
0000
0010
0001
0100
0000
,
0100
0001
0010
0000
0100
1000
0010
0100
,
0001
1000
0001
0010
,
0100
0000
1000
0000
0100
0010
1000
0001
,
0010
0000
0000
0000
0100
0000
0000
0000
1000
0000
0000
0001
0000
0000
0100
0000
,
0010
0000
0000
0100
0000
0000
0001
0000
0010
0000
0100
1000
0000
1000
0001
0100
,
0010
1000
0010
1000
,
0001
0100
0001
0100
,
0001
0010
0001
0010
,
0100
1000
0100
1000
,
0010
1000
0001
0010
0100
0010
0001
0100
,
0010
1000
0001
0010
0100
1000
0010
0100
,
0002
0000
1000
0000
1000
0000
1000
1000
,
1003
0100
1000
0010
,
0100
0001
0010
0100
,
1000
0100
0010
0001
,
1000
0010
0100
0001
,
0100
0000
0110
0000
,
0001
0010
0001
1000
,
0100
0010
0100
1000
,
0001
0100
0010
1000
,
0001
0100
0001
0100
0001
0000
0000
0001
,
0010
0100
1000
0100
,
0010
0001
1000
0010
,
0100
0001
0100
0010
,
1000
0010
0100
0001
0010
0000
0000
0100
,
1000
0000
0100
0000
0010
0000
0001
0010
,
0001
0010
0100
1000
,
0010
0100
0001
0010
,
0001
1000
0001
1000
,
0010
0100
0010
0100
,
0001
0100
0001
0100
,
0010
1000
0010
1000
,
0010
0000
1000
0100
,
1100
0000
0000
0011
0000
0000
0101
0000
,
0101
0000
0000
1010
0000
0000
1100
0000
,
0000
1001
0000
1001
,
0010
0000
1000
0100
0010
0000
0001
0010
,
0100
0000
1000
0000
0100
0000
0010
0001
,
0010
0000
1000
0000
0100
0000
0010
0001
,
0100
1000
0100
0010
,
0001
0010
0001
0100
0010
1000
0001
0010
,
0100
1000
0100
0010
0001
1000
0010
0100
,
0002
0000
0000
0003
,
1001
0000
0000
0000
0000
0000
0000
0000
0001
0000
0000
0100
0000
0000
0000
0000
0001
0000
0010
0000
0000
0000
0000
0100
0000
0000
0000
0000
1000
0000
0000
0000
,
0100
0000
0000
1000
0000
0000
0000
0010
0000
0000
0100
0000
0000
0000
0000
0001
0000
0000
0100
0000
0000
0000
0110
0000
0000
0000
0000
0000
0001
0000
0100
0000
,
1000
1000
0000
1000
0100
0100
0000
0100
,
0010
0010
0000
0010
0001
0001
0000
0001
,
0100
0010
1000
0001
,
0011
0011
1001
0000
,
1100
1100
1001
0000
,
0110
0110
1001
0000
,
1010
1001
0101
0000
,
1001
0000
0010
0100
0010
0000
1001
0000
,
0000
0000
0010
0001
0100
0000
1010
0000
,
0000
0202
0000
0303
,
0010
0000
0001
0100
0010
1000
0001
0000
,
0220
0000
0000
0000
,
0000
0000
0000
0000
,
0000
0000
0000
0000
,
0000
0000
0000
0000
,
0330
0000
0000
0000
,
0110
0000
0000
0000
;

//---------------dance-single - ----------------
#NOTES:
     dance-single:
     :
     Challenge:
     10:
     0.878,1.000,0.388,0.101,0.051:
0000
0000
0000
0000
,
0000
0000
0000
0000
,
0000
0000
0000
0000
,
0000
0000
0000
0000
,
0000
0000
0000
0000
,
1000
0000
0001
0000
0101
0000
0001
0010
,
0100
1000
0100
0000
0010
0000
0001
0100
,
0010
0000
1000
0000
1100
0000
0001
0010
,
0100
1000
0010
0000
0100
0000
0001
0100
,
0010
0000
1000
0000
1100
0000
0100
0010
,
0001
0100
0010
0000
1000
0001
0010
0100
,
1000
0000
0100
0000
0110
0000
0001
0010
,
0001
0100
0010
0000
1000
0001
0010
0001
,
0100
0000
0001
0000
0101
0000
0100
0010
,
1000
0001
0010
0000
0100
0000
1000
0100
,
0010
0000
0001
0000
0110
0000
0010
1000
,
0001
0010
0100
0000
1000
0100
0010
0001
,
1000
0000
0010
0000
0110
0000
0100
0001
,
0010
0001
0100
0000
0010
1000
0001
0010
,
0100
0000
1000
0100
0000
0100
1000
0000
,
0001
0100
0010
0100
0001
1000
0100
0010
,
0100
0000
0010
0000
0110
0000
0100
0001
,
0100
0010
1000
0001
0010
0000
0100
1000
,
0100
0000
0010
0000
0011
0000
0001
0100
,
0010
1000
0001
0010
0100
0000
1000
0100
,
0010
0000
0001
0000
0101
0000
1000
0100
,
0010
0001
0100
0000
0010
0000
1000
0001
,
0100
0000
0010
0000
0110
0000
0001
0100
,
0010
1000
0001
0000
0010
0000
0001
0100
,
0010
0000
1010
0000
0110
0000
0001
0100
,
0010
1000
0001
0000
0010
0000
0100
1000
,
0100
0000
0011
0000
0101
0000
0001
1000
,
0010
0100
0001
0000
0010
0000
0100
1000
,
0100
0000
0011
0000
0101
0000
0010
1000
,
0100
0010
0100
0000
1000
0000
0001
0100
,
0010
0000
1000
0001
0000
0010
0100
0000
,
1000
0000
0100
0010
0001
0100
0010
0000
,
1000
0001
0101
0001
,
0010
0100
1000
0100
0010
0001
1000
0010
,
0100
0001
0100
0010
1000
0000
0001
0010
,
0100
1000
0100
0000
0010
0001
0100
0010
,
1000
0001
0101
0100
,
0010
1000
0100
1000
0010
0100
0001
0010
,
0100
1000
0100
0010
0001
0000
1000
0010
,
1000
0100
0010
0000
0010
0001
0100
0010
,
1000
0010
0100
0001
,
0010
0100
1000
0100
0010
0001
1000
0010
,
0100
0001
0100
0010
1000
0000
0001
0010
,
0001
0100
0010
0000
1000
0010
0100
0001
,
0010
0001
1000
0100
,
0010
0001
0010
0001
0100
0010
1000
0001
,
0010
0001
1000
0100
0010
0001
0100
0000
,
0220
0000
0000
0330
,
1000
0100
1000
0010
0100
0001
0010
0100
,
1000
0100
0010
0001
0100
0010
1000
0001
,
0010
0100
1000
0100
0010
0001
0100
1000
,
0100
0001
0010
0100
1000
0100
0010
0001
,
1000
0000
0100
0000
1000
0010
1000
0001
,
0010
0000
0100
0000
1000
0100
0010
0001
,
0100
0000
0010
0100
0000
0100
0001
0010
,
0100
0000
1000
0100
0000
0010
0001
0100
,
0010
1000
0001
0010
0001
0100
0010
1000
,
0001
0010
0001
0100
0010
1000
0100
0010
,
0100
1000
0001
0100
0010
1000
0001
0010
,
0100
1000
0100
0010
0001
1000
0010
0100
,
0001
0000
0100
0010
0000
0010
1000
0001
,
0010
0001
0100
0010
0000
1000
0100
0010
,
0100
0000
1000
0001
0000
0100
0010
0000
,
1000
0100
0000
0100
1000
0001
0100
0010
,
1000
0000
0000
0000
0000
0000
0000
0001
0010
0000
0000
0000
0000
0000
0000
0000
1100
0000
0000
0001
0000
0000
0100
0000
0010
0000
0000
1000
0000
0000
0001
0000
,
0010
0000
0000
0100
0000
0000
1000
0000
0100
0000
0000
0010
0001
0000
0100
0000
0010
0000
1000
0000
0000
0000
1000
0000
0010
0000
0100
0000
0002
0000
0000
0000
,
1003
0000
0010
1000
0010
0000
0100
0001
,
0100
0000
0001
0010
0001
0000
0010
0100
,
1000
0000
0100
0010
0001
0000
0100
0010
,
1000
0000
0001
0010
0100
0000
1000
0100
,
0010
0001
0100
1000
0100
0001
0010
0100
,
1000
0010
0100
0001
0100
0010
1000
0001
,
0020
0000
0001
0000
0001
0000
0001
0001
,
0031
0100
0001
0100
0001
0000
0001
0010
,
0100
1000
0100
0010
0001
0000
1000
0000
,
0010
0000
1000
0001
0010
0000
0100
1000
,
0000
1000
0100
0010
0001
0000
0100
0000
,
0010
1000
0010
1000
0010
0000
0010
0100
,
0000
0100
0001
0010
0100
0000
1000
0100
,
0000
0100
1000
0000
0010
0000
0100
0001
,
0000
0001
0100
0000
0010
0000
1000
0000
,
0100
0001
1000
0010
0100
0000
1000
0100
,
0000
0010
0001
0000
0100
0010
0000
1000
,
0001
0000
0010
0000
0100
1000
0000
1000
,
0100
0010
0001
0100
,
0001
0100
0010
1000
0001
0000
0100
0010
,
0000
0010
1000
0000
0001
0010
0100
1000
,
0001
0000
0010
0001
0100
0000
0010
1000
,
0100
0000
0100
1000
0010
0100
0001
0100
,
0010
1000
0100
0001
,
0010
0001
0100
1000
,
0010
0100
0001
1000
,
0100
0010
0001
1000
,
0010
0000
0100
0000
,
0101
0000
0000
0011
0000
0000
1100
0000
,
1010
0000
0000
0101
0000
0000
0011
0000
,
0000
1010
0000
0101
,
0001
0000
0010
0100
1000
0100
0010
0001
,
0100
0010
1000
0001
,
0010
0000
0100
1000
0100
0010
0001
0100
,
0010
0000
1000
0000
0001
0000
0010
0001
,
0100
0010
1000
0001
0010
0100
1000
0100
,
0010
0001
1000
0010
0100
0001
0100
0010
,
2000
0000
0000
3000
,
2002
0000
0000
0000
,
0000
0000
0000
3003
,
0001
0101
0000
0000
0100
0110
0000
0000
,
0010
1010
0000
0000
1000
1001
0000
0000
,
0202
0000
0000
0303
,
1010
0000
1010
0000
1001
0000
0001
1000
,
0001
0000
0101
0000
0011
0000
0001
0100
,
0010
0000
1010
0000
1100
0000
0001
0100
,
0001
0000
0011
0000
1100
0000
0010
0100
,
0001
0000
0010
0000
0100
0000
1000
0100
,
1000
0010
0100
0101
,
0000
0000
0011
0000
0000
0000
1000
0100
,
2000
0000
3100
0000
0010
0001
0010
0100
,
2000
0000
0000
0000
,
0000
0000
0000
0000
,
0000
0000
0000
0000
,
0000
0000
0000
0000
,
0000
0000
0000
0000
,
3002
0000
0000
0000
,
0000
0000
0000
0000
,
0000
0000
0000
0000
,
0003
0000
0000
0000
;
