#TITLE:Punishment!;
#SUBTITLE:-Boost Remix-;
#ARTIST:DJ obelisk;
#TITLETRANSLIT:;
#SUBTITLETRANSLIT:;
#ARTISTTRANSLIT:;
#CREDIT:;
#BANNER:;
#BACKGROUND:;
#LYRICSPATH:;
#CDTITLE:;
#MUSIC:Punishment! -Boost Remix- (DDR Edit).mp3;
#OFFSET:-2.780;
#SAMPLESTART:34.110;
#SAMPLELENGTH:12.000;
#SELECTABLE:YES;
#BPMS:0.000=184.000;
#STOPS:;
#BGCHANGES:;

//---------------dance-single - ----------------
#NOTES:
     dance-single:
     :
     Beginner:
     2:
     0.149,0.220,0.172,0.011,0.000:
1000
0000
0000
0000
,
0100
0000
0000
0000
,
0010
0000
0000
0000
,
0001
0000
0000
0000
,
0010
0000
0000
0000
,
0100
0000
0000
0000
,
1000
0000
0000
0000
,
0001
0000
0000
0000
,
0100
0000
0100
0000
,
0100
0000
0000
0000
,
0010
0000
0010
0000
,
0010
0000
0000
0000
,
1000
0000
1000
0000
,
1000
0000
0000
0000
,
0001
0000
0001
0000
,
0001
0000
0000
0000
,
1001
0000
0000
0000
,
0110
0000
0000
0000
,
0110
0000
0000
0000
,
1001
0000
0000
0000
,
1001
0000
0000
0000
,
0110
0000
0000
0000
,
0110
0000
0000
0000
,
1001
0000
0000
0000
,
0001
0000
0001
0000
,
0001
0000
0000
0000
,
1000
0000
1000
0000
,
1000
0000
0000
0000
,
0010
0000
0010
0000
,
0010
0000
0000
0000
,
0100
0000
0100
0000
,
0100
0000
0000
0000
,
0001
0000
0010
0000
,
0100
0000
0000
0000
,
1000
0000
0100
0000
,
0010
0000
0000
0000
,
0001
0000
0100
0000
,
1000
0000
0000
0000
,
1000
0000
0010
0000
,
0001
0000
0000
0000
,
0110
0000
0000
0000
,
1001
0000
0000
0000
,
1001
0000
0000
0000
,
0110
0000
0000
0000
,
0110
0000
0000
0000
,
1001
0000
0000
0000
,
0001
0000
1000
0000
,
0001
0000
0000
0000
,
1000
2000
0000
0000
,
0000
0000
0000
0000
,
0000
0000
0000
0000
,
3000
0000
0000
0000
,
0001
0000
0000
0000
,
1000
0000
0000
0000
,
0001
0000
0000
0000
,
1000
0000
0000
0000
,
0010
0000
0000
0000
,
0100
0000
0000
0000
,
0010
0000
0000
0000
,
0100
0000
0000
0000
,
0110
0000
0000
0000
,
0001
0000
0000
0000
,
0100
0000
0000
0000
,
0010
0000
0000
0000
,
1000
0000
0000
0000
,
0001
0000
0000
0000
,
1000
0000
0000
0000
,
0001
0000
0000
0000
,
1001
0000
0000
0000
;

//---------------dance-single - ----------------
#NOTES:
     dance-single:
     :
     Easy:
     5:
     0.361,0.403,0.269,0.032,0.000:
1000
0100
1000
0010
,
0100
0001
0100
0000
,
0010
1000
0100
0001
,
0100
1000
0010
0000
,
0100
0001
0010
0100
,
1000
0100
0010
0000
,
0010
0001
0100
0010
,
1000
0000
0100
0000
,
1000
0100
1000
0100
,
0010
0100
0010
0100
,
0010
0001
0010
0001
,
0100
0001
0100
0001
,
0100
0010
0100
0010
,
1000
0010
1000
0010
,
1000
0100
1000
0100
,
0010
0100
0010
0000
,
1001
0000
0000
1001
0000
0000
1001
0000
,
0000
0010
1000
0100
,
1100
0000
0000
1100
0000
0000
1100
0000
,
0000
0100
0010
0001
,
0011
0000
0000
0011
0000
0000
0011
0000
,
0000
0001
0100
0010
,
0110
0000
0000
0110
0000
0000
0110
0000
,
0000
0000
0001
0100
0000
0010
1000
0000
,
0010
1000
0100
0000
,
0010
0001
0100
0010
,
0100
0001
0010
0000
,
0100
1000
0100
0000
,
0010
0001
0100
0000
,
0010
1000
0100
1000
,
0010
0100
0001
0000
,
0010
0100
1001
0000
,
0010
1000
0100
0000
,
0010
0001
0100
0000
,
0100
0001
0010
0000
,
0100
1000
0010
0000
,
1000
0100
0001
0000
,
0001
0100
1000
0000
,
1000
0010
0001
0000
,
0001
0010
1000
0000
,
1000
0000
0000
1000
0000
0000
1000
0000
,
0100
0000
0000
0100
0000
0000
0100
0000
,
0010
0000
0000
0010
0000
0000
0010
0000
,
0001
0000
0000
0001
0000
0000
0001
0000
,
0100
0000
0010
0000
,
1000
0000
0001
0000
,
0001
0000
0100
0000
0000
0010
0000
0000
,
1000
0000
0000
0001
0000
0000
0100
0000
,
0010
0000
0100
0000
,
0020
0000
0000
0000
,
0130
0000
0000
0011
0000
0000
0110
0000
,
0000
2200
0000
0000
0000
0000
3300
0000
,
1000
0001
0100
0001
,
1000
0100
0010
0000
,
0001
0100
0010
1000
,
0100
0010
0100
0000
,
1000
0010
0100
0001
,
0010
0100
1000
0000
,
0100
0010
0001
0100
,
0010
1000
0010
0000
,
1000
0000
0100
0000
,
0010
0000
0001
0000
,
0010
0000
0100
0000
,
1000
0000
0001
0000
,
1001
0000
0110
0000
,
1001
0000
0110
0000
,
1100
0000
0011
0000
,
0101
0000
1010
0000
,
1001
0000
0000
0000
;

//---------------dance-single - ----------------
#NOTES:
     dance-single:
     :
     Medium:
     7:
     0.529,0.621,0.269,0.075,0.000: // measure 1
0010
0000
1000
0000
0010
1000
0010
0000
,  // measure 2
0100
0000
0001
0000
0100
0001
0100
0000
,  // measure 3
0001
0000
0010
0000
0001
0010
0001
0000
,  // measure 4
1000
0000
0100
0000
1000
0100
1000
0000
,  // measure 5
0010
0000
1000
0000
0010
1000
0010
0000
,  // measure 6
0100
0000
0001
0000
0010
0100
0010
0000
,  // measure 7
0001
1000
1001
0110
,  // measure 8
0010
1000
0000
1000
0010
0000
0100
0000
,  // measure 9
0001
0000
0100
0000
1000
0100
0001
0100
,  // measure 10
1000
0000
0010
0000
0100
0001
0100
0010
,  // measure 11
1000
0000
0001
0000
0010
0100
1000
0100
,  // measure 12
0010
0000
0001
0000
0100
0010
1000
0010
,  // measure 13
0100
0000
0001
0000
0010
0001
0100
0010
,  // measure 14
1000
0000
0001
0000
0010
0000
0100
1000
,  // measure 15
0100
0010
0001
0100
,  // measure 16
0010
1000
0000
1000
0000
0010
0100
0000
,  // measure 17
1001
0000
0000
0110
0000
0000
1001
0000
,  // measure 18
0000
0000
0001
0100
0010
1000
0100
0000
,  // measure 19
1100
0000
0000
0011
0000
0000
0101
0000
,  // measure 20
0000
0000
0001
0100
1000
0100
0001
0000
,  // measure 21
0101
0000
0000
0011
0000
0000
1100
0000
,  // measure 22
0000
0000
0010
1000
0100
0001
0100
0000
,  // measure 23
1100
0000
0000
0101
0000
0000
0110
0000
,  // measure 24
0000
0000
0001
0100
0000
0100
0001
1000
,  // measure 25
0010
0000
1000
0100
1000
0000
0010
0000
,  // measure 26
0100
0001
0000
0001
0100
0000
0010
0000
,  // measure 27
1000
0000
0001
0000
0010
0000
0001
0100
,  // measure 28
0001
0000
0010
0100
0000
1000
0100
0000
,  // measure 29
0010
0000
0001
0100
0001
0000
0100
0000
,  // measure 30
0010
1000
0000
1000
0010
0000
0100
0000
,  // measure 31
0001
0000
0010
0001
0010
0000
0000
0001
,  // measure 32
1000
0000
0100
0010
0000
0010
0100
0000
,  // measure 33
0001
0101
1000
1100
,  // measure 34
0001
0010
0000
0010
0001
0000
0100
0000
,  // measure 35
0010
0000
1000
0000
0100
0000
0000
1000
,  // measure 36
0010
0000
0100
0001
0000
0001
0100
0000
,  // measure 37
0001
0101
1000
1100
,  // measure 38
0001
0010
0000
0010
0001
0000
0100
0000
,  // measure 39
0010
0000
1000
0100
1000
0000
0000
0010
,  // measure 40
0100
0000
0001
0100
0000
0010
1000
0000
,  // measure 41
0100
0000
0000
0100
0000
0000
0100
0000
,  // measure 42
0010
0000
0000
0010
0000
0000
0010
0000
,  // measure 43
0001
0000
0000
0001
0000
0000
0001
0000
,  // measure 44
1000
0000
0000
1000
0000
0000
1000
0000
,  // measure 45
0010
0010
0100
0100
,  // measure 46
0001
0001
1000
1000
,  // measure 47
0010
0000
1001
0000
0000
1000
0000
0001
,  // measure 48
0200
0000
0000
0020
0000
0000
0330
0000
,  // measure 49
0100
0010
0100
0010
1000
0001
1000
0001
,  // measure 50
2000
3002
0203
0310
,  // measure 51
1010
0000
0000
1100
0000
0000
0101
0000
,  // measure 52
0000
0022
0000
0000
0000
0000
0033
0000
,  // measure 53
1000
0000
0100
0000
0010
0001
0010
0000
,  // measure 54
0100
0000
1000
0000
0010
0100
0010
0000
,  // measure 55
1000
0000
0100
0000
0010
0001
0100
0000
,  // measure 56
0010
0000
1000
0000
0001
0010
0100
0000
,  // measure 57
1000
0000
0100
0000
0010
0001
0100
0000
,  // measure 58
0010
0000
1000
0000
0100
1000
0001
0100
,  // measure 59
0010
0000
1000
0000
0001
0010
0001
0000
,  // measure 60
0100
0000
0010
0000
1000
0100
1000
0001
,  // measure 61
0100
0010
0000
1000
0000
0100
0000
0010
,  // measure 62
0000
0001
0000
1000
0000
0001
0000
0010
,  // measure 63
0000
0100
0000
1000
0000
0100
0000
0010
,  // measure 64
0001
0100
0010
0000
1000
0000
0010
0100
,  // measure 65
0001
0100
0001
0100
,  // measure 66
0010
1000
0010
1000
,  // measure 67
0001
1000
0001
1000
,  // measure 68
0010
0100
0000
0001
0000
1001
0000
0110
;

//---------------dance-single - ----------------
#NOTES:
     dance-single:
     :
     Hard:
     9:
     0.691,0.694,0.237,0.032,0.027:
0010
1000
0001
0010
0100
1000
0100
0010
,
0001
1000
0010
0100
0010
1000
0001
0010
,
0100
1000
0100
0010
0001
1000
0001
0100
,
0010
1000
0001
0010
0100
1000
0100
0010
,
0001
1000
0010
0100
0001
0100
1000
0100
,
0001
0010
0001
0100
0010
1000
0100
0010
,
0100
1000
0010
0001
0100
0000
0101
0000
,
1000
0000
0100
0000
0000
0000
0010
0000
0001
0010
0001
0000
0010
0000
0100
0000
,
1000
0100
0001
0100
1000
0010
0001
0010
,
1000
0100
0001
0100
1000
0010
0001
0010
,
1000
0100
0001
0010
1000
0100
0001
0010
,
0001
0100
1000
0010
0001
0100
1000
0010
,
1000
0100
0010
0100
1000
0001
0100
0010
,
1000
0000
0001
0000
0010
0000
0001
0000
0100
0000
0010
0000
1000
0100
1000
0100
,
1000
0010
0100
0001
0010
0100
1000
0100
,
0010
0000
0001
0000
1000
0000
0001
0000
0000
0000
0100
0010
0100
0000
0010
0000
,
1001
0000
0000
1100
0000
0000
0101
0000
,
0000
0000
0001
0100
1000
0100
0001
0010
,
1010
0000
0000
1100
0000
0000
0011
0000
,
0000
0000
0001
0100
0010
1000
0100
0010
,
0110
0000
0000
0011
0000
0000
0101
0000
,
0000
0000
0001
0100
0010
1000
0100
0010
,
0110
0000
0000
1100
0000
0000
0011
0000
,
0000
0000
0000
0000
0001
0000
0100
0000
0000
0000
0100
0001
0100
0000
0010
0000
,
1000
0000
0100
1000
0001
0000
0100
0000
,
0010
1000
0000
1000
0010
0000
0100
0000
,
0001
0000
0101
0000
1100
0000
0001
0100
,
0010
0000
1000
0010
0000
0010
0100
0001
,
0010
0000
0100
1000
0100
0000
0010
0000
,
0001
0100
0000
0100
0001
0000
0010
0000
,
0001
0000
1000
0100
1000
0000
0010
0100
,
0001
0100
0000
0010
0000
1000
0100
0010
,
0001
0000
1000
0100
0001
0000
0001
0100
,
1000
0010
0000
0010
1000
0000
0010
0000
,
0100
0000
0001
0000
0100
0000
0010
1000
,
0010
0000
0100
0001
0000
0010
0100
1000
,
0100
0000
0010
0001
0010
0000
0001
0000
,
0100
0010
0000
0010
1000
0000
0010
0100
,
0010
0000
1000
0001
0010
0000
0100
1000
,
0100
0010
0000
0001
0000
1000
0010
0100
,
0001
0100
0000
0100
0001
0000
0001
0100
,
0010
1000
0000
1000
0010
0000
0010
1000
,
0100
1000
0000
1000
0100
0000
0100
1000
,
0001
0010
0000
0010
0001
0000
0001
0010
,
0100
1000
0000
1000
0100
0010
0000
0100
,
0010
0001
0000
0010
0001
0010
0000
0100
,
1000
0000
1020
0000
0130
0001
0000
0100
,
0010
0000
1000
0100
0000
0010
0001
0010
,
1000
0100
0010
0001
1000
0010
0100
0001
,
1000
0001
1000
0001
0100
0010
0100
0010
,
0110
0000
0000
1100
0000
0000
0011
0000
,
0000
2002
0000
0000
0000
0000
3003
0000
,
0010
1000
0010
1000
0001
0100
0001
0100
,
0001
0010
0001
0010
0100
0010
0100
0010
,
0100
1000
0100
1000
0010
1000
0010
1000
,
0010
0100
0010
0100
0001
0100
0001
0100
,
0001
0010
0100
1000
0100
0010
0001
1000
,
0010
0100
0001
1000
0010
0100
0001
0100
,
0010
1000
0001
0010
0100
1000
0100
0010
,
0001
1000
0010
0100
0001
0100
0010
1000
,
0001
0000
0010
0100
0010
0000
0100
1000
,
0100
0000
0010
0100
0010
0000
0001
0010
,
0001
0000
0001
0100
0001
0000
1000
0010
,
1000
0010
0100
0000
0001
0000
0100
0010
,
0100
0010
0100
0010
,
1000
0100
0010
0001
,
0010
0100
1000
0001
,
0100
0010
0000
1000
0000
1001
0000
0110
;
