#TITLE:ゴクラクハスノウテナ;
#SUBTITLE:;
#ARTIST:Luv Strawberry's Delta;
#TITLETRANSLIT:Gokuraku hasu no Utena;
#SUBTITLETRANSLIT:;
#ARTISTTRANSLIT:;
#CREDIT:;
#BANNER:banner.png;
#BACKGROUND:bgblack.PNG;
#LYRICSPATH:;
#CDTITLE:;
#MUSIC:Gokuraku hasu no Utena.mp3;
#OFFSET:1.160;
#SAMPLESTART:55.710;
#SAMPLELENGTH:12.000;
#SELECTABLE:YES;
#BPMS:0.000=190.000;
#STOPS:;
#BGCHANGES:0.000=[BMS_BOF2011] Gokuraku hasu no Utena _ Luv Strawberry's Delta.avi=1.000=1=1=0,
296.000=bgblack.PNG=1.000=1=0=1,
99999=-nosongbg-=1.000=0=0=0 // don't automatically add -songbackground-
;

//---------------dance-single - ----------------
#NOTES:
     dance-single:
     :
     Beginner:
     2:
     0.176,0.258,0.000,0.011,0.000:
0000
0000
0000
0000
,
0000
0000
0000
0000
,
0000
0000
0000
0000
,
0000
0000
0000
0000
,
0000
0000
0000
0000
,
0000
0000
0000
0000
,
0000
0000
0000
0000
,
0010
0000
0000
0000
,
0001
0000
0000
0000
,
0100
0000
0000
0000
,
1000
0000
0000
0000
,
0010
0000
0010
0000
,
0010
0000
0000
0000
,
0100
0000
0100
0000
,
0100
0000
0000
0000
,
0001
0000
0001
0000
,
0001
0000
0000
0000
,
1000
0000
1000
0000
,
1000
0000
0000
0000
,
0010
0000
1000
0000
,
0010
0000
1000
0000
,
0001
0000
0100
0000
,
0001
0000
0001
0000
,
1000
0000
0010
0000
,
1000
0000
0010
0000
,
0100
0000
0001
0000
,
0010
0000
0000
0000
,
0100
0000
0000
0000
,
1000
0000
0100
0000
,
1000
0000
0000
0000
,
0001
0000
0010
0000
,
0001
0000
0000
0000
,
0100
0000
0010
0000
,
0100
0000
0000
0000
,
0001
0000
1000
0000
,
0001
0000
0000
0000
,
0100
0000
0010
0000
,
0100
0000
0010
0000
,
1000
0000
0001
0000
,
1000
0000
0001
0000
,
0010
0000
0001
0000
,
0100
0000
1000
0000
,
0010
0000
0100
0000
,
0001
0000
1000
0000
,
0010
0000
0000
0000
,
0010
0000
1000
0000
,
0010
0000
1000
0000
,
0001
0000
0100
0000
,
0001
0000
0100
0000
,
0001
0000
0010
0000
,
0001
0000
0010
0000
,
0100
0000
1000
0000
,
0100
0000
0000
0000
,
0010
0000
0001
0000
,
0010
0000
0001
0000
,
1000
0000
0100
0000
,
1000
0000
0100
0000
,
1000
0000
0010
0000
,
1000
0000
0010
0000
,
0100
0000
0001
0000
,
0100
0000
0000
0000
,
0001
0001
0001
0001
,
0001
0000
0001
0000
,
0100
0100
0100
0100
,
0100
0000
0100
0000
,
0010
0010
0010
0010
,
0010
0000
0010
0000
,
1000
1000
1000
1000
,
1000
0000
0001
0000
,
2000
0000
0000
0000
,
3000
0000
0000
0000
;

//---------------dance-single - ----------------
#NOTES:
     dance-single:
     :
     Easy:
     4:
     0.317,0.369,0.063,0.053,0.000:
0000
0000
0000
0000
,
0000
0000
0000
0000
,
0000
0000
0000
0000
,
0000
0000
0000
0000
,
0000
0000
0000
0000
,
0000
0000
0000
0000
,
0000
0000
0000
0000
,
1000
0100
1000
0000
,
0001
0010
0001
0000
,
0100
0000
0010
0000
,
0220
0000
0330
0000
,
0001
0100
0001
0100
,
0010
1000
0010
1000
,
0100
1000
0100
1000
,
1100
0000
1100
0000
,
1000
0100
1000
0100
,
0010
0001
0010
0001
,
0100
0001
0100
0001
,
0101
0000
0000
0000
,
0100
0010
0100
0010
,
1000
0001
1000
0001
,
0010
0100
1000
0010
,
0110
0000
0000
0000
,
0100
0001
0010
0001
,
0100
1000
0010
1000
,
0100
0010
0001
1000
,
0010
0000
0100
0000
,
0000
0000
0000
0000
,
0001
0100
0001
0000
,
0001
0000
0100
0000
,
0010
1000
0010
0000
,
1000
0000
0010
0000
,
0100
0001
0010
0001
,
0100
0010
0100
1000
,
0100
0010
0001
0100
,
0010
0000
0000
0000
,
1000
0100
0001
0100
,
1000
0000
1000
0000
,
0010
0001
0010
1000
,
0010
0000
0100
0000
,
0001
0100
0001
0100
,
0010
1000
0010
1000
,
0010
0001
0100
1000
,
0010
0000
0100
0000
,
0001
0000
0000
0000
,
1000
0001
1000
0001
,
0100
0010
0100
0000
,
0001
0010
0001
0100
,
0010
1000
0100
0000
,
0100
1000
0010
0100
,
0001
0010
0001
0001
,
0010
0100
1000
0010
,
0100
0000
0001
0000
,
0010
0001
0010
0001
,
1000
0100
1000
0000
,
0010
0100
0010
0100
,
0001
1000
0001
0000
,
1000
0010
0100
0001
,
0010
0100
0010
0000
,
0001
0100
0010
1000
,
0200
0000
0000
0000
,
0310
0100
0010
0100
,
0001
0100
0001
0100
,
0010
1000
0010
1000
,
0001
1000
0001
1000
,
0010
0100
0001
0010
,
1000
0010
0100
0001
,
0010
0001
0100
0010
,
1000
0100
0010
0001
,
2002
0000
0000
0000
,
3003
0000
0000
0000
;

//---------------dance-single - ----------------
#NOTES:
     dance-single:
     :
     Medium:
     7:
     0.462,0.483,0.032,0.042,0.026:
0000
0000
0000
0000
,
0000
0000
0000
0000
,
0000
0000
0000
0000
,
0000
0000
0000
0000
,
0000
0000
0000
0000
,
0000
0000
0000
0000
,
0000
0000
0000
0000
,
0001
0000
0100
0000
0001
0100
0001
0000
,
0100
0000
0010
0000
0100
0010
0100
0000
,
0010
0000
1000
0000
0010
1000
0010
0000
,
1000
0000
0001
0000
,
1000
0000
0100
0000
0010
0001
0010
0000
,
0001
0000
0100
0000
0010
1000
0010
0000
,
1000
0000
0001
0000
0010
0100
1000
0000
,
0100
0000
0010
0000
,
0100
0000
1000
0000
0001
0100
0001
0000
,
0010
0000
0100
0000
1000
0100
0010
0000
,
0001
0000
1000
0000
0010
0100
0010
0000
,
0100
0010
0100
0010
,
1000
0000
0001
0000
0010
0001
0010
0000
,
0100
0000
1000
0000
0001
0100
0001
0000
,
0010
0000
0100
0000
1000
0010
0100
0000
,
0110
0000
1001
0000
,
0001
0000
0010
0000
0001
0100
0010
0000
,
1000
0000
0100
0000
0010
0100
1000
0000
,
0010
0000
0001
0100
0010
1000
0001
0010
,
0100
0000
0000
0000
1000
0000
0000
0000
0001
0000
0000
0100
0000
0000
0110
0000
,
0000
0000
0000
0000
,
0010
0000
1000
0100
0000
0100
1000
0000
,
0010
0000
0100
0001
0000
0001
0100
0000
,
0010
0000
1000
0001
0000
0001
1000
0000
,
0010
0000
0100
0000
0010
0000
0100
0001
,
0100
0000
0010
0000
1000
0100
1000
0001
,
0010
0000
0100
0000
1000
0100
0010
0001
,
1000
0000
0010
0000
0100
0001
0010
0100
,
2000
0000
0000
0000
,
3001
0000
0100
0000
0010
1000
0010
0000
,
0100
0000
0000
0001
0100
0000
0010
0000
,
1000
0000
0001
0000
0010
0100
1000
0100
,
0010
0000
0000
0001
0000
0000
1000
0010
,
0100
0001
0010
0100
1000
0000
0010
0000
,
0100
0001
0010
0100
0010
0000
0001
0000
,
0100
0000
1000
0100
0001
0000
0001
0100
,
2000
0000
0000
0000
3010
0100
0010
0000
,
0100
0000
0000
0100
0000
0000
0100
0000
,
1000
0000
0010
0100
0000
0100
0010
0000
,
1000
0001
0000
0001
1000
0000
0010
0000
,
0100
0000
0001
0010
0000
0010
0001
0000
,
1000
0100
0000
0100
1000
0000
0010
0000
,
0100
0000
0001
0010
0000
0010
0001
0000
,
0100
0010
1000
0100
,
1000
0000
0010
0100
0000
0100
0010
0000
,
1000
0001
1000
0001
,
0100
0000
0010
1000
0000
1000
0010
0000
,
0100
0001
0000
0001
0100
0000
0001
0000
,
0010
0000
0001
0010
0000
0010
0001
0000
,
1000
0100
0000
0100
1000
0000
0010
0000
,
0100
0000
0001
0000
0100
0001
0100
0000
,
0010
0000
1000
0000
0010
1000
0010
0000
,
0100
0000
0001
0000
0010
0100
1000
0000
,
0020
0000
0000
0000
,
1030
0000
0100
0000
0010
0001
0100
0001
,
0010
0000
0100
0000
1000
0010
1000
0100
,
0010
0000
0100
0000
1000
0001
0100
0010
,
1000
0000
0010
0000
0100
0001
0010
0100
,
1000
0000
0100
0000
0010
0100
0010
0100
,
0010
0000
0001
0000
0100
0010
0100
0010
,
0100
0000
0001
0000
0010
0100
1000
0100
,
0010
0000
0010
0001
0000
0001
0100
0000
0100
0010
0000
0010
,
2000
0000
0000
0000
,
0000
0000
3000
0000
;

//---------------dance-single - ----------------
#NOTES:
     dance-single:
     :
     Hard:
     9:
     0.645,0.631,0.074,0.084,0.158: // measure 1
0000
0000
0000
0000
,  // measure 2
0000
0000
0000
0000
,  // measure 3
0000
0000
0000
0000
,  // measure 4
0000
0000
0000
0000
,  // measure 5
0000
0000
0000
0000
,  // measure 6
0000
0000
0000
0000
,  // measure 7
0000
0000
0000
0000
0000
0000
0010
0100
,  // measure 8
0001
0000
0000
0001
0000
0000
0001
0000
0000
0000
0010
0000
0100
0000
1000
0000
,  // measure 9
0010
0000
0000
0010
0000
0000
0010
0000
0100
0000
0001
0000
0010
0000
0100
0000
,  // measure 10
1000
0010
0100
0001
0000
0010
0001
0100
,  // measure 11
0020
0000
0000
0000
,  // measure 12
1030
0100
0010
0001
1000
0010
0100
0010
,  // measure 13
1000
0001
0010
0100
1000
0100
0010
0001
,  // measure 14
1000
0010
0100
0001
0010
0100
1000
0010
,  // measure 15
0100
0000
0110
0000
,  // measure 16
0001
0010
0001
0100
0010
1000
0001
0010
,  // measure 17
0100
1000
0100
0010
0001
1000
0010
0100
,  // measure 18
0010
1000
0001
0010
0100
1000
0100
0010
,  // measure 19
0001
0001
0100
0100
0000
0110
0000
0000
,  // measure 20
0010
1000
0100
0010
0001
1000
0010
0100
,  // measure 21
0010
1000
0001
0010
0100
1000
0100
0001
,  // measure 22
0100
0010
1000
0001
0010
1000
0010
0001
,  // measure 23
0100
0000
0110
0000
,  // measure 24
0010
1000
0100
0010
0001
0010
0100
1000
,  // measure 25
0010
0100
0001
0100
0010
1000
0001
0010
,  // measure 26
0100
1000
0010
0100
0001
0010
0100
1000
,  // measure 27
0010
0000
0100
0000
0110
0000
0000
0000
0101
0000
0000
1010
0000
0000
2002
0000
,  // measure 28
0000
0000
3003
0000
,  // measure 29
0010
1000
0100
0010
0000
0010
0100
1000
,  // measure 30
0001
0100
0010
1000
0001
0010
0100
0010
,  // measure 31
0000
0010
0001
0100
0000
0100
0010
1000
,  // measure 32
0001
0010
0100
1000
0100
0010
0001
1000
,  // measure 33
0010
0100
0001
0100
0000
0010
1000
0001
,  // measure 34
0000
0010
0100
1000
0100
0010
0001
0100
,  // measure 35
1000
0100
0001
0010
0000
0010
0100
1000
,  // measure 36
0002
0100
0010
0100
0010
1000
0010
1000
,  // measure 37
0013
1000
0001
0010
0100
1000
0100
0010
,  // measure 38
0001
0000
0000
0100
0000
0000
0010
0000
1000
0000
0000
0000
0100
0000
1000
0000
,  // measure 39
0010
0000
0000
0100
0000
0000
0001
0000
0010
0000
0100
0000
0010
0000
0001
0000
,  // measure 40
1000
0000
0000
0010
0000
0000
0100
0000
0000
0001
0000
0000
0010
0000
0100
0000
,  // measure 41
1000
0000
0000
0001
0000
0000
0100
0000
0010
0000
1000
0000
0010
0000
0100
0000
,  // measure 42
0001
0000
0000
0010
0000
0000
0100
0000
1000
0000
0000
0000
0000
0000
0100
0000
,  // measure 43
0010
0000
0000
0100
0000
0000
1000
0000
0001
0000
0000
0100
0000
0000
0010
0000
,  // measure 44
2000
0000
0000
0000
3020
0100
0100
0000
,  // measure 45
0130
0000
0000
0010
0000
0000
1000
0000
0000
0001
0000
0000
0100
0000
0010
0000
,  // measure 46
1000
0100
0010
0001
0000
0100
0000
0010
,  // measure 47
1000
0000
0000
0010
0000
0000
0100
0000
0001
0000
0000
0000
0010
0000
0001
0000
,  // measure 48
0100
0010
1000
0001
0000
0010
0000
0100
,  // measure 49
1000
0000
0000
0100
0000
0000
0010
0000
0001
0000
0000
0000
1000
0000
0010
0000
,  // measure 50
0100
0000
0000
0001
0000
0000
0010
0000
0000
0000
0001
0000
0100
0000
0010
0000
,  // measure 51
1000
0000
0000
0001
0000
0000
0010
0000
0100
0000
0000
0000
1000
0000
0100
0000
,  // measure 52
0010
0001
1000
0010
0000
0100
0001
0010
,  // measure 53
0100
0000
0000
1000
0000
0000
0001
0000
0020
0000
0000
0000
0130
0000
0000
0000
,  // measure 54
1000
0001
0100
0010
0000
1000
0000
0010
,  // measure 55
1000
0000
0000
0100
0000
0000
0001
0000
0010
0000
0000
0000
0001
0000
0100
0000
,  // measure 56
0010
1000
0001
0010
0000
0100
0000
1000
,  // measure 57
0100
0000
0000
1000
0000
0000
0010
0000
0001
0000
0000
0000
0100
0000
0010
0000
,  // measure 58
1000
0000
0000
0100
0000
0000
0010
0000
0000
0000
0100
0000
1000
0000
0010
0000
,  // measure 59
0100
0000
0000
0001
0000
0000
0010
0000
0100
0000
0000
0000
1000
0000
0010
0000
,  // measure 60
0100
0001
0010
0001
0000
0010
0100
1000
,  // measure 61
0000
0010
0100
0001
0010
0100
1000
0010
,  // measure 62
0100
0001
0010
0100
1000
0010
0100
0010
,  // measure 63
1000
0100
0001
0100
1000
0010
0001
0010
,  // measure 64
1000
0100
0010
0100
1000
0001
0100
0010
,  // measure 65
1000
0001
0010
0100
1000
0100
0010
0001
,  // measure 66
1000
0010
0100
0001
0100
0010
1000
0001
,  // measure 67
0010
0100
1000
0100
0010
0001
1000
0010
,  // measure 68
0100
0001
0100
0010
1000
0001
0010
0100
,  // measure 69
1000
0100
1000
0001
0010
0001
0100
0010
0100
0001
0010
0100
,  // measure 70
2000
0000
0000
0000
,  // measure 71
0000
0000
3000
0000
;
