#TITLE:Air;
#SUBTITLE:;
#ARTIST:SHIKI;
#TITLETRANSLIT:;
#SUBTITLETRANSLIT:;
#ARTISTTRANSLIT:;
#CREDIT:;
#BANNER:;
#BACKGROUND:;
#LYRICSPATH:;
#CDTITLE:;
#MUSIC:Air (DDR Edit).mp3;
#OFFSET:-5.100;
#SAMPLESTART:37.110;
#SAMPLELENGTH:12.000;
#SELECTABLE:YES;
#BPMS:0.000=180.000;
#STOPS:;
#BGCHANGES:;

//---------------dance-single - ----------------
#NOTES:
     dance-single:
     :
     Beginner:
     1:
     0.140,0.156,0.009,0.000,0.000:
0000
1000
0000
0001
,
0000
1000
0000
0001
,
0000
0100
0000
0010
,
0000
0100
0000
0010
,
0000
1000
0000
0100
,
0000
0010
0000
0001
,
0000
0010
0000
0100
,
0000
0000
0000
0000
,
1000
0000
0100
0000
,
1000
0000
0000
0000
,
0001
0000
0010
0000
,
0001
0000
0000
0000
,
0100
0000
0010
0000
,
0100
0000
0000
0000
,
0001
0000
1000
0000
,
0001
0000
0000
0000
,
1000
0000
0100
0000
,
0010
0000
0000
0000
,
0001
0000
0010
0000
,
0100
0000
0000
0000
,
1000
0000
0001
0000
,
0100
0000
0000
0000
,
0001
0000
1000
0000
,
0100
0000
0000
0000
,
0010
0000
0001
0000
,
0010
0000
0001
0000
,
1000
0000
0100
0000
,
1000
0000
0000
0000
,
0010
0000
0100
0000
,
0010
0000
0100
0000
,
0001
0000
0010
0000
,
0001
0000
0000
0000
,
1000
0000
1000
0000
,
0100
0000
0100
0000
,
0010
0000
0010
0000
,
0001
0000
0001
0000
,
0100
0000
0100
0000
,
0010
0000
0010
0000
,
1000
0000
1000
0000
,
0001
0000
0000
0000
,
1000
0000
0000
0000
,
0100
0000
0000
0000
,
0010
0000
0000
0000
,
0001
0000
0000
0000
,
0010
0000
0000
0000
,
0100
0000
0000
0000
,
1000
0000
0000
0000
,
0001
0000
0000
0000
,
1000
0000
0000
0000
,
0010
0000
0000
0000
,
0001
0000
0000
0000
,
0100
0000
0000
0000
,
0001
0000
0000
0000
,
0010
0000
0000
0000
,
1000
0000
0000
0000
,
0100
0000
0000
0000
,
0100
0000
0100
0000
,
0100
0000
0100
0000
,
0100
0000
0100
0000
,
0100
0000
0000
0000
,
0010
0000
0010
0000
,
0010
0000
0010
0000
,
0010
0000
0010
0000
,
0010
0000
0000
0000
,
0001
0000
0001
0000
,
0001
0000
0001
0000
,
0001
0000
0001
0000
,
0001
0000
0000
0000
,
1000
0000
1000
0000
,
1000
0000
1000
0000
,
1000
0000
1000
0000
,
1000
0000
0000
0000
,
1001
0000
0000
0000
;

//---------------dance-single - ----------------
#NOTES:
     dance-single:
     :
     Easy:
     4:
     0.263,0.320,0.009,0.043,0.000:
0000
1000
0000
1000
,
0000
0001
0000
0001
,
0000
0100
0000
0100
,
0000
0010
0000
0010
,
0010
0010
0010
0010
,
1000
1000
1000
1000
,
0100
0100
0100
0100
,
0002
0000
0000
0000
,
1003
0100
1000
0100
,
0010
0001
0010
0000
,
0001
0100
0001
0100
,
0010
1000
0010
0000
,
0010
1000
0100
0001
,
0100
1000
0010
0000
,
0010
0001
0100
1000
,
0100
0001
0010
0000
,
0001
0100
0001
0000
,
1000
0010
1000
0000
,
0001
0010
0001
0000
,
1000
0100
1000
0000
,
0001
0100
0001
0000
,
0010
0001
0010
0000
,
1000
0100
1000
0000
,
0020
0000
0000
0030
,
1000
0000
0100
0000
,
1000
0100
1000
0000
,
0010
0000
0100
0000
,
0001
0100
0001
0000
,
0100
0000
0010
0000
,
1000
0100
1000
0000
,
0010
0000
0100
0000
,
0001
0010
0001
0000
,
0010
0000
0001
0000
,
0100
0010
1000
0000
,
0100
0000
1000
0000
,
0010
0100
0001
0000
,
0010
0000
0001
0000
,
0100
0010
1000
0000
,
0100
0000
0010
0000
,
0001
0010
0001
0000
,
0100
0000
0100
0000
,
0010
0000
0010
0000
,
1000
0000
0100
0000
,
0010
0000
0001
0000
,
0001
0000
0010
0000
,
0100
0000
1000
0000
,
0010
0000
0001
0000
,
0100
0000
1000
0000
,
0010
0000
0010
0000
,
0100
0000
0100
0000
,
0001
0000
0001
0000
,
1000
0000
1000
0000
,
1000
0000
0100
0000
,
0010
0000
0001
0000
,
0010
0000
0100
0000
,
2000
0000
0000
3000
,
1000
0010
1000
0010
,
0100
0001
0100
0001
,
0010
0001
0010
0001
,
1000
0100
1000
0100
,
1000
0010
0100
0001
,
0010
0001
0100
1000
,
0010
1000
0001
0010
,
0100
1000
0010
0100
,
0001
0001
0100
0100
,
0010
0010
1000
1000
,
0010
0010
0100
0100
,
0001
0001
1000
1000
,
0001
0100
0010
0100
,
0001
0010
0100
1000
,
0010
1000
0100
0010
,
0001
0100
0010
1000
,
2002
0000
0000
0000
,
0000
0000
0000
0000
,
3003
0000
0000
0000
;

//---------------dance-single - ----------------
#NOTES:
     dance-single:
     :
     Medium:
     6:
     0.417,0.395,0.000,0.035,0.000:
1000
0010
0000
0010
,
1000
0001
0000
0001
,
0100
0010
0000
0010
,
1000
0100
0000
0100
,
1000
0001
1000
0001
,
0100
0010
0100
0010
,
1000
0000
0001
0000
1000
0001
1000
0001
,
2000
0000
0000
0000
,
3001
0000
0100
0000
0010
1000
0100
0000
,
0000
0010
0100
0000
1000
0001
0100
0000
,
0010
0000
1000
0000
0001
0010
0001
0000
,
0100
0000
0010
0000
1000
0001
0010
0000
,
0100
0000
1000
0000
0100
0010
0001
0000
,
1000
0000
0010
0000
0100
0001
0100
0000
,
0010
0000
1000
0000
0001
0010
0100
0000
,
1000
0000
0100
0000
0010
0001
1000
0000
,
0010
0000
0100
0000
0001
0100
0010
0000
,
1000
0000
0100
0000
0001
0100
0010
0000
,
1000
0000
0001
0000
0010
0100
1000
0000
,
0100
0000
0010
0000
0001
1000
0010
0000
,
0100
0000
0001
0000
0100
0010
1000
0000
,
0001
0000
0010
0000
0100
1000
0100
0000
,
0010
0000
0001
0000
1000
0010
0100
0000
,
0002
0000
0000
0000
,
0013
0000
1000
0000
0001
0010
0001
0000
,
0100
0000
0010
0000
1000
0001
0010
0000
,
0100
0000
1000
0000
0100
0010
0001
0000
,
1000
0000
0010
0000
0100
0001
0100
0000
,
0010
0000
1000
0000
0001
0010
0001
0000
,
0100
0000
0010
0000
1000
0001
0010
0000
,
0100
0000
1000
0000
0100
0010
0001
0000
,
1000
0000
0010
0000
0100
0001
0000
0001
,
0010
0000
0001
0000
0100
0010
1000
0000
,
0100
0000
1000
0000
0010
0100
0001
0000
,
0100
0000
0010
0000
1000
0001
0010
0000
,
0100
0000
1000
0000
0100
0010
0000
0010
,
0100
0000
0001
0000
0010
0100
1000
0000
,
0100
0000
0010
0000
0001
1000
0010
0000
,
0100
0000
0001
0000
0100
0010
1000
0000
,
0001
0000
0010
0000
0100
1000
0001
0100
,
0010
1000
0010
1000
,
0010
0000
1000
0000
0010
1000
0010
0000
,
0100
0001
0100
0001
,
0100
0000
0001
0000
0100
0001
0100
0000
,
0001
0010
0001
0010
,
0001
0000
0010
0000
0001
0010
0001
0000
,
1000
0100
1000
0100
,
1000
0000
0100
0000
1000
0100
1000
0000
,
0010
0100
0010
0100
,
0010
0100
0010
0000
0100
0010
0100
0000
,
0001
1000
0001
1000
,
0001
1000
0001
0000
1000
0001
1000
0000
,
0001
0100
0001
0100
,
0001
0100
0001
0000
0100
0001
0100
0000
,
0010
0000
1000
0000
0010
1000
0010
0000
,
2000
0000
0000
0000
,
3001
0100
0001
0100
,
0010
0000
1000
0000
0010
1000
0010
0000
,
1000
0001
0010
0100
,
1000
0000
0100
0000
0010
0001
1000
0010
,
0100
0001
0100
0010
,
1000
0000
0001
0000
0010
0100
1000
0000
,
0100
0010
0001
1000
,
0010
0000
0100
0000
0001
1000
0001
1000
,
0001
0010
0100
1000
,
0100
0000
0010
0000
0001
1000
0010
0000
,
0100
0001
0100
0010
,
1000
0000
0001
0000
0010
0100
1000
0100
,
0010
0001
1000
0010
,
0100
0000
0001
0000
0100
0010
1000
0000
,
0001
0010
0100
1000
,
0100
0000
0010
0000
0001
1000
0010
0100
,
0002
0000
0000
0000
,
0000
0000
0000
0000
,
0000
0000
0000
0000
,
0000
0000
0000
0000
,
0003
0000
0000
0000
;

//---------------dance-single - ----------------
#NOTES:
     dance-single:
     :
     Hard:
     8:
     0.597,0.641,0.009,0.043,0.017:
1000
0000
0100
0000
0000
0100
1000
0000
,
0001
0000
0010
0000
0000
0010
0001
0000
,
0100
0000
0010
0000
0000
0010
0100
0000
,
0001
0000
1000
0000
0000
1000
0001
0000
,
1000
0001
1000
0001
1000
0001
1000
0001
,
1000
0001
1000
0001
1000
0001
1000
0001
,
1000
0001
1000
0001
1000
0001
1000
0001
,
2000
0000
0000
0000
,
3010
1000
0100
0010
0100
1000
0001
0000
,
0100
0010
1000
0001
0010
0100
1000
0000
,
0100
0010
0001
1000
0010
0100
0001
0000
,
0010
0001
0100
0000
0010
1000
0100
0000
,
1000
0010
0100
0001
0010
0100
1000
0000
,
0010
0100
0001
0010
0001
0100
0010
0000
,
1000
0100
0010
0100
1000
0001
0100
0000
,
0010
1000
0001
0000
0010
0100
1000
0000
,
0100
0010
0001
1000
0010
0100
0001
0010
,
0100
1000
0100
0010
0001
1000
0010
0000
,
0010
1000
0100
0010
0100
1000
0001
0100
,
0010
1000
0001
0010
0100
1000
0100
0000
,
0010
0001
0100
0010
1000
0100
0010
0100
,
1000
0001
0100
0010
1000
0001
0010
0000
,
0010
0001
0100
1000
0100
0001
0010
0100
,
2000
0000
0000
0000
,
3001
0100
0010
1000
0001
0010
0100
1000
,
0100
0010
0001
1000
0010
0100
0000
0100
,
0010
1000
0001
0010
0100
1000
0010
0100
,
0001
0010
0001
0100
0010
1000
0010
0000
,
0010
0001
0100
0010
1000
0001
0010
0100
,
1000
0010
0100
0001
0010
0100
0000
0100
,
0001
0010
0100
1000
0100
0010
0001
0100
,
1000
0000
0010
0000
0100
0000
0001
0000
0100
0000
0010
1000
0010
0000
0100
0001
,
0100
0001
0010
0100
1000
0100
0010
0001
,
0010
0001
1000
0100
0010
0001
0000
0001
,
0100
1000
0010
0100
0001
0010
0001
0100
,
0010
1000
0001
0010
0100
1000
0000
1000
,
0010
1000
0100
0010
0001
0100
0010
1000
,
0001
0010
0100
0010
0001
0100
0000
0100
,
0010
1000
0001
0010
0001
0100
0010
1000
,
0001
0000
0010
0000
0001
0100
0010
1000
,
0001
0000
0010
0000
0001
0100
0010
0000
,
1000
0000
0100
0000
0010
0100
1000
0000
,
0001
0000
0100
0000
0010
1000
0001
0000
,
0010
0000
0001
0000
0100
0010
1000
0001
,
0010
0000
0100
0000
1000
0100
0010
0000
,
0001
0000
0100
0000
0010
1000
0001
0000
,
0010
0000
0001
0000
0100
0010
1000
0000
,
0001
0010
0001
0100
0010
1000
0100
0000
,
0010
0000
0100
1000
0001
0100
0010
0000
,
0100
0000
0001
0010
0100
1000
0010
0000
,
1000
0000
0001
0010
0001
0100
0010
0000
,
1000
0100
0010
0000
0010
0100
1000
0000
,
0001
0000
0100
0010
1000
0001
0010
0000
,
0001
0000
0100
0010
1000
0001
0010
0000
,
0100
0000
1000
0100
0010
0001
1000
0000
,
0020
0000
0000
0000
,
1030
0100
0010
0001
0100
0010
1000
0100
,
0001
0010
0001
0100
0010
1000
0001
0010
,
0001
0100
0010
1000
0100
0010
0100
1000
,
0001
0100
0010
1000
0001
0010
0100
0000
,
1000
0100
0010
0001
1000
0010
0100
0000
,
0010
1000
0001
0100
0001
1000
0010
0000
,
0100
0001
0010
0100
1000
0100
0010
0000
,
0010
0000
0001
0000
0100
0000
0010
0000
1000
0000
0100
0000
0010
0001
0010
0001
,
0010
0001
0100
0010
1000
0100
0010
0100
,
1000
0010
0100
0001
0010
1000
0010
0001
,
0100
0010
1000
0100
0010
0100
1000
0000
,
0010
0100
0001
0000
0001
0100
0010
0000
,
1000
0100
0010
0001
0100
0010
1000
0000
,
0010
1000
0100
0001
0100
1000
0010
0000
,
0100
0001
0010
0100
1000
0010
0100
0000
,
0001
0010
0001
0100
0010
1000
0001
0000
,
2002
0000
0000
0000
,
0000
0000
0000
0000
,
0000
0000
0000
0000
,
0000
0000
0000
0000
,
0000
0000
0000
0000
,
0000
0000
0000
0000
,
3003
0000
0000
0000
;
