#TITLE:qliphoth;
#SUBTITLE:;
#ARTIST:SHIKI;
#TITLETRANSLIT:;
#SUBTITLETRANSLIT:;
#ARTISTTRANSLIT:;
#CREDIT:;
#BANNER:;
#BACKGROUND:;
#LYRICSPATH:;
#CDTITLE:;
#MUSIC:qliphoth.mp3;
#OFFSET:-10.400;
#SAMPLESTART:20.360;
#SAMPLELENGTH:12.000;
#SELECTABLE:YES;
#BPMS:0.000=186.000;
#STOPS:160.000=1.720
;
#BGCHANGES:;

//---------------dance-single - ----------------
#NOTES:
     dance-single:
     :
     Hard:
     13:
     0.609,0.567,0.023,0.023,0.080: // measure 1
1000
0000
0001
0000
0100
0000
0000
0100
,  // measure 2
0000
0001
1000
0000
0010
0000
0000
0100
,  // measure 3
0000
0000
0001
0000
0010
0000
0000
0100
,  // measure 4
0000
1000
0010
0000
0100
0000
0000
0000
,  // measure 5
0001
0000
0010
0000
0001
0000
0000
1000
,  // measure 6
0000
0000
0100
0000
1000
0000
0000
0010
,  // measure 7
0000
0000
0100
0000
0001
0100
0000
0010
,  // measure 8
0000
0000
1000
0000
0001
0000
0000
0000
0010
0000
0000
0000
0001
1000
0001
1000
,  // measure 9
0001
0100
0010
1000
0001
0010
0100
1000
,  // measure 10
0001
0000
0010
0100
0000
0100
1000
0001
,  // measure 11
0100
0000
0010
1000
0000
0010
0100
0001
,  // measure 12
0000
0000
0010
0000
0100
0000
0000
0000
1000
0000
0000
0001
0000
0000
0100
0000
,  // measure 13
0010
0000
1000
0000
0001
0010
0000
0010
,  // measure 14
0001
0100
0010
1000
0001
0010
0100
1000
,  // measure 15
0001
0000
0000
1000
0000
0000
0001
0000
0100
0000
0000
0001
0000
0000
0100
0000
,  // measure 16
0010
0000
0000
1000
0000
0000
0010
0000
1000
0000
0000
0001
0000
0000
1000
0000
,  // measure 17
0001
0010
0100
1000
0100
0010
0001
1000
,  // measure 18
0010
0000
0010
0100
0000
0001
0010
0100
,  // measure 19
1000
0000
1000
0001
0000
0001
0100
0010
,  // measure 20
0000
0000
0010
0000
1000
0000
0000
0000
0001
0000
0000
0100
0000
0000
0010
0000
,  // measure 21
1000
0000
0010
0000
1000
0100
0000
0100
,  // measure 22
0000
1000
0001
0100
0010
1000
0001
0010
,  // measure 23
0100
0000
0000
1000
0000
0000
0100
0000
1000
0000
0000
0001
0000
0000
1000
0000
,  // measure 24
0010
0000
0000
0100
0000
0000
0010
0000
0100
0000
0000
0001
0000
0000
0100
0000
,  // measure 25
0001
0100
0010
1000
0001
0010
0100
1000
,  // measure 26
0100
0010
0001
1000
0010
0100
0010
0000
,  // measure 27
1000
0001
0010
0100
1000
0100
0010
0001
,  // measure 28
1000
0010
0100
0001
0010
0001
0100
0000
,  // measure 29
0010
1000
0001
0010
0100
1000
0100
0010
,  // measure 30
0001
1000
0010
0100
0001
0010
0100
0000
,  // measure 31
0010
0001
0010
0100
1000
0001
0010
0100
,  // measure 32
1000
0100
0010
0001
0010
0000
0010
0001
,  // measure 33
1000
0100
0010
0001
1000
0010
0100
0001
,  // measure 34
0010
0100
1000
0100
0010
0001
1000
0010
,  // measure 35
0100
0010
1000
0001
0010
0100
1000
0010
,  // measure 36
0100
0001
0010
0100
1000
1000
0001
0001
,  // measure 37
0100
0010
1000
0001
0010
0100
1000
0100
,  // measure 38
0010
0001
1000
0010
0100
0001
0010
0001
,  // measure 39
0000
0001
0100
0010
1000
0001
0010
0100
,  // measure 40
1000
0010
0100
0001
0010
0100
1000
0000
,  // measure 41
1001
0000
0001
0000
0100
0010
1000
0001
,  // measure 42
0010
0000
0001
1000
0010
0000
0100
0001
,  // measure 43
0010
0000
0100
1000
0000
0001
0000
0100
,  // measure 44
0000
0010
1000
0001
0010
0000
0001
0000
,  // measure 45
1000
0100
0010
0001
0000
1000
0100
0000
,  // measure 46
0010
0000
0001
0100
0000
0100
0001
0000
,  // measure 47
0010
0000
0100
1000
0000
1000
0001
0000
,  // measure 48
0100
0000
0010
1000
0000
1000
0010
0000
,  // measure 49
0010
1000
0001
0100
0001
1000
0010
0000
,  // measure 50
0010
0001
0100
0010
1000
0001
0010
0100
,  // measure 51
1000
0001
0100
0010
1000
0001
0010
0000
,  // measure 52
0010
0001
0100
0010
1000
0001
0010
0001
,  // measure 53
0010
0001
0100
0010
1000
0001
0010
0000
,  // measure 54
0100
1000
0001
0100
0010
1000
0001
0010
,  // measure 55
0100
1000
0100
0010
0001
1000
0010
0000
,  // measure 56
0010
1000
0001
0010
0100
1000
0010
0100
,  // measure 57
0001
0010
0100
1000
0001
0000
0000
0000
,  // measure 58
0001
0000
0100
0000
0010
1000
0000
0001
0000
0000
2002
0000
0000
0000
0000
0000
,  // measure 59
3003
0000
0000
0000
;

//---------------dance-single - ----------------
#NOTES:
     dance-single:
     :
     Beginner:
     3:
     0.136,0.165,0.000,0.000,0.000:
0000
0000
0000
0000
,
0000
0000
0000
0000
,
0000
0000
0000
0000
,
0000
0000
0000
0000
,
0000
0000
0000
0000
,
0000
0000
0000
0000
,
0000
0000
0000
0000
,
0000
0000
0000
0000
,
1000
0000
1000
0000
,
1000
0000
1000
0000
,
0001
0000
0001
0000
,
0001
0000
0001
0000
,
0100
0000
0100
0000
,
0100
0000
0100
0000
,
0010
0000
0010
0000
,
0010
0000
0010
0000
,
1000
0000
0100
0000
,
1000
0000
0000
0000
,
0001
0000
0010
0000
,
0001
0000
0000
0000
,
0100
0000
0010
0000
,
0100
0000
0000
0000
,
0001
0000
1000
0000
,
0001
0000
0000
0000
,
1000
0000
0100
0000
,
1000
0000
0100
0000
,
0010
0000
0001
0000
,
0010
0000
0001
0000
,
0100
0000
0010
0000
,
0100
0000
0010
0000
,
1000
0000
0001
0000
,
1000
0000
0001
0000
,
1000
0000
0100
0000
,
0010
0000
0001
0000
,
0001
0000
0010
0000
,
0100
0000
1000
0000
,
0001
0000
0000
0000
,
1000
0000
0000
0000
,
0010
0000
0000
0000
,
0100
0000
0000
0000
,
0001
0000
0000
0000
,
0001
0000
0000
0000
,
0100
0000
0000
0000
,
0100
0000
0000
0000
,
0010
0000
0000
0000
,
0010
0000
0000
0000
,
1000
0000
0000
0000
,
1000
0000
0000
0000
,
0000
0001
0000
0001
,
0000
1000
0000
1000
,
0000
0010
0000
0010
,
0000
0100
0000
0100
,
0000
0001
0000
0001
,
0000
1000
0000
1000
,
0000
0100
0000
0100
,
0000
0010
0000
0010
,
0010
0000
0010
0000
,
0000
0010
0000
0000
;

//---------------dance-single - ----------------
#NOTES:
     dance-single:
     :
     Medium:
     10:
     0.397,0.500,0.000,0.057,0.006: // measure 1
2000
0000
0000
0000
,  // measure 2
0000
0000
0000
0000
0000
0000
0000
3020
,  // measure 3
0000
0000
0000
0000
,  // measure 4
0000
0000
0000
0000
,  // measure 5
0230
0000
0000
0000
,  // measure 6
0000
0000
0000
0000
0000
0000
0000
0302
,  // measure 7
0000
0000
0000
0000
,  // measure 8
0000
0000
0000
1003
,  // measure 9
0001
0000
0100
0000
0010
1000
0000
0001
,  // measure 10
0000
0010
0001
0000
0100
0000
0000
0010
,  // measure 11
0000
0000
1000
0000
0100
1000
0000
0010
,  // measure 12
0000
0100
0001
0000
0010
0000
0001
0000
,  // measure 13
0100
0000
0010
0000
1000
0100
0000
1000
,  // measure 14
0000
0010
0100
0000
0010
0000
0000
0000
,  // measure 15
1000
0100
1000
0100
,  // measure 16
0010
0001
0010
0001
,  // measure 17
0100
0000
0010
0000
1000
0001
0000
0010
,  // measure 18
0000
0000
0001
0000
0100
0000
0000
0010
,  // measure 19
0000
0000
1000
0000
0100
1000
0000
0010
,  // measure 20
0000
0100
0001
0000
0010
0000
0100
0000
,  // measure 21
0010
0000
0001
0000
1000
0010
0000
0100
,  // measure 22
0000
0001
0100
0000
0010
0000
1000
0000
,  // measure 23
0001
0010
0100
1000
,  // measure 24
0001
0100
0010
1000
,  // measure 25
0100
0000
1000
0000
0001
0100
0001
0000
,  // measure 26
0010
0000
0100
0000
1000
0010
1000
0000
,  // measure 27
0010
0000
0100
0000
0001
0010
0001
0000
,  // measure 28
0010
0000
0100
0000
1000
0010
1000
0000
,  // measure 29
0010
0000
0100
0000
0001
0010
0001
0000
,  // measure 30
0100
0000
0010
0000
1000
0001
0010
0000
,  // measure 31
0100
0000
1000
0000
0100
0010
0001
0000
,  // measure 32
1000
0000
0010
0000
0100
0001
0100
0000
,  // measure 33
0001
0000
0010
0000
0100
1000
0100
0000
,  // measure 34
0010
0000
0001
0000
1000
0010
1000
0000
,  // measure 35
0010
0000
0100
0000
0001
0010
0001
0000
,  // measure 36
0010
0000
0100
0000
1000
0001
1000
0000
,  // measure 37
0010
0100
0010
0000
1000
0100
1000
0000
,  // measure 38
0001
0010
0001
0000
1000
0010
1000
0000
,  // measure 39
0001
0100
0001
0000
1000
0001
1000
0000
,  // measure 40
0001
1000
0001
1000
0010
0100
0001
0010
,  // measure 41
0100
0000
0001
0000
0000
0100
0001
0000
,  // measure 42
1000
0000
0010
0000
0000
1000
0010
0000
,  // measure 43
1000
0000
0100
0000
0000
1000
0100
0000
,  // measure 44
0010
0000
0001
0000
0000
0010
0001
0000
,  // measure 45
0100
0000
0010
0000
0000
0100
0010
0000
,  // measure 46
1000
0000
0001
0000
0000
1000
0001
0000
,  // measure 47
0010
0000
0100
0000
0000
0010
0100
0000
,  // measure 48
1000
0000
0001
0000
0000
1000
0001
0000
,  // measure 49
0010
0000
0001
0000
0100
0010
1000
0000
,  // measure 50
0001
0000
0010
0000
0100
0010
0001
0000
,  // measure 51
1000
0000
0010
0000
0100
0001
0010
0000
,  // measure 52
0100
0000
1000
0000
0001
0100
0010
1000
,  // measure 53
0001
0000
0010
0000
0001
0100
0010
0000
,  // measure 54
1000
0000
0001
0000
0010
0100
1000
0000
,  // measure 55
0001
0000
0100
0000
0010
1000
0010
0000
,  // measure 56
0100
0000
0001
0010
0001
1000
0010
0000
,  // measure 57
0100
0000
0001
0000
,  // measure 58
0010
0000
0000
0000
0010
0000
0000
0100
0000
0000
0020
0000
0000
0000
0000
0000
,  // measure 59
0030
0000
0000
0000
;

//---------------dance-single - ----------------
#NOTES:
     dance-single:
     :
     Easy:
     6:
     0.256,0.298,0.011,0.000,0.000:
0000
0000
0000
0000
,
0000
0000
0000
0000
,
0000
0000
0000
0000
,
0000
0000
0000
0000
,
0000
0000
0000
0000
,
0000
0000
0000
0000
,
0000
0000
0000
0000
,
0000
0000
0000
0000
,
1000
0000
0010
0000
,
0100
0001
0100
0000
,
0010
0000
1000
0000
,
0100
1000
0100
0000
,
1000
0000
0010
0000
,
0100
0001
0100
0000
,
0001
0000
0010
0000
,
0100
0000
1000
0000
,
0001
0000
0100
0000
,
0010
1000
0001
0000
,
0010
0000
0100
0000
,
1000
0010
0100
0000
,
0001
0000
0100
0000
,
0010
1000
0001
0000
,
0010
0000
0001
0000
,
0100
0010
0100
0000
,
0001
0100
0001
0100
,
0010
1000
0010
1000
,
0001
0010
0001
0010
,
0100
1000
0100
1000
,
0001
0100
0010
1000
,
0001
0010
0001
0100
,
0010
1000
0100
1000
,
0010
0100
0001
0000
,
0010
0001
0010
0001
,
1000
0100
1000
0100
,
1000
0010
1000
0010
,
0100
0001
0100
0001
,
0010
0001
0100
0010
,
1000
0001
0010
0001
,
1000
0100
1000
0001
,
0100
0001
1000
0010
,
1000
0001
0000
0001
,
0000
0100
0000
0100
,
0000
0010
0000
0010
,
0000
1000
0000
1000
,
0000
0001
0000
0001
,
0000
0010
0000
0010
,
0000
0100
0000
0100
,
0000
1000
0000
1000
,
0010
1000
0010
1000
,
0001
0100
0001
0100
,
0001
0010
0100
1000
,
0001
0100
0010
1000
,
0100
1000
0100
1000
,
0001
0010
0001
0010
,
0001
0100
0010
1000
,
0001
0010
0100
1000
,
0010
0000
0100
0000
,
0000
0000
0010
0000
0000
1001
0000
0000
;
