#TITLE:Cinderella Cage -Trancecore mix-;
#SUBTITLE:;
#ARTIST:remixed by loz;
#TITLETRANSLIT:;
#SUBTITLETRANSLIT:;
#ARTISTTRANSLIT:;
#CREDIT:;
#BANNER:;
#BACKGROUND:;
#LYRICSPATH:;
#CDTITLE:;
#MUSIC:Cinderella Cage -Trancecore Mix-.ogg;
#OFFSET:-10.580;
#SAMPLESTART:41.380;
#SAMPLELENGTH:12.000;
#SELECTABLE:YES;
#BPMS:0.000=187.000;
#STOPS:;
#BGCHANGES:;

//---------------dance-single - ----------------
#NOTES:
     dance-single:
     :
     Hard:
     13:
     0.660,0.571,0.170,0.170,0.091:
0010
1000
0100
1000
0001
0100
0010
1000
,
0001
0010
0100
1000
0100
0010
0001
1000
,
0010
0100
0010
1000
0001
0010
0001
0100
,
0010
1000
0001
0010
0100
1000
0100
0010
,
0001
0001
0100
0100
0010
0010
1000
1000
,
0001
0001
0010
0010
0100
0100
1000
1000
,
0001
0010
0001
0000
0100
0000
0010
0000
1000
0100
1000
0000
0010
0000
0100
0000
,
2002
0000
0000
3003
,
0010
1000
0001
0010
0100
1000
0100
0000
,
0010
0001
0100
1000
0100
0001
0010
0000
,
0010
0100
1000
0001
0100
0010
1000
0000
,
0010
0100
0001
0010
0100
1000
0001
0001
,
0100
0010
1000
0001
0010
0100
1000
0000
,
1000
0001
0100
0010
1000
0001
0010
0000
,
0010
0001
0100
0010
1000
0001
0010
0100
,
1000
0000
0000
1100
0000
0000
0011
0000
0000
0000
0100
0000
0010
0000
0000
0000
,
0010
1000
0001
0010
0100
1000
0100
0000
,
0010
0001
0100
1000
0100
0001
0010
0000
,
0010
1000
0100
0001
0100
1000
0010
0000
,
0010
0100
0001
0010
0100
1000
0001
0001
,
0100
0010
1000
0001
0010
0100
1000
1000
,
0100
0010
0001
0100
0010
1000
0001
0001
,
0010
0001
0010
0100
1000
0010
0100
0001
,
0020
0000
0000
0030
,
0001
0100
1000
0100
0001
0010
0100
1000
,
0001
0000
0100
0000
0010
0000
1000
0000
0001
0000
0000
0002
0000
0000
0013
0000
,
0100
1000
0001
0100
0010
1000
0010
0100
,
0001
0000
0010
0000
0100
0000
1000
0000
0100
0000
0010
0000
0001
1000
0001
0000
,
0100
0000
0010
0000
1000
0000
0001
0000
0010
0000
0000
0020
0000
0000
0031
0000
,
0100
0000
0010
0000
1000
0000
0001
0000
0010
0000
0000
0020
0000
0000
0130
0000
,
1000
0000
0001
0000
0100
0000
0010
0000
1000
0000
0000
0002
0000
0000
0013
0000
,
0100
0000
0000
1100
0000
0000
0011
0000
0000
0000
0001
0000
1000
0000
0000
0000
,
0001
0100
1000
0100
0001
0010
1000
0010
,
0001
0100
0010
1000
0001
0010
0100
1000
,
0100
0010
0001
1000
0010
0100
0001
0010
,
0100
1000
0100
0010
0001
1000
0010
0100
,
0001
0010
0100
1000
0001
0010
0100
0010
,
0002
0000
0000
0003
,
0200
0300
2000
0000
,
3020
0000
0000
0000
,
1030
0100
0001
0100
1000
0010
0001
0010
,
1000
0100
0010
0100
1000
0100
0010
0001
,
0001
0010
0100
1000
0100
0010
0001
1000
,
0010
0100
0001
0010
0100
1000
0001
0010
,
0100
0000
1000
0000
0100
0000
0010
0000
0001
0000
0000
2000
0000
0000
3001
0000
,
0010
0000
0001
0000
0100
0000
1000
0000
0010
0000
0000
0200
0000
0000
0301
0000
,
0100
0010
1000
0001
0010
0100
1000
0001
,
0100
0000
0000
0002
0000
0000
0013
0000
0000
0000
0010
0000
0001
0000
0000
0000
,
0011
0011
1100
1100
,
1010
1010
0101
0101
,
1001
0100
1000
0100
,
0001
0010
1000
0010
,
0001
0100
1000
0100
0001
0010
1000
0010
,
0001
0100
0010
1000
0001
0010
0100
1000
,
0001
0100
0001
0000
0010
1000
0010
0000
0001
0010
0001
0000
1000
0010
1000
0000
,
0002
1000
0000
1003
,
1001
0000
0000
0000
;

//---------------dance-single - ----------------
#NOTES:
     dance-single:
     :
     Beginner:
     2:
     0.131,0.190,0.079,0.011,0.000:
1000
0000
0000
0000
,
1000
0000
0000
0000
,
0001
0000
0000
0000
,
0001
0000
0000
0000
,
0100
0000
0000
0000
,
0100
0000
0000
0000
,
0010
0000
0010
0000
,
0010
0000
0000
0000
,
0010
0000
0000
0000
,
1000
0000
0000
0000
,
0100
0000
0000
0000
,
0001
0000
0000
0000
,
0010
0000
0000
0000
,
0001
0000
0000
0000
,
0100
0000
0000
0000
,
1000
0000
0000
0000
,
1000
0000
0000
0000
,
0100
0000
0000
0000
,
0010
0000
0000
0000
,
0001
0000
0000
0000
,
0100
0000
0000
0000
,
0010
0000
0000
0000
,
1000
0000
0000
0000
,
0002
0000
0003
0000
,
0001
0000
0001
0000
,
0001
0000
0000
0000
,
0100
0000
0100
0000
,
0100
0000
0000
0000
,
0010
0000
0010
0000
,
0010
0000
0000
0000
,
1000
0000
1000
0000
,
1000
0000
0000
0000
,
1000
0000
0100
0000
,
1000
0000
0000
0000
,
0001
0000
0010
0000
,
0001
0000
0000
0000
,
0100
0000
0010
0000
,
0100
0000
0000
0000
,
0001
0000
1000
0000
,
0001
0000
0000
0000
,
0001
0000
0100
0000
,
0001
0000
0100
0000
,
0001
0000
0001
0000
,
0100
0000
0000
0000
,
0010
0000
1000
0000
,
0010
0000
1000
0000
,
0010
0000
0010
0000
,
1000
0000
0000
0000
,
1001
0000
0000
0000
,
0110
0000
0000
0000
,
1001
0000
0000
0000
,
1001
0000
0000
0000
,
0110
0000
0000
0000
,
1001
0000
0000
0000
,
0010
0000
0100
0000
,
0010
0000
0000
0000
,
0110
0000
0000
0000
;

//---------------dance-single - ----------------
#NOTES:
     dance-single:
     :
     Medium:
     10:
     0.463,0.507,0.068,0.068,0.051: // measure 1
0010
0000
1000
0000
0001
0010
0100
1000
,  // measure 2
0100
0000
0010
0000
0001
1000
0010
0100
,  // measure 3
0001
0000
0010
0000
0100
1000
0010
0100
,  // measure 4
0001
0000
0010
0000
0100
1000
0010
0000
,  // measure 5
0001
0100
0010
1000
0001
0010
0100
0000
,  // measure 6
0010
0001
0100
0010
1000
0001
0010
0000
,  // measure 7
1100
0000
0011
0000
,  // measure 8
2002
0000
3003
0000
,  // measure 9
0010
0000
1000
0000
0100
0010
0100
0000
,  // measure 10
1000
0001
0100
0000
0010
1000
0001
0000
,  // measure 11
0010
0000
0100
0000
1000
0001
0100
0000
,  // measure 12
0010
1000
0010
0000
0100
0001
0010
0000
,  // measure 13
0001
0000
1000
0000
0010
0100
0001
0000
,  // measure 14
0010
0100
1000
0000
0001
0100
0010
0000
,  // measure 15
1000
0000
0001
0000
0010
0100
1000
0000
,  // measure 16
0001
0000
0000
0010
0000
0000
0001
0000
0000
0000
0100
0000
0010
0000
0000
0000
,  // measure 17
1000
0000
0100
0000
1000
0001
0100
0000
,  // measure 18
0010
1000
0001
0000
0001
1000
0010
0000
,  // measure 19
0100
0000
0001
0000
0010
0100
0010
0000
,  // measure 20
0001
1000
0010
0000
0100
0001
0010
0000
,  // measure 21
0100
0000
1000
0000
0001
0100
0010
0000
,  // measure 22
1000
0000
0001
0000
0010
0100
1000
0000
,  // measure 23
0001
0100
0001
0100
0010
1000
0010
1000
,  // measure 24
0020
0000
0000
0030
,  // measure 25
1000
0000
0100
1000
0001
0000
0100
0010
,  // measure 26
1000
0001
0010
0100
,  // measure 27
1000
0000
0010
0100
0010
0000
1000
0001
,  // measure 28
1000
0001
0010
0100
,  // measure 29
1000
0000
0001
0000
0100
0000
0000
0000
0010
0000
0000
1000
0000
0000
0001
0000
,  // measure 30
0010
0000
0001
0000
0010
0000
0000
0000
0100
0000
0000
1000
0000
0000
0010
0000
,  // measure 31
0100
0000
0001
0000
0100
0000
0000
0000
0010
0000
0000
1000
0000
0000
0001
0000
,  // measure 32
0010
0000
0000
0100
0000
0000
0010
0000
0000
0000
0001
0000
1000
0000
0000
0000
,  // measure 33
0010
0000
0100
0000
0001
0010
0100
0000
,  // measure 34
1000
0000
0001
0000
0100
0010
1000
0000
,  // measure 35
0001
0000
0010
0000
0100
1000
0001
0000
,  // measure 36
0100
0000
0010
0000
1000
0000
0100
0010
,  // measure 37
0100
0000
1000
0000
0001
0100
0010
0000
,  // measure 38
1000
0000
0000
0000
,  // measure 39
0101
0000
0011
0000
,  // measure 40
2000
0000
0000
0000
,  // measure 41
3010
0000
0100
0000
0001
0100
0001
0000
,  // measure 42
0010
0000
0100
0000
1000
0100
1000
0000
,  // measure 43
0010
0000
0100
0000
0001
1000
0100
0000
,  // measure 44
0010
0000
0100
0000
1000
0001
0100
0000
,  // measure 45
0010
0000
0000
0000
1000
0000
0000
0000
0001
0000
0000
0010
0000
0000
0001
0000
,  // measure 46
0100
0000
0000
0000
0010
0000
0000
0000
1000
0000
0000
0100
0000
0000
1000
0000
,  // measure 47
0010
0000
0000
0000
0100
0000
0000
0000
0001
0000
0000
1000
0000
0000
0100
0000
,  // measure 48
1000
0000
0000
0010
0000
0000
0100
0000
0000
0000
0001
0000
0010
0000
0000
0000
,  // measure 49
0001
0001
0100
0100
,  // measure 50
1000
1000
0010
0010
,  // measure 51
0100
0100
0001
0001
,  // measure 52
1000
1000
0100
0100
,  // measure 53
0010
0001
0010
0001
0010
0001
0010
0000
,  // measure 54
0100
1000
0100
1000
0100
1000
0100
0000
,  // measure 55
0010
0001
0010
0000
0100
1000
0100
0000
,  // measure 56
2002
0000
3003
0000
,  // measure 57
0010
0000
0000
0000
;

//---------------dance-single - ----------------
#NOTES:
     dance-single:
     :
     Easy:
     6:
     0.348,0.317,0.170,0.091,0.000: // measure 1
1000
0100
0010
0001
,  // measure 2
1000
0010
0100
0000
,  // measure 3
0100
0010
1000
0001
,  // measure 4
0010
0100
1000
0000
,  // measure 5
0001
0100
0001
0100
,  // measure 6
0010
1000
0010
1000
,  // measure 7
1010
0000
0101
0000
,  // measure 8
2002
0000
3003
0000
,  // measure 9
0001
0100
0010
1000
,  // measure 10
0001
0010
1000
0010
,  // measure 11
0001
0100
1000
0100
,  // measure 12
0001
0010
0100
1000
,  // measure 13
0010
0100
0001
0010
,  // measure 14
0001
0100
0010
1000
,  // measure 15
0001
0010
0100
1000
,  // measure 16
0010
0000
1001
0000
,  // measure 17
0010
1000
0100
0010
,  // measure 18
0100
1000
0010
0100
,  // measure 19
0001
0010
1000
0010
,  // measure 20
0001
0100
1000
0100
,  // measure 21
0001
0010
0100
1000
,  // measure 22
1000
0100
0010
0001
,  // measure 23
1001
0000
0110
0000
,  // measure 24
2002
0000
3003
0000
,  // measure 25
0001
0100
0001
0100
,  // measure 26
0010
1000
0010
1000
,  // measure 27
0100
1000
0100
1000
,  // measure 28
0001
0010
0001
0010
,  // measure 29
0001
0100
0010
0000
,  // measure 30
0100
0010
1000
0000
,  // measure 31
0100
1000
0010
0100
,  // measure 32
0001
0000
0101
0000
,  // measure 33
0001
0010
0100
1000
,  // measure 34
0100
0010
0001
0100
,  // measure 35
0010
1000
0100
0001
,  // measure 36
0010
0100
1000
0010
,  // measure 37
0100
0001
0010
0100
,  // measure 38
1000
0000
0000
0000
,  // measure 39
1010
0000
1001
0000
,  // measure 40
0202
0000
0303
0000
,  // measure 41
0001
0100
0001
0100
,  // measure 42
0010
1000
0010
1000
,  // measure 43
0100
0010
0100
0010
,  // measure 44
0001
1000
0001
0000
,  // measure 45
1000
0010
1000
0010
,  // measure 46
0100
0001
0100
0001
,  // measure 47
0010
0001
0010
0001
,  // measure 48
1000
0100
1000
0000
,  // measure 49
0010
0010
1000
1000
,  // measure 50
0100
0100
0001
0001
,  // measure 51
0010
0010
0100
0100
,  // measure 52
1000
1000
0001
0001
,  // measure 53
1000
0001
1000
0001
,  // measure 54
0100
0010
0100
0010
,  // measure 55
0110
0000
1001
0000
,  // measure 56
2002
0000
0000
3003
,  // measure 57
0110
0000
0000
0000
;
