
//----- song ID: rink -----//
#TITLE:輪廻の鴉;
#ARTIST:BEMANI Sound Team "dj TAKA";
#TITLETRANSLIT:Rinne no karasu;
#BANNER:Rinne no karasu.png;
#BACKGROUND:Rinne no karasu-bg.png;
#CDTITLE:./CDTitles/bm IIDX 30 RESIDENT.png;
#MUSIC:Rinne no karasu.ogg;
#SAMPLESTART:49.688;
#SAMPLELENGTH:15;
#BPMS:0=198;
#BGSTAGE:14;
#NOTES:
     dance-single:
     :
     Beginner:
     3:
     :
0000
0000
0000
0000
,
0000
0000
0000
0000
,
0000
0000
0000
0000
,
0000
0000
0000
0000
,
0000
0000
0000
0000
,
0000
0000
0000
0000
,
0000
0000
0000
0000
,
0000
0000
0000
0000
,
0000
0000
0000
0000
,
0001
0000
0000
0000
,
0001
0000
0000
0000
,
1000
0000
0000
0000
,
1000
0000
0000
0000
,
0001
0000
0000
0000
,
0001
0000
0000
0000
,
1000
0000
0000
0000
,
1000
0000
0000
0000
,
2000
0000
0000
0000
,
0000
0000
0000
0000
,
0000
0000
0000
0000
,
0000
0000
0000
0000
0000
0000
0000
3000
,
0000
0000
0000
0000
,
0010
0000
0000
0000
,
0100
0000
0000
0000
,
0100
0000
0000
0000
,
0020
0000
0000
0000
,
0000
0000
0000
0000
,
0000
0000
0000
0000
,
0000
0000
0000
0000
0000
0000
0000
0030
,
0000
0000
0000
0000
,
0010
0000
0000
0000
,
1000
0000
0000
0000
,
1000
0000
0000
0000
,
0000
0000
0000
0000
,
0001
0000
0000
0000
,
1000
0000
0000
0000
,
1000
0000
0000
0000
,
0010
0000
0000
0000
,
0010
0000
0000
0000
,
0110
0000
0000
0000
,
0000
0000
0000
0000
,
0001
0000
0000
0000
,
0001
0000
0000
0000
,
0100
0000
0000
0000
,
0100
0000
0000
0000
,
0010
0000
0000
0000
,
0010
0000
0000
0000
,
1000
0000
0000
0000
,
1000
0000
0000
0000
,
0001
0000
0000
0000
,
0010
0000
0000
0000
,
0100
0000
0000
0000
,
1000
0000
0000
0000
,
0100
0000
0000
0000
,
0010
0000
0000
0000
,
0001
0000
0000
0000
,
0200
0000
0300
0000
,
0001
0000
0000
0000
,
0001
0000
0000
0000
,
1000
0000
0000
0000
,
1000
0000
0000
0000
,
0000
0000
0000
0000
,
0000
0020
0000
0000
,
0030
0000
0000
0000
,
1001
0000
0000
0000
,
0010
0000
0000
0000
,
0100
0000
0000
0000
,
0010
0000
0000
0000
,
1001
0000
0000
0000
,
0000
0000
0000
0000
,
0001
0000
0000
0000
,
1000
0000
0000
0000
,
0110
0000
0000
0000
,
0001
0000
0000
0000
,
1000
0000
0000
0000
,
0001
0000
0000
0000
,
0110
0000
0000
0000
,
0000
0000
0000
0000
,
0001
0000
0000
0000
,
1000
0000
0000
0000
,
0001
0000
0000
0000
,
0001
0000
0000
0000
,
0100
0000
0000
0000
,
0100
0000
0000
0000
,
0010
0000
0000
0000
,
0010
0000
0000
0000
,
1000
0000
0000
0000
,
1000
0000
0000
0000
,
0001
0000
0001
0000
,
0001
0000
0000
0000
,
1000
0000
1000
0000
,
1000
0000
0000
0000
,
0001
0000
0001
0000
,
0001
0000
0000
0000
,
1000
0000
1000
0000
,
1000
0000
0000
0000
,
1001
0000
0000
0000
,
0000
0000
0000
0000
;
#NOTES:
     dance-single:
     :
     Easy:
     8:
     :
0000
0000
0000
0000
,
0000
0000
0000
0000
,
0000
0000
0000
0000
,
0000
0000
0000
0000
,
0000
0000
0000
0000
,
0000
0000
0000
0000
,
0000
0000
0000
0000
,
0000
0000
0000
0000
,
0000
0000
0000
0000
,
0001
0001
1000
1000
,
0001
0100
0010
0000
,
1000
1000
0001
0001
,
1000
0100
0010
0000
,
0001
0001
1000
1000
,
0010
0010
0100
0100
,
0001
1000
0100
1000
,
0002
0000
0000
0003
,
1001
0000
0000
0000
,
2000
0000
3000
0000
,
0020
0000
0030
0000
,
0200
0000
0000
0000
0300
0000
0000
0001
,
0000
1000
0010
0100
,
0001
1000
0100
0010
,
0001
0001
1000
0010
,
0100
0001
1001
0000
,
0110
0000
0000
0000
,
0002
0000
0003
0000
,
0020
0000
0030
0000
,
0200
0000
0000
0000
0300
0000
0000
1000
,
0000
0001
0100
0001
,
0010
0100
1000
0010
,
1000
1000
0100
1000
,
0010
0000
0100
0000
0001
0000
0000
1000
,
0000
0001
0001
0010
,
0100
1000
0100
1000
,
0010
0001
0010
0001
,
0010
1000
0100
0000
,
0010
0001
0010
0001
,
1000
0010
1000
0010
,
0100
0000
0000
0001
0000
0000
0010
0000
,
0000
0100
0000
0000
1001
0000
0000
0000
,
0001
0010
0001
1000
,
0001
0100
0010
0000
,
1000
0100
1000
0001
,
1000
0010
0100
0000
,
0001
0010
0001
0100
,
0001
0010
0001
1000
,
0020
0000
0100
0000
,
2030
0000
3001
0000
,
1000
1000
0001
0001
,
0100
0010
0110
0000
,
0001
0001
1000
1000
,
0100
0010
0110
0000
,
0001
0001
0100
0100
,
0010
0010
1000
1000
,
0100
0010
0001
1000
,
0020
0000
0000
0030
,
0100
0110
0001
1000
,
0100
1000
0001
0011
,
0000
0010
0100
1000
,
0001
0100
0010
0220
,
0000
0000
0000
0000
,
0330
0000
1000
0000
0000
0001
0000
0000
,
2002
0000
3003
0000
,
0001
0100
1000
0100
,
0001
0010
0100
0010
,
0001
0100
1000
0100
,
0001
0010
0100
1000
,
0001
0000
0000
0100
0000
0000
0010
0000
,
0000
0100
0000
0000
0001
0000
0000
0000
,
0001
0000
0010
0000
0001
0000
1000
0010
,
0000
0010
0000
0010
0000
0000
0000
0000
,
1000
0100
0001
0100
,
1000
0010
0100
0010
,
1000
0100
0001
0100
,
1000
0010
0100
0001
,
1000
0000
0000
0100
0000
0000
0010
0000
,
0000
0001
0000
0000
1000
0000
0000
0000
,
1000
0000
0000
0001
0000
0001
0000
0100
,
0000
0100
0000
0010
0000
0010
0000
2002
,
0000
0000
0000
0000
,
0000
0000
0000
3003
,
0001
0000
1000
0000
,
0100
0000
0010
0000
,
0001
0001
1000
0000
,
0010
0010
0100
0000
,
0001
0001
1000
0000
,
0010
0000
0110
0000
,
0001
0001
0100
0100
,
1000
1000
0100
0100
,
0001
0001
0010
0010
,
1000
1000
0010
0010
,
0001
1001
0100
0110
,
1000
0001
0100
0010
,
1000
1001
0100
0110
,
0001
0010
0100
1000
,
2002
0000
0000
0000
,
0000
0000
0000
0000
,
3003
0000
0000
0000
,
0000
0000
0000
0000
;
#NOTES:
     dance-single:
     :
     Medium:
     12:
     :
0000
0000
0000
0000
,
0000
0000
0000
0000
,
0000
0000
0000
0000
,
0000
0000
0000
0000
,
0000
0000
0000
0000
,
0000
0000
0000
0000
,
0000
0000
0000
0000
,
0000
0000
0000
0000
,
0000
0000
0000
0000
,
0010
0110
0010
0110
,
1000
1010
1000
1010
,
0001
0011
0001
0011
,
1000
1100
1000
1100
,
0120
0031
0210
1300
,
0120
0031
0210
1300
,
0001
0000
0100
0001
0000
0100
0001
0000
0100
0001
0000
0100
,
0020
0000
0000
0030
,
2010
0000
0000
3000
,
0002
0000
0000
0003
,
0020
0000
0000
0030
,
0200
0000
0000
0000
1000
1300
0000
0110
,
0000
0001
0100
0000
0001
0010
0100
0000
,
1000
0100
0010
0000
0001
0000
1000
0000
,
0001
0100
0010
0000
1000
0010
0100
0000
,
0001
0000
1000
0000
0100
0010
0000
0000
,
0012
0000
0000
0003
,
2000
0000
0000
3000
,
0020
0000
0000
0030
,
0200
0000
0000
0000
0001
0301
0000
0110
,
0000
1000
0100
0000
1000
0010
0100
0000
,
0001
0100
0010
0000
1000
0000
0001
0000
,
1000
0100
0010
0000
0001
0010
0100
0000
,
1000
0000
0001
0000
0100
0010
0000
0101
,
0000
0000
0011
0000
0010
0100
1000
0000
,
0001
0000
0101
0000
0100
0010
1000
0000
,
0100
0000
0110
0000
0010
0100
1000
0000
,
0001
0100
0010
1000
,
1001
0000
0001
0000
0010
0100
1000
0000
,
0010
0000
1000
0000
0100
0010
0001
0000
,
1001
0000
0000
0100
0000
0000
0110
0000
,
0000
0001
0000
0000
2002
0000
3003
0000
,
0001
0001
0100
0100
,
1000
1000
0100
0100
,
0001
0001
0010
0010
,
1000
1000
0010
0010
,
0001
1000
0010
0100
,
0010
1000
0001
0010
,
0001
0000
0000
1000
0000
0000
0001
0000
,
0100
0100
0100
0000
,
0120
1030
0102
1003
,
0120
1030
0102
1003
,
0210
0301
2010
3001
,
0210
0301
2010
3001
,
1000
0000
0001
1000
0000
0000
0010
0000
0100
0010
0000
0000
,
1000
0000
0001
1000
0000
0000
0010
0000
0100
0010
0000
0000
,
1000
0000
0001
1000
0000
0001
1000
0000
0001
1000
0000
0001
,
0020
0000
0000
0030
,
1100
1000
0010
0100
,
0001
0000
0100
0010
0000
1000
0001
0000
,
0000
0001
0010
0100
,
1000
0000
0001
0100
0000
0200
0020
0000
,
0000
0000
0000
0000
,
0330
0000
1000
0001
0010
0001
0000
0010
,
0200
0000
0300
0000
,
1000
0001
0100
0000
0010
0000
0100
0000
,
0001
0010
1000
0000
0010
0000
0001
0000
,
1000
0010
0100
0000
0001
0000
0010
0000
,
0001
0100
1000
0000
0100
0000
0001
0000
,
0012
0000
0000
0103
0000
0000
2010
0000
,
0000
3100
0000
0000
1001
0000
0000
0000
,
0001
0000
0100
0000
0010
0000
0100
0010
,
0000
0110
0000
1001
0000
0000
0000
0000
,
0001
0010
0100
0000
1000
0000
0010
0000
,
0100
0001
0010
0000
1000
0000
0010
0000
,
0001
0100
0010
0000
0001
0000
0010
0000
,
1000
0100
0010
0000
0001
0000
0100
0000
,
0210
0000
0000
1000
0000
0000
0001
0000
,
0000
1000
0000
0000
0301
0000
0000
0000
,
1001
0000
0000
1000
0000
1000
0000
0001
,
0000
0001
0000
0100
0000
0010
0000
2002
,
0000
0000
0000
0000
,
0000
0000
0000
3003
,
0001
0000
0000
0000
1000
0000
0100
1000
,
0000
1000
0010
0000
1000
0000
0000
0000
,
0001
0100
0000
0010
0100
0000
0001
0100
,
0000
0010
0100
0000
0001
0000
0000
0000
,
1000
0010
0000
0100
0010
0000
1000
0010
,
0000
0100
0010
0000
1000
0000
0000
0000
,
0101
0011
0010
0100
,
1100
1010
0010
0100
,
0101
1100
1000
0001
,
0011
1010
1000
0001
,
0012
1003
0120
1030
,
0012
1003
0120
1030
,
2100
3001
0210
0301
,
2100
3001
0100
0010
,
2002
0000
0000
0000
,
0000
0000
0000
0000
,
3003
0000
0000
0000
,
0000
0000
0000
0000
;
#NOTES:
     dance-single:
     :
     Hard:
     14:
     :
0000
0000
0000
0000
,
0000
0000
0000
0000
,
0000
0000
0000
0000
,
0000
0000
0000
0000
,
0000
0000
0000
0000
,
0000
0000
0000
0000
,
0000
0000
0000
0000
,
0000
0000
0000
0000
,
0000
0000
0000
0000
,
1001
0000
0000
1000
0000
0001
0010
0000
0000
0001
0000
1000
,
0100
0000
0000
1000
0000
0001
0100
0000
0010
1000
0000
0000
,
1001
0000
0000
0001
0000
1000
0010
0000
0000
1000
0000
0001
,
0100
0000
0000
0001
0000
1000
0100
0000
0010
0001
1000
0001
,
0100
0000
0010
1000
0000
0001
0010
0000
0100
1000
0000
0000
,
0001
0000
0000
0100
0000
0001
0010
0000
0001
1000
0000
0000
,
0001
0100
0001
0100
0001
0100
0010
1000
0010
1000
0010
1000
,
0002
0000
0000
0003
,
2001
0000
0000
0000
,
3020
0000
0000
0000
,
2030
0000
0000
0000
,
3002
0000
0000
0000
0103
0100
0000
0020
,
0000
0031
0010
0100
0010
1000
0010
0100
,
0010
0001
0010
1000
0001
0010
0100
0000
,
0010
1000
0010
0100
0010
0001
0010
0100
,
0010
1000
0010
0001
0100
0100
0000
0000
,
1002
0000
0000
0000
,
0203
0000
0000
0000
,
0302
0000
0000
0000
,
2003
0000
0000
0000
0100
3100
0000
0020
,
0000
1030
0010
0100
0010
0001
0010
0100
,
0010
1000
0010
0100
1000
0001
0100
0000
,
0010
0001
0010
0100
0010
1000
0010
0100
,
0010
0001
0010
1000
0100
0100
0000
0110
,
0000
0000
1001
0000
1000
0100
0010
0001
,
0010
0001
0010
0100
1000
0001
0100
0000
,
0010
1000
0001
0000
0010
0100
1000
0010
,
0000
0100
0001
0000
1000
0010
0010
0010
,
0100
0000
1001
0000
0001
0010
0100
1000
,
0100
0000
1000
0000
0100
0000
0010
0000
0001
0000
1000
0001
1000
0001
1000
0001
,
1000
0000
0000
1100
0000
0000
0001
0000
,
0000
0101
0000
0000
0220
0000
0330
0000
,
1000
0001
0100
0001
0010
0001
1000
0001
,
0100
0001
0010
0001
1000
0010
0100
0000
,
0001
1000
0100
1000
0010
1000
0001
1000
,
0100
1000
0010
1000
0001
0010
0000
0010
,
0100
0001
0100
0010
0100
1000
0100
0010
,
0100
0001
0100
0010
0100
1000
0001
1000
,
0010
0100
0100
0010
0100
0100
0001
1000
,
0100
0010
0000
0000
0001
0000
1000
0000
,
0001
0000
0000
1000
0100
0000
1000
0001
0000
1001
0000
0000
,
1000
0000
0000
0001
0010
0000
0001
1000
0000
0001
0100
0001
,
0100
0000
0000
0001
0000
0010
0001
0000
0000
1000
0000
0100
,
1000
0000
0000
0001
0000
0000
0001
1000
0001
1000
0001
1000
,
0001
0000
0000
1001
0000
0000
1000
0001
0000
0010
0100
0010
,
0100
0000
0000
1001
0000
0000
0001
1000
0000
0010
0000
0000
,
1000
0100
1000
0100
1000
0100
0010
0001
0010
0001
0010
0001
,
2000
0000
0002
3003
,
1000
0001
0101
0000
0001
1000
1100
0000
,
1000
0001
0010
0001
0100
0010
0110
0000
,
0000
1000
1100
0000
1000
0001
0101
0000
,
0100
0010
1000
0001
0100
0001
0020
0200
,
0000
0000
0000
0000
,
0330
0000
0100
1000
1000
0010
0100
0002
,
2000
0000
3003
0000
,
1000
0100
0010
0001
1000
0010
0100
1000
,
0100
0010
1000
0001
0010
1000
0010
0001
,
1000
0010
0100
0010
0001
0010
0100
0001
,
1000
0100
0010
0100
0001
0100
1000
0001
,
0101
0000
0000
0000
1000
0010
1000
0000
0000
0000
0001
0010
0001
0000
0000
0000
,
1000
0100
1000
0000
0000
0000
0001
0100
0001
0000
0000
0000
0000
0000
0000
0000
,
0001
1000
0002
0010
0000
1000
0000
0103
,
0000
0101
0000
1001
0000
1000
0100
0010
,
0001
0100
0010
1000
0001
0010
0100
0001
,
0100
0010
0001
1000
0010
0001
0010
1000
,
0001
0010
0100
0010
1000
0010
0100
1000
,
0001
0100
0010
0100
1000
0100
0001
1000
,
0100
0010
0010
0001
1000
1000
0010
0100
,
0100
0000
0001
0000
0010
0000
0010
0000
0100
0000
1000
0100
1000
0100
1000
0000
,
0001
0000
2000
0010
0000
0001
0000
3100
,
0000
1100
0000
0011
0000
0110
0000
2002
,
0000
0000
0000
0000
,
0000
0000
0000
3003
,
1000
0001
1000
0100
1000
0001
0020
0001
,
0000
0130
1000
0001
1000
0010
0200
0000
,
0301
0001
1000
0001
0001
0010
0001
0001
,
1000
0001
0001
0100
0001
0001
0010
0100
,
1000
1000
0010
1000
1000
0001
1000
0100
,
0000
0000
0100
0000
0010
0000
0100
0000
1000
0000
0001
0100
0001
0000
0000
0000
,
1000
0000
0001
0010
0000
0001
1000
0000
0000
0011
0000
0000
,
0001
0000
0100
0001
0000
1000
0001
0000
0000
1010
0000
0000
,
1000
0000
0001
0100
0000
0001
0010
0000
0100
1000
0000
0010
,
1000
0000
0001
0010
0100
1000
0001
0000
1000
0010
0100
0001
,
1000
0012
0103
1010
,
0001
1200
0310
0101
,
1000
0000
0010
0100
0000
0001
1000
0000
0100
0010
0000
0001
,
1000
0010
1000
0010
1000
0010
0100
0001
0100
0001
0010
0100
,
2000
0000
0000
0000
,
0000
0000
0000
0000
,
3000
0000
0000
0000
,
0000
0000
0000
0000
;
#NOTES:
     dance-double:
     :
     Easy:
     8:
     :
00000000
00000000
00000000
00000000
,
00000000
00000000
00000000
00000000
,
00000000
00000000
00000000
00000000
,
00000000
00000000
00000000
00000000
,
00000000
00000000
00000000
00000000
,
00000000
00000000
00000000
00000000
,
00000000
00000000
00000000
00000000
,
00000000
00000000
00000000
00000000
,
00000000
00000000
00000000
00000000
,
00001000
00001000
00010000
00010000
,
00001000
00100000
00010000
00000000
,
10000000
10000000
00100000
00100000
,
10000000
01000000
00100000
00000000
,
00001000
00001000
00010000
00010000
,
00000100
00000010
00000001
00000000
,
00000001
00001000
00000010
00010000
,
00011000
00000000
00000000
00000000
,
00002000
00000000
00003000
00000000
,
02000000
00000000
03000000
00000000
,
00200000
00000000
00300000
00000000
,
20000000
00000000
00000000
00000000
30000000
00000000
00000000
00010000
,
00000000
10000000
01000000
00100000
,
00001000
00010000
00000100
00001000
,
00000001
00000100
00000010
00001000
,
00000100
00010000
00011000
00000000
,
00020000
00000000
00030000
00000000
,
00000200
00000000
00000300
00000000
,
00000020
00000000
00000030
00000000
,
00000002
00000000
00000000
00000000
00000003
00000000
00000000
00001000
,
00000000
00000001
00000100
00000010
,
00010000
00001000
01000000
00010000
,
10000000
01000000
00100000
00010000
,
01000000
00000000
00001000
00000000
00010000
00000000
00000000
00001000
,
00000000
00010000
00000100
00000010
,
00000001
00000100
00000001
00000100
,
00001000
00010000
00001000
00010000
,
00100000
10000000
00010000
00000000
,
10000000
01000000
10000000
01000000
,
00010000
00001000
00010000
00001000
,
01000000
00000000
00000000
00010000
00000000
00000000
00100000
00000000
,
00000000
01000000
00000000
00000000
10010000
00000000
00000000
00000000
,
10000000
01000000
10000000
01000000
,
00100000
00001000
00010000
00000000
,
00000010
00001000
00000010
00001000
,
00000001
00000010
00000100
00000000
,
00010000
00001000
00010000
00001000
,
01000000
00100000
10000000
00000000
,
00010000
00000000
00100000
00000000
,
00001000
00010000
01000000
00000000
,
10000000
10000000
01000000
01000000
,
00100000
00100000
00001000
00000000
,
00010000
00010000
00001000
00001000
,
00000010
00000010
00000001
00000000
,
00000100
00000100
00000010
00000010
,
00010000
00010000
00001000
00001000
,
00100000
00100000
00010000
00010000
,
20000000
00000000
00000000
30000000
,
00100000
01100000
00010000
10000000
,
01000000
00100000
00001000
00011000
,
00000000
00010000
00000100
00000010
,
00000001
00001000
00000010
00000220
,
00000000
00000000
00000000
00000000
,
00000330
00000000
00010000
00000000
00000000
00001000
00000000
00000000
,
00022000
00000000
00033000
00000000
,
00001000
00010000
01000000
10000000
,
10000000
00100000
00010000
00001000
,
00010000
00001000
00000010
00000001
,
00000001
00000100
00001000
00010000
,
00001000
00000000
00000000
01000000
00000000
00000000
00010000
00000000
,
00000000
10000000
00000000
00000000
01000000
00000000
00000000
00000000
,
00100000
00000000
00000000
00000000
00001000
00000000
00010000
00001000
,
00000000
00001000
00000000
00001000
00000000
00000000
00000000
00000000
,
00010000
00001000
00000100
00000001
,
00000001
00000010
00001000
00010000
,
00001000
00010000
00100000
10000000
,
10000000
01000000
00010000
00001000
,
00010000
00000000
00000000
00000100
00000000
00000000
00001000
00000000
,
00000000
00000010
00000000
00000000
00000100
00000000
00000000
00000000
,
00000001
00000000
00000000
00000100
00000000
00000100
00000000
00000010
,
00000000
00000010
00000000
00001000
00000000
00001000
00000000
00002002
,
00000000
00000000
00000000
00000000
,
00000000
00000000
00000000
00003003
,
00000001
00000000
00000100
00000000
,
00000010
00000000
00001000
00000000
,
00000100
00000000
00010000
00000000
,
00001000
00000000
00100000
00000000
,
00010000
00000000
01000000
00000000
,
00100000
00000000
01100000
00000000
,
10000000
10000000
01000000
01000000
,
00010000
00010000
00001000
00001000
,
00000010
00000010
00000001
00000001
,
00000100
00000010
00001000
00000000
,
00000001
00000001
00000100
00000100
,
00001000
00001000
00010000
00010000
,
00100000
00100000
01000000
01000000
,
00010000
00100000
00001000
00000000
,
00022000
00000000
00000000
00000000
,
00000000
00000000
00000000
00000000
,
00033000
00000000
00000000
00000000
,
00000000
00000000
00000000
00000000
;
#NOTES:
     dance-double:
     :
     Medium:
     12:
     :
00000000
00000000
00000000
00000000
,
00000000
00000000
00000000
00000000
,
00000000
00000000
00000000
00000000
,
00000000
00000000
00000000
00000000
,
00000000
00000000
00000000
00000000
,
00000000
00000000
00000000
00000000
,
00000000
00000000
00000000
00000000
,
00000000
00000000
00000000
00000000
,
00000000
00000000
00000000
00000000
,
00001000
00011000
00001000
00011000
,
00100000
00010000
00110000
00000000
,
01000000
11000000
01000000
11000000
,
00010000
01000000
01010000
00000000
,
00012000
01003000
01100000
00001000
,
00012000
00103000
01100000
00000000
,
00001000
00000000
00010000
00001000
00000000
00010000
00001000
00000000
00010000
00001000
00000000
00000000
,
00020000
00000000
00000000
00030000
,
00012000
00000000
00000000
00003000
,
00000200
00000000
00000000
00000300
,
00000002
00000000
00000000
00000003
,
00000020
00000000
00000000
00000000
00000001
00000031
00000000
00000110
,
00000000
00010000
00001000
00000000
01000000
00100000
10000000
00000000
,
00010000
01000000
00100000
00000000
00010000
00000000
00001000
00000000
,
00010000
00000100
00000010
00000000
00000001
00001000
00000100
00000000
,
00000010
00000000
00001000
00000000
00010000
00001000
00000000
00000000
,
00021000
00000000
00000000
00030000
,
02000000
00000000
00000000
03000000
,
20000000
00000000
00000000
30000000
,
00200000
00000000
00000000
00000000
10000000
10300000
00000000
01100000
,
00000000
00001000
00010000
00000000
00000100
00000010
00000001
00000000
,
00001000
00000100
00000010
00000000
00001000
00000000
00010000
00000000
,
00001000
01000000
00100000
00000000
10000000
00010000
01000000
00000000
,
00100000
00000000
00010000
00000000
00001000
00010000
00000000
00000100
,
00000000
00000000
00000110
00000000
00000001
00000010
00000100
00000000
,
00010000
00000000
00001000
00000000
00010000
00001000
01000000
00000000
,
00100000
00000000
10000000
00000000
00010000
00100000
01000000
00000000
,
10000000
00100000
00010000
00001000
,
00011000
00000000
00010000
00000000
00000100
00000010
00000001
00000000
,
00000010
00000000
00001000
00000000
00010000
00001000
01000000
00000000
,
01100000
00000000
00000000
10000000
00000000
00000000
01100000
00000000
,
00000000
00010000
00000000
00000000
02002000
00000000
03003000
00000000
,
00001000
00001000
00010000
00010000
,
01000000
01000000
10000000
10000000
,
00100000
00100000
00010000
00010000
,
00001000
00001000
00000100
00000100
,
00000001
00000100
00001000
00010000
,
01000000
10000000
00100000
10000000
,
01000000
00000000
00000000
00100000
00000000
00000000
00001000
00000000
,
00010000
00000000
00010000
00000000
,
00021000
00030100
00001200
00010300
,
00021000
00030010
00001020
00010030
,
00012000
01003000
02010000
03001000
,
00012000
00103000
00210000
00301000
,
00001000
00000000
00010000
00001000
00000000
00000000
01000000
00000000
00000000
00000000
00000000
00000000
,
00001000
00000000
00010000
00001000
00000000
00000000
00100000
00000000
00000000
00000000
00000000
00000000
,
00001000
00000000
00010000
00001000
00000000
00010000
00001000
00000000
00010000
00001000
00000000
00010000
,
00002000
00000000
00000000
00003000
,
00010000
00001000
00010000
00000100
,
00000010
00000000
00000001
00000100
00000000
00001000
00010000
00000000
,
00000000
00001000
01000000
00010000
,
10000000
00000000
01000000
00100000
00000000
00002000
00020000
00000000
,
00000000
00000000
00000000
00000000
,
00033000
00000000
00001000
00010000
00000100
00001000
00000000
00000200
,
00000020
00000000
00000330
00000000
,
00010000
00001000
01000000
00000000
00100000
00000000
10000000
00000000
,
01000000
00010000
00001000
00000000
00010000
00000000
00000010
00000000
,
00000100
00000001
00000010
00000000
00001000
00000000
00010000
00000000
,
00001000
01000000
00100000
00000000
10000000
00000000
00100000
00000000
,
00010000
00000000
00000000
00021000
00000000
00000000
00030100
00000000
,
00000000
00012000
00000000
00000000
00103000
00000000
00000000
00000000
,
00001000
00000000
00100000
00000000
00010000
00000000
01000000
00100000
,
00000000
01000000
00000000
01100000
00000000
00000000
00000000
00000000
,
00001000
00010000
00000100
00000000
00000010
00000000
00000001
00000000
,
00000100
00001000
00010000
00000000
00001000
00000000
00100000
00000000
,
01000000
10000000
00100000
00000000
00010000
00000000
00001000
00000000
,
00010000
00000100
00000010
00000000
00000001
00000000
00000100
00000000
,
00001000
00000000
00000000
00010000
00000000
00000000
01000000
00000000
,
00000000
10000000
00000000
00000000
00100000
00000000
00000000
00000000
,
01100000
00000000
00000000
10000000
00000000
01000000
00000000
00100000
,
00000000
00001000
00000000
00010000
00000000
00001000
00000000
00022000
,
00000000
00000000
00000000
00000000
,
00000000
00000000
00000000
00033000
,
00010000
00000000
00000000
00000000
00000100
00000000
00001000
00000010
,
00000000
00010000
00001000
00000000
,
00010000
00000000
00001000
00010000
00000000
00001000
00100000
00000000
,
00001000
00010000
00000000
00001000
00100000
00000000
00001000
00000000
,
00010000
00000000
01000000
00100000
00000000
01000000
10000000
00000000
,
01000000
00100000
00000000
01000000
10000000
00000000
00000000
00000000
,
11000000
10100000
00100000
00010000
,
00011000
00010100
00000100
00000010
,
00000011
00000101
00000100
00001000
,
00011000
00101000
00100000
01000000
,
21000000
30100000
01020000
00130000
,
00001000
00010000
00001000
00010000
,
00002100
00003010
00000102
00000013
,
00001100
00010100
00010000
00001000
,
00022000
00000000
00000000
00000000
,
00000000
00000000
00000000
00000000
,
00033000
00000000
00000000
00000000
,
00000000
00000000
00000000
00000000
;
#NOTES:
     dance-double:
     :
     Hard:
     15:
     :
00000000
00000000
00000000
00000000
,
00000000
00000000
00000000
00000000
,
00000000
00000000
00000000
00000000
,
00000000
00000000
00000000
00000000
,
00000000
00000000
00000000
00000000
,
00000000
00000000
00000000
00000000
,
00000000
00000000
00000000
00000000
,
00000000
00000000
00000000
00000000
,
00000000
00000000
00000000
00000000
,
00001000
00000000
00010000
00001000
00000000
00000000
01000000
00000000
00010000
01000000
00000000
00000000
,
00010000
00000000
10000000
01000000
00000000
10000000
01000000
00000000
00100000
00010000
00000000
00000000
,
10000000
00000000
01000000
10000000
00000000
00000000
01000000
00000000
00010000
01000000
00000000
00000000
,
00010000
00000000
00001000
00010000
00000000
00000010
00001000
00000000
00000010
00000100
00000000
00000000
,
00000001
00000000
00001000
00000100
00000000
00001000
00000100
00000000
00010000
00001000
00000000
00000000
,
00100000
00000000
00010000
00100000
00000000
00010000
00100000
00000000
00001000
00010000
00000000
00000000
,
00001000
00010000
00001000
00010000
00001000
00010000
00001000
00010000
00001000
00010000
00001000
00010000
,
00002000
00000000
00000000
00003000
,
00021000
00000000
00000000
00000000
,
02030000
00000000
00000000
00000000
,
23000000
00000000
00000000
00000000
,
30200000
00000000
00000000
00000000
01000000
01300000
00000000
00010000
,
00000000
10000000
01000000
00100000
00010000
01000000
00100000
00010000
,
00001000
00000010
00000001
00000100
00000001
00000010
00000001
00000100
,
00000001
00000010
00000100
00001000
00000010
00000100
00001000
00010000
,
01000000
00100000
00001000
00010000
00001000
00001000
00000000
00000000
,
00012000
00000000
00000000
00000000
,
00003200
00000000
00000000
00000000
,
00000302
00000000
00000000
00000000
,
00000023
00000000
00000000
00000000
00000100
00000130
00000000
00010000
,
00000000
00001000
00000100
00000010
00010000
00001000
00000010
00000001
,
00000001
00000100
00001000
00010000
00000100
00000010
00001000
00010000
,
00001000
00010000
00100000
01000000
00001000
00010000
01000000
10000000
,
10000000
00100000
00010000
00001000
00100000
01000000
00000000
11000000
,
00000000
00000000
10000000
00100000
01000000
00010000
00100000
00001000
,
00010000
00001000
01000000
00010000
00100000
01000000
10000000
00100000
,
01000000
10000000
00010000
00100000
01000000
00010000
00100000
00001000
,
00010000
00000100
00001000
00000100
00000010
00001000
00000001
00000100
,
00000010
00000001
00000100
00000010
00000001
00001000
00000100
00000010
,
00001000
00000100
00010000
00001000
00010000
01000000
00100000
00010000
,
00110000
00000000
00000000
00101000
00000000
00000000
00011000
00000000
,
00000000
00010100
00000000
00000000
00002200
00000000
00003300
00000000
,
00000010
00000001
00000010
00000001
00000100
00001000
00000100
00001000
,
00010000
01000000
00010000
01000000
10000000
00100000
10000000
00100000
,
00010000
00001000
00010000
00001000
00000010
00000001
00000010
00000001
,
00000100
00001000
00000100
00001000
00010000
01000000
00010000
01000000
,
00100000
00010000
00100000
01000000
00100000
00010000
00100000
00001000
,
00010000
00000010
00001000
00000010
00000100
00000010
00001000
00000010
,
00000100
00000001
00000010
00000100
,
00001000
00000001
00000100
00000000
00000010
00000000
00000100
00000000
,
00000001
00000000
00000000
00001000
00000100
00000000
00001000
00000100
00000000
00010000
00000000
00000000
,
00001000
00000000
00000000
00010000
00001000
00000000
00010000
00001000
00000000
00100000
00000000
00000000
,
00010000
00000000
00000000
01000000
00010000
01000000
00010000
00000000
00000000
01000000
00010000
01000000
,
00010000
00100000
00001000
00011000
,
00010000
00000010
00000000
00001000
00000000
00000000
00000010
00010000
00000000
00001000
00000000
00000000
,
00001000
00100000
00000000
00010000
00000000
00000000
00100000
00001000
00000000
00010000
00000000
00000000
,
00001000
00010000
00001000
00010000
00001000
00010000
00001000
00010000
00001000
00010000
00001000
00010000
,
00002000
00000000
00000000
00003000
,
00010000
00000100
00000001
00001000
,
00000010
00000000
00000001
00000000
00000100
00001000
00010000
00000000
,
00001000
00100000
10000000
00010000
,
01000000
00000000
10000000
01000000
00100000
00000000
20020000
00000000
,
00000000
00000000
00000000
00000000
,
30030000
00000000
10000000
00100000
01000000
00001000
00000000
00010000
,
00022000
00000000
00033000
00000000
,
00010000
00000100
00000001
00001000
00000010
00000001
00000001
00000100
,
00001000
00000001
00000010
00010000
00001000
00010000
01000000
10000000
,
10000000
00100000
00010000
10000000
01000000
00001000
00010000
01000000
,
10000000
00100000
00010000
00001000
00010000
00000100
00000010
00000001
,
00000011
00000000
00000000
00010100
00000000
00000000
00011000
00000000
,
00000000
01001000
00000000
00000000
10100000
00000000
00000000
00000000
,
00100000
00010000
00001000
00010000
01000000
00100000
00001000
00010000
,
00000000
00010010
00000000
00011000
00000000
00010000
00001000
00010000
,
00001000
01000000
10000000
00010000
00100000
10000000
10000000
01000000
,
00010000
10000000
00100000
00001000
00010000
00001000
00000100
00000001
,
00000001
00000010
00001000
00000001
00000100
00010000
00001000
00000100
,
00000001
00000010
00001000
00010000
00001000
01000000
00100000
10000000
,
01000000
00010000
00010000
00001000
00000100
00000100
00000001
00000010
,
00000010
00001000
00010000
00010000
00100000
10000000
10000000
01000000
,
00010000
00000000
00001000
00010000
00000000
00010100
00000000
00000110
,
00000000
00000101
00000000
00000110
00000000
00001100
00000000
00020200
,
00000000
00000000
00000000
00000000
,
00000000
00000000
00000000
00030300
,
00010000
00001000
01000000
00010000
00100000
00001000
00010000
00001000
,
00000000
00100000
00010000
01000000
00001000
00010000
00001000
00000000
,
00100000
00100000
00001000
00100000
00100000
00010000
00100000
00100000
,
01000000
00100000
00100000
00010000
00100000
00100000
00001000
00010000
,
00000010
00000010
00001000
00000010
00000010
00000100
00000010
00000001
,
00000000
00000010
00001000
00000010
00010000
00001000
00010000
00000000
,
00010000
00000000
00001000
00010000
00000000
00001000
01000000
00000000
00010000
10000000
00000000
10000000
,
01000000
00000000
00010000
00001000
00000000
00010000
00000100
00000000
00001000
00000001
00000000
00000001
,
00000100
00000000
00001000
00010000
00000000
00001000
00100000
00000000
00010000
10000000
00000000
10000000
,
00100000
00000000
00010000
00001000
00000000
00000000
00010000
00000000
00000000
00011000
00000000
00000000
,
00010000
00000000
00000100
00001000
00000000
00000010
00000100
00000000
00001000
00010000
00000000
00100000
,
01000000
00000000
00010000
00100000
00000000
00001000
00010000
00000000
00000100
00001000
00000000
00000010
,
00000100
00000000
00001000
00010000
00000000
00100000
01000000
00000000
00000000
00001000
00000000
00000000
,
00010000
00001000
00010000
00001000
00010000
00001000
00010000
00001000
00010000
00001000
00010000
00001000
,
00020000
00000000
00000000
00000000
,
00000000
00000000
00000000
00000000
,
00030000
00000000
00000000
00000000
,
00000000
00000000
00000000
00000000
;
