
//----- song ID: meta -----//
#TITLE:Metamorphic;
#ARTIST:BEMANI Sound Team "Sota Fujimori";
#BANNER:Metamorphic.png;
#BACKGROUND:Metamorphic-bg.png;
#CDTITLE:./CDTitles/NOSTALGIA Op.3.png;
#MUSIC:Metamorphic.ogg;
#SAMPLESTART:85.198;
#SAMPLELENGTH:15;
#BPMS:0=200;
#BGSTAGE:3;
#NOTES:
     dance-single:
     :
     Beginner:
     6:
     :
0000
0000
0000
0000
,
0000
0000
0000
0000
,
0000
0000
0000
0000
,
0000
0000
0000
0000
,
0000
0000
0000
0000
,
0000
0000
0000
0000
,
0000
0000
0000
0000
,
1001
0000
0000
0000
,
0000
0000
0000
0000
,
0001
0000
0100
0000
,
0001
0000
0100
0000
,
0010
0000
1000
0000
,
0010
0000
0100
0000
,
0001
0000
1000
0000
,
0100
0000
1000
0000
,
0001
0000
0100
0000
,
0001
0000
1000
0000
,
0100
0000
1000
0000
,
0100
0000
0010
0000
,
0001
0000
1000
0000
,
0001
0000
0100
0000
,
0010
0000
1000
0000
,
0010
0000
1000
0000
,
0001
0000
0100
0000
,
0001
0000
1000
0000
,
1001
0000
0000
0000
,
0100
0000
0010
0000
,
0110
0000
0000
0000
,
0001
0000
0100
0000
,
0001
0000
1000
0000
,
0010
0000
0100
0000
,
0001
0000
1000
0000
,
0001
0000
0000
0000
,
1001
0000
0000
0000
,
0100
0000
0010
0000
,
0110
0000
0000
0000
,
1000
0000
0100
0000
,
1000
0000
0001
0000
,
0100
0000
0001
0000
,
1000
0000
0010
0000
,
1000
0000
0000
0000
,
0001
0000
0001
0000
,
1000
0000
1000
0000
,
0010
0000
0010
0000
,
0100
0000
0100
0000
,
0001
0000
1000
0000
,
0001
0000
1000
0000
,
0100
0000
0010
0000
,
0100
0100
0100
0000
,
1000
0000
0000
0000
,
0000
0000
0000
0000
,
0001
0000
0000
0000
,
0100
0100
0100
0000
,
0001
0000
1000
0000
,
0010
0000
1000
0000
,
0010
0000
0100
0000
,
0001
0000
0100
0000
,
0001
0000
1000
0000
,
0001
0000
1000
0000
,
0001
0000
0100
0000
,
0010
0010
0010
0000
,
1000
0000
1000
0000
,
0001
0000
0001
0000
,
0100
0000
0010
0000
,
0100
0100
0100
0000
,
0001
0000
0001
0000
,
1000
0000
1000
0000
,
1001
0000
0000
0000
,
0000
0000
0000
0000
,
0220
0000
0000
0000
,
0000
0000
0330
0000
,
0010
0000
0100
0000
,
0010
0000
0100
0000
,
0001
0000
1000
0000
,
0001
0000
1000
0000
,
0010
0000
0100
0000
,
0110
0000
0000
0000
,
0001
0000
0010
0000
,
0001
0000
1000
0000
,
0010
0000
0100
0000
,
0010
0000
0100
0000
,
0001
0000
1000
0000
,
0100
0000
0010
0000
,
0001
0000
1000
0000
,
0010
0000
1000
0000
,
0001
0000
0010
0000
,
0001
0000
1000
0000
,
0001
0000
0000
0000
,
0000
0000
0000
0000
,
0100
0000
0000
0000
,
0000
0000
0000
0000
,
0010
0000
0000
0000
,
1000
0000
0000
0000
,
0001
0000
0000
0000
,
1000
0000
0000
0000
,
1001
0000
0000
0000
,
0000
0000
0000
0000
;
#NOTES:
     dance-single:
     :
     Easy:
     11:
     :
0000
0000
0000
0000
,
0000
0000
0000
0000
,
0000
0000
0000
0000
,
0000
0000
0000
0000
,
0000
0000
0000
0000
,
0000
0000
0000
0000
,
0000
0000
0000
0000
,
0010
0000
0000
0100
0000
0000
0000
2002
,
0000
0000
0000
0000
0000
3003
0000
0000
,
0001
0000
0100
0010
0000
0100
0000
0001
,
0000
1000
0010
0000
0000
0100
0000
0001
,
1000
0000
0001
0010
0000
0100
0000
0010
,
0000
0100
0010
0000
0001
0000
0100
0000
,
0001
0000
0100
0010
0000
0100
0000
0001
,
0000
1000
0001
0000
0100
0000
0010
0000
,
1000
0000
0100
0010
0000
0001
0000
1000
,
0000
0010
0100
0000
1001
0000
0000
0000
,
1000
0000
0010
0100
0000
0010
0000
1000
,
0000
0001
0100
0000
0000
0010
0000
1000
,
0001
0000
1000
0100
0000
0010
0000
0100
,
0000
0010
0100
0000
1000
0000
0010
0000
,
1000
0000
0010
0100
0000
0010
0000
1000
,
0000
0001
1000
0000
0100
0000
0010
0000
,
0001
0000
0010
0100
0000
1000
0000
0001
,
0000
0100
0010
0000
1001
0000
0000
0000
,
0001
0000
0100
0001
0000
1000
0000
0100
,
0000
0010
0000
0001
0000
1000
0000
0001
,
0000
1001
0000
0110
0000
0001
0000
0010
,
0000
0100
0000
1000
0000
0001
1000
0000
,
0010
0000
0100
0010
0000
1000
0000
0100
,
0000
0010
0000
0001
0000
1000
0000
0001
,
0000
0010
0000
0100
0000
0010
0000
0001
,
0000
1000
0000
0001
0000
0110
0000
0000
,
1000
0000
0010
1000
0000
0001
0000
0010
,
0000
0100
0000
1000
0000
0001
0000
1000
,
0000
1001
0000
0110
0000
1000
0000
0100
,
0000
0010
0000
0001
0000
1000
0001
0000
,
0100
0000
0010
0100
0000
0001
0000
0010
,
0000
0100
0000
1000
0000
0001
0000
1000
,
0000
0100
0000
0010
0000
0100
0000
1000
,
0000
0001
0000
1000
0000
0110
0000
0000
,
1000
0100
1000
0010
,
0100
0001
0010
0100
,
1000
0001
0100
0010
,
1000
0100
0010
0001
,
0100
0100
0010
0010
,
1000
0001
0010
0100
,
1000
0000
0001
0100
0000
0010
0000
0100
,
0000
0001
0010
0000
0100
0100
0000
0000
,
1000
0010
1000
0010
,
0100
0001
0100
0010
,
1000
0000
0000
0001
0000
0000
1000
0000
,
0010
0100
0010
1001
,
0001
0000
0100
0000
0001
0000
0100
0010
,
0000
1000
0100
0000
1000
0000
0010
0000
,
0100
0000
0001
1000
0000
0010
0000
0100
,
0000
0001
0010
0000
0100
0100
0000
0000
,
1000
0000
0010
0000
1000
0000
0010
0100
,
0000
0001
0010
0000
0001
0000
0100
0000
,
0010
0000
1000
0001
0000
0100
0000
0010
,
0000
1000
0100
0000
0010
0010
0000
0000
,
0001
0100
0010
1000
,
0001
0010
0100
1000
,
0001
0100
0001
0010
,
0001
0000
1000
0000
0100
0100
0000
0000
,
1000
0100
0010
0001
,
1000
0010
0100
0001
,
0100
0000
0010
0100
0000
0001
0000
1000
,
0000
0100
0010
0000
0100
0100
0000
0000
,
2002
0000
0000
0000
,
0000
0000
0000
3003
,
0001
0000
1000
0001
0000
0010
0000
0100
,
0000
0010
0100
0000
1000
0000
0001
0000
,
1000
0100
0010
0100
,
1000
0001
0010
0100
,
1000
0001
0100
0001
,
0010
0010
0100
0100
,
1000
0000
0010
0100
0000
0010
0000
1000
,
0000
0100
0010
0000
0001
0001
0000
0000
,
1000
0000
0100
0010
0000
0100
0000
1000
,
0000
0001
0010
0000
0000
0001
0000
1000
,
0001
0000
1000
0010
0000
0100
0000
0010
,
0000
1000
0100
0000
0010
0000
0001
0000
,
0100
0000
0001
0010
0000
0100
0000
1000
,
0000
0001
1000
0000
0100
0000
0010
0000
,
0100
0000
1000
0010
0000
1000
0000
0001
,
0000
0010
0100
0000
1001
0000
0000
0000
,
1000
0100
1000
0000
,
0001
0100
0010
0000
,
1000
0010
1000
0000
,
0001
0010
0100
1000
,
0001
0010
0001
0000
,
1000
0100
0010
0000
,
0001
1000
0010
0100
,
0001
0010
0100
0000
,
1001
0000
0000
0000
,
0000
0000
0000
0000
;
#NOTES:
     dance-single:
     :
     Medium:
     14:
     :
0000
0000
0000
0000
,
0000
0000
0000
0000
,
0000
0000
0000
0000
,
0000
0000
0000
0000
,
0000
0000
0000
0000
,
0000
0000
0000
0000
,
0000
0000
0000
0000
,
0001
0001
0000
0100
0000
0010
0000
1000
,
0000
0001
0100
0001
1000
0010
1000
0000
,
0100
0010
0100
0010
0000
0100
1000
0100
,
0000
0010
0001
0010
0000
0001
0100
0001
,
1000
0100
0010
0001
0000
0011
0000
1001
,
0000
1000
0010
1000
0100
0010
0100
0000
,
1000
0010
1000
0010
0000
0100
0001
0100
,
0000
0001
0010
0001
1000
0010
1000
0000
,
0001
0100
0001
0100
0000
0010
1000
0010
,
0000
1000
0100
1000
0001
0001
0000
0000
,
0010
0100
0010
0100
0000
0010
0001
0010
,
0000
0100
1000
0100
0000
1000
0010
1000
,
0001
0010
0100
1000
0000
1100
0000
1001
,
0000
0001
0100
0001
0010
0100
0010
0000
,
0001
0100
0001
0100
0000
0010
1000
0010
,
0000
1000
0100
1000
0001
0100
0001
0000
,
1000
0010
1000
0010
0000
0100
0001
0100
,
0000
0001
0010
0001
1000
0001
1000
0000
,
0010
0100
0010
0100
0000
0010
0000
1001
,
0000
0100
0000
1001
0000
0100
0010
0100
,
0000
0011
0000
0100
0000
1000
0010
1000
,
0000
0110
0000
0001
0000
1000
0100
0010
,
0001
0100
0001
0100
0000
0010
1000
0010
,
0000
0110
0000
1000
0000
0001
0010
0001
,
0000
1000
0010
0100
0000
0001
0010
0100
,
0000
1000
0100
0001
0000
0100
0100
0000
,
1000
0010
1000
0010
0000
0100
0000
1010
,
0000
0001
0000
0011
0000
1000
0100
1000
,
0000
0110
0000
1000
0000
0001
0100
0001
,
0000
0110
0000
1000
0000
0001
0010
0100
,
1000
0010
1000
0010
0000
0100
0001
0100
,
0000
0110
0000
0001
0000
1000
0100
1000
,
0000
0010
1000
0100
0000
0010
0001
0100
,
0000
0001
0100
1000
0000
0100
0100
0000
,
0010
1000
0010
0000
1000
0100
1000
0000
,
0001
0010
0001
0010
0000
0100
1000
0100
,
0010
0100
0010
0100
0000
1000
0010
1000
,
0000
0001
0100
0010
1000
0000
0001
0000
,
1000
0100
1000
0000
0001
0100
0001
0000
,
1000
0010
0100
0001
0000
1000
0100
0010
,
0001
0010
0001
0010
0000
0100
1000
0001
,
0000
0100
0010
0100
0010
0010
0000
0000
,
1000
0001
1000
0000
0010
0000
0100
0000
,
0001
0010
0100
1000
,
0001
0100
0000
0010
1000
0000
0100
0000
,
1000
0010
0100
1001
,
0001
0010
0001
0010
0100
0000
1000
0100
,
0000
0001
0100
0000
1000
0010
1000
0000
,
0001
0100
0001
1000
0000
1010
0000
0110
,
0000
1000
0001
0100
0001
0001
0000
0000
,
1000
0100
1000
0100
0010
0000
0001
0010
,
0000
1000
0010
0000
0001
0100
0010
0000
,
1000
0001
1000
0100
0000
1100
0000
0110
,
0000
0010
0001
0010
0001
0001
0000
0000
,
1000
0100
0001
0000
0001
0100
1000
0000
,
0001
0010
0001
0010
0100
1000
0100
0000
,
1000
0010
0001
0010
1000
0010
0000
0110
,
0000
0001
1000
0001
0100
0100
0000
0000
,
0010
1000
0100
0010
0001
0100
0001
0100
,
0000
0010
0100
0010
1000
0001
1000
0000
,
0100
0010
0100
0010
0000
0011
0000
0110
,
0000
1000
0100
0010
0001
0001
0000
0000
,
2002
0000
0000
0000
,
0000
0000
3003
1001
,
1000
0010
1000
0010
0000
1000
0000
0001
,
0000
0010
0001
0010
0100
0010
0100
0000
,
1000
0010
1000
0010
0100
0001
0100
0010
,
1000
0000
0001
0000
0010
0100
0010
0000
,
0001
0010
0001
0000
1000
0010
1000
0000
,
0001
0000
0010
0100
0000
1000
0100
1000
0100
1000
0000
0000
,
0001
0100
0001
0100
0000
0010
1000
0010
,
0000
1000
0001
0100
0001
0001
0000
0000
,
1000
0100
1000
0001
0000
0010
0100
0010
,
0000
0001
0100
0001
0000
1000
0010
1000
,
0001
0010
0100
1000
0000
1100
0000
1001
,
0000
0001
0100
0001
0010
0100
0010
0000
,
0001
0100
0001
1000
0000
0100
0010
0100
,
0000
1000
0010
1000
0001
0100
0001
0000
,
1000
0010
0100
0001
0000
0010
0100
1000
,
0000
0001
0010
0001
1000
1000
0000
0000
,
0001
0000
0010
0000
0100
0000
1000
0010
,
0100
0001
0100
0001
0100
0000
0110
0000
,
1000
0000
0010
0000
0100
0000
0001
0010
,
0100
1000
0100
1000
0100
0000
1001
0000
,
0001
0000
0010
0000
1000
0000
0010
0100
,
1000
0001
1000
0001
0100
0000
0110
0000
,
1000
0000
0010
0000
0001
0000
0010
0100
,
0001
0010
0100
1000
0001
0000
0000
0000
,
1001
0000
0000
0000
,
0000
0000
0000
0000
;
#NOTES:
     dance-single:
     :
     Hard:
     16:
     :
0000
0000
0000
0000
,
0000
0000
0000
0000
,
0000
0000
0000
0000
,
0000
0000
0000
0000
,
0000
0000
0000
0000
,
0000
0000
0000
0000
,
0000
0000
0000
0000
,
1100
1100
0000
1001
0000
0011
0000
0110
,
0000
1000
0100
0010
0001
0100
0010
1000
,
0001
0000
0100
0010
0100
0000
0001
0000
0000
0000
1000
0010
1000
0000
0100
0000
,
0000
0000
0010
0100
0010
0000
0100
0000
0000
0000
1000
0000
0001
0000
0010
0000
,
0001
0100
0010
1000
0000
0011
0000
1100
,
0000
1000
0100
0001
0100
0010
0001
0100
,
0010
0000
1000
0001
0010
0000
0100
0000
0000
0000
1000
0010
0100
0000
0001
0000
,
0000
0010
0001
0100
0001
0010
0100
1000
,
0001
0000
0100
0010
0100
0000
0001
0000
0000
0000
1000
0100
1000
0000
0010
0000
,
0000
1000
0100
1000
0001
0001
0000
0000
,
1000
0000
0010
0100
0010
0000
1000
0000
0000
0000
0001
0100
0001
0000
0010
0000
,
0000
0000
0100
0010
0100
0000
0010
0000
0000
0000
0001
0000
1000
0000
0100
0000
,
1000
0010
0100
0001
0000
1100
0000
0011
,
0000
0001
0010
1000
0010
0100
1000
0010
,
0100
0000
0001
1000
0100
0000
0010
0000
0000
0000
0001
0100
0010
0000
1000
0000
,
0000
0100
1000
0010
1000
0100
0010
0001
,
1000
0000
0010
0100
0010
0000
1000
0000
0000
0000
0001
0010
0001
0000
0100
0000
,
0000
0001
0010
0001
1000
1000
1010
0000
,
0001
0000
0010
0100
0010
0000
0100
0000
0000
0000
1100
0000
0000
0000
1010
0000
,
0000
0101
0000
0011
0000
0001
1000
0100
,
0000
0110
0000
1100
0000
1000
0010
0001
,
0000
0110
0000
1010
0000
0001
0010
0100
,
0010
0000
0100
1000
0001
0000
0100
0000
0000
0000
0010
0000
1000
0000
0100
0000
,
0000
0011
0000
1100
0000
1000
0010
1000
,
0000
0001
0010
1000
0000
0001
0100
1000
,
0000
0000
0001
0010
0100
0000
0010
0000
0000
0000
0001
0000
0001
0000
0000
0000
,
1000
0000
0100
0010
0100
0000
0010
0000
0000
0000
0011
0000
0000
0000
0101
0000
,
0000
1010
0000
1100
0000
1000
0001
0010
,
0000
0110
0000
0011
0000
0001
0100
1000
,
0000
0110
0000
0101
0000
1000
0100
0010
,
0100
0000
0010
0001
1000
0000
0010
0000
0000
0000
0100
0000
0001
0000
0010
0000
,
0000
1100
0000
0011
0000
0001
0100
0001
,
0000
1000
0100
0001
0000
1000
0010
0001
,
0000
0000
1000
0010
0100
0000
0001
0000
0000
0000
1000
0000
1001
0000
0000
0000
,
0001
0100
0010
1000
0001
0010
0100
1000
,
0001
0010
1000
0010
0000
0001
0100
0001
,
1000
0010
0100
0010
0000
1000
0100
1000
,
0000
0001
0010
0001
1000
0100
0010
0001
,
1000
0010
0100
0010
1000
0100
0010
0001
,
1000
0100
0010
0001
0000
0100
0010
0100
,
0001
0001
0010
1000
0000
0010
0001
0100
,
0000
0010
1000
0001
0100
0100
0000
0000
,
0010
0100
0010
0000
1000
0000
0001
0000
,
1000
0000
0000
0100
0000
0000
0010
0000
0000
0001
0100
0001
,
1000
0010
0000
0001
0010
0000
1000
0000
,
1100
0000
0110
0000
0010
0100
1001
0000
,
1000
0000
0010
0000
0100
0000
0001
0000
0010
0100
0010
0000
0001
0000
0100
0000
,
0000
0000
0010
0000
1000
0000
0001
0000
0100
0010
0100
0000
0010
0000
1000
0000
,
0001
0100
0010
0100
0000
0101
0000
1010
,
0000
0001
0100
0010
0100
0100
0010
0010
,
1000
0000
0001
0000
0010
0000
0100
0000
1000
0010
0100
0000
0001
0010
0100
0000
,
0000
0000
1000
0000
0001
0000
0100
0000
0010
0100
0001
0000
0010
0000
0100
0000
,
1000
0001
0010
0100
0000
0110
0000
1001
,
0000
0000
0001
0100
0001
0100
0010
0000
0100
0000
0100
0000
0000
0000
0000
0000
,
0001
0010
0001
0000
1000
0000
0100
0000
1000
0000
0010
0100
0010
0000
1000
0000
,
0000
0000
0001
0000
0100
0000
0010
0000
1000
0100
1000
0000
0001
0000
0100
0000
,
0001
0000
1000
0010
1000
0000
0001
0000
0010
0100
0010
0000
0000
0000
0011
0000
,
0000
1000
0100
0010
0110
0110
0000
0000
,
0001
0010
0100
0000
0010
0000
0001
0000
1000
0000
0010
0100
0001
0000
0100
0000
,
0000
0000
0010
0000
1000
0000
0100
0000
0010
0001
0010
0000
0100
1000
0100
0000
,
1000
0010
0100
0110
0000
1010
0000
1001
,
0000
0001
1000
0100
1100
1100
0000
0000
,
0220
0000
0000
0000
,
0000
0000
0330
1001
,
0001
0000
0010
0100
1000
0000
0001
0000
0000
0000
0101
0000
0000
0000
1100
0000
,
0000
0001
0100
0010
0100
0001
1000
0001
,
1000
0000
0100
0000
0010
0100
0010
0000
0001
0000
1000
0000
0100
0000
1000
0000
,
0001
0010
0001
0000
1000
0010
1000
0000
0010
0000
0100
0000
0001
0000
1000
0000
,
0100
0000
0010
0001
0010
0000
0001
0000
1000
0100
1000
0000
0001
0100
0001
0000
,
1000
0100
0010
0100
0010
0001
1000
0100
0010
0001
0000
0000
,
1000
0000
0001
0010
0100
0000
1000
0000
0000
0000
0001
0100
0010
0000
1000
0000
,
0000
1000
0001
0100
0110
0110
0000
0000
,
1000
0000
0100
0010
0001
0000
1000
0000
0000
0000
0010
0100
0001
0000
1000
0000
,
0000
0000
0100
0010
0100
0000
1000
0000
0000
0000
0001
0000
0100
0000
0010
0000
,
1000
0100
0001
0100
0000
1100
0000
0011
,
0000
0001
0100
1000
0100
0010
1000
0100
,
0010
0000
0001
1000
0100
0000
0010
0000
0000
0000
0001
0100
0010
0000
1000
0000
,
0000
0100
1000
0001
0010
0100
1000
0001
,
0100
0000
0010
1000
0100
0000
1100
0000
0000
0000
0010
0001
0100
0000
0101
0000
,
0000
0001
1000
0010
0110
0110
0000
0000
,
0001
0000
0100
0010
0000
0100
0000
0001
,
1000
0100
1000
0100
0000
0010
0000
0100
,
0010
0000
0001
1000
0000
0010
0000
0100
,
0001
0100
0001
0000
1000
0000
0001
0000
,
0010
0000
0100
1000
0000
0010
0100
0010
,
0100
0000
0001
0100
0000
0010
1000
0010
,
0100
0000
0001
0010
0000
0001
0010
0100
,
1000
0010
0100
0000
,
1001
0000
0000
0000
,
0000
0000
0000
0000
;
#NOTES:
     dance-double:
     :
     Easy:
     11:
     :
00000000
00000000
00000000
00000000
,
00000000
00000000
00000000
00000000
,
00000000
00000000
00000000
00000000
,
00000000
00000000
00000000
00000000
,
00000000
00000000
00000000
00000000
,
00000000
00000000
00000000
00000000
,
00000000
00000000
00000000
00000000
,
10000000
00000000
00000000
00010000
00000000
00000000
00000000
20020000
,
00000000
00000000
00000000
00000000
00000000
30030000
00000000
00000000
,
00010000
00000000
01000000
00001000
00000000
00010000
00000000
00000010
,
00000000
00001000
00000001
00000000
00000000
00000010
00000000
00000100
,
00001000
00000000
00000010
00010000
00000000
00001000
00000000
00010000
,
00000000
00001000
00100000
00000000
00010000
00000000
10000000
00000000
,
01000000
00000000
00100000
00010000
00000000
00100000
00000000
00001000
,
00000000
00010000
00001000
00000000
00000100
00000000
00000001
00000000
,
00000010
00000000
00000100
00001000
00000000
00000010
00000000
00010000
,
00000000
00001000
00010000
00000000
00011000
00000000
00000000
00000000
,
00010000
00000000
00000100
00010000
00000000
00001000
00000000
01000000
,
00000000
00010000
10000000
00000000
00000000
01000000
00000000
00100000
,
00010000
00000000
01000000
00001000
00000000
00010000
00000000
00001000
,
00000000
00010000
00000100
00000000
00001000
00000000
00000001
00000000
,
00000010
00000000
00000100
00001000
00000000
00000100
00000000
00010000
,
00000000
00001000
00010000
00000000
00100000
00000000
10000000
00000000
,
01000000
00000000
00100000
00010000
00000000
01000000
00000000
00001000
,
00000000
00010000
00001000
00000000
00011000
00000000
00000000
00000000
,
00010000
00000000
00000010
00001000
00000000
00000100
00000000
00000010
,
00000000
00000001
00000000
00001000
00000000
00000100
00000000
00010000
,
00000000
00011000
00000000
01001000
00000000
01000000
00000000
00010000
,
00000000
00100000
00000000
01000000
00000000
10000000
00010000
00000000
,
00100000
00000000
01000000
00100000
00000000
00010000
00000000
10000000
,
00000000
01000000
00000000
10000000
00000000
00100000
00000000
00010000
,
00000000
00001000
00000000
00010000
00000000
00000010
00000000
00001000
,
00000000
00000100
00000000
00010000
00000000
00011000
00000000
00000000
,
00001000
00000000
01000000
00010000
00000000
00100000
00000000
01000000
,
00000000
10000000
00000000
00010000
00000000
00100000
00000000
00001000
,
00000000
00011000
00000000
00010010
00000000
00000010
00000000
00001000
,
00000000
00000100
00000000
00000010
00000000
00000001
00001000
00000000
,
00000100
00000000
00000010
00000100
00000000
00001000
00000000
00000001
,
00000000
00000010
00000000
00000001
00000000
00000100
00000000
00001000
,
00000000
00010000
00000000
00001000
00000000
01000000
00000000
00010000
,
00000000
00100000
00000000
00001000
00000000
00011000
00000000
00000000
,
00010000
00001000
00000100
00000001
,
00001000
00000100
00010000
00001000
,
01000000
00010000
10000000
00100000
,
01000000
00010000
10000000
01000000
,
00010000
00010000
00001000
00001000
,
00000010
00000001
00001000
00000100
,
00010000
00000000
00001000
01000000
00000000
00100000
00000000
01000000
,
00000000
00010000
00100000
00000000
01000000
01000000
00000000
00000000
,
10000000
01000000
10000000
01000000
,
00100000
00010000
00001000
00000100
,
00000010
00000000
00000000
00000001
00000000
00000000
00001000
00000000
,
00000100
00010000
00001000
00011000
,
00001000
00000000
00100000
00000000
00010000
00000000
01000000
00100000
,
00000000
10000000
01000000
00000000
00100000
00000000
01000000
00000000
,
10000000
00000000
00010000
01000000
00000000
00001000
00000000
00010000
,
00000000
00000100
00001000
00000000
00000010
00000010
00000000
00000000
,
00000100
00000000
00000001
00000000
00001000
00000000
00000010
00000100
,
00000000
00000001
00000010
00000000
00000100
00000000
00001000
00000000
,
00000100
00000000
00010000
00001000
00000000
00100000
00000000
00010000
,
00000000
10000000
00010000
00000000
00100000
00100000
00000000
00000000
,
00001000
00010000
00000010
00001000
,
00000001
00000010
00000100
00001000
,
00000001
00000100
00001000
00010000
,
00100000
00000000
10000000
00000000
00010000
00010000
00000000
00000000
,
10000000
01000000
00100000
00010000
,
10000000
01000000
00010000
00001000
,
00000010
00000000
00000001
00000010
00000000
00000001
00000000
00001000
,
00000000
00000100
00010000
00000000
00001000
00001000
00000000
00000000
,
00022000
00000000
00000000
00000000
,
00000000
00000000
00000000
00033000
,
00010000
00000000
00000100
00001000
00000000
00000001
00000000
00000100
,
00000000
00000010
00001000
00000000
00000010
00000000
00010000
00000000
,
00001000
00010000
00100000
01000000
,
00100000
10000000
00010000
10000000
,
01000000
00010000
00001000
00010000
,
00000100
00000100
00001000
00001000
,
00000001
00000000
00000010
00000100
00000000
00000010
00000000
00000001
,
00000000
00001000
00000100
00000000
00010000
00010000
00000000
00000000
,
00001000
00000000
00100000
00010000
00000000
01000000
00000000
00100000
,
00000000
10000000
00010000
00000000
00000000
01000000
00000000
00010000
,
00100000
00000000
00001000
00010000
00000000
00000010
00000000
00001000
,
00000000
00000100
00000010
00000000
00000001
00000000
00001000
00000000
,
00000010
00000000
00010000
00001000
00000000
01000000
00000000
00010000
,
00000000
00100000
01000000
00000000
10000000
00000000
00010000
00000000
,
00100000
00000000
00001000
00010000
00000000
00000100
00000000
00010000
,
00000000
00001000
01000000
00000000
00011000
00000000
00000000
00000000
,
00010000
00000100
00001000
00000000
,
00000001
00000010
00000100
00000000
,
00001000
00000010
00010000
00000000
,
00001000
00010000
01000000
10000000
,
00010000
01000000
00001000
00000000
,
00010000
00000100
00001000
00000000
,
00000001
00000010
00000100
00001000
,
00000100
00010000
00001000
00000000
,
00011000
00000000
00000000
00000000
,
00000000
00000000
00000000
00000000
;
#NOTES:
     dance-double:
     :
     Medium:
     14:
     :
00000000
00000000
00000000
00000000
,
00000000
00000000
00000000
00000000
,
00000000
00000000
00000000
00000000
,
00000000
00000000
00000000
00000000
,
00000000
00000000
00000000
00000000
,
00000000
00000000
00000000
00000000
,
00000000
00000000
00000000
00000000
,
00001000
00001000
00000000
00010000
00000000
00000100
00000000
00001000
,
00000000
00000001
00000100
00000001
00001000
00000010
00001000
00000000
,
00000100
00010000
00001000
00010000
00000000
00001000
00100000
00010000
,
00000000
10000000
00100000
10000000
00000000
00010000
01000000
00001000
,
00010000
00000010
00001000
00000001
00000000
00000101
00000000
00001001
,
00000000
00001000
00000100
00010000
00000100
00010000
00001000
00000000
,
01000000
00010000
01000000
00100000
00000000
10000000
00010000
10000000
,
00000000
01000000
00100000
00010000
00100000
00001000
00010000
00000000
,
00000100
00001000
00000100
00000010
00000000
00000001
00000100
00000001
,
00000000
00001000
00000100
00010000
00001000
00001000
00000000
00000000
,
01000000
00001000
00010000
00001000
00000000
00010000
00000010
00001000
,
00000000
00000001
00000010
00000001
00000000
00001000
00000100
00010000
,
00001000
00100000
00010000
10000000
00000000
11000000
00000000
10010000
,
00000000
00010000
01000000
00001000
01000000
00001000
00010000
00000000
,
00000100
00001000
00000100
00000010
00000000
00000001
00001000
00000001
,
00000000
00000100
00000010
00001000
00000010
00010000
00001000
00000000
,
01000000
00010000
01000000
00100000
00000000
10000000
01000000
10000000
,
00000000
00010000
01000000
00001000
00010000
00010000
00000000
00000000
,
00000010
00001000
00000010
00001000
00000000
00000100
00000000
00000110
,
00000000
00010000
00000000
00011000
00000000
00001000
00010000
00001000
,
00000000
01001000
00000000
00010000
00000000
01000000
00100000
01000000
,
00000000
01100000
00000000
10000000
00000000
00010000
00100000
01000000
,
10000000
00010000
10000000
00010000
00000000
01000000
00001000
00010000
,
00000000
00011000
00000000
00010000
00000000
00000100
00001000
00000001
,
00000000
00000010
00001000
00010000
00000000
00001000
00010000
01000000
,
00000000
10000000
00100000
01000000
00000000
00010000
00010000
00000000
,
01000000
00010000
01000000
00010000
00000000
00100000
00000000
01100000
,
00000000
00001000
00000000
00011000
00000000
00010000
00001000
00010000
,
00000000
00010010
00000000
00001000
00000000
00000010
00000100
00000010
,
00000000
00000110
00000000
00000001
00000000
00001000
00000100
00000010
,
00000001
00001000
00000001
00001000
00000000
00000010
00010000
00001000
,
00000000
00011000
00000000
00001000
00000000
00100000
00010000
10000000
,
00000000
01000000
00010000
00001000
00000000
00010000
00001000
00000010
,
00000000
00000001
00000100
00000010
00000000
00001000
00001000
00000000
,
00000001
00000010
00000001
00000000
00001000
00000100
00001000
00000000
,
00000010
00010000
00001000
00010000
00000000
00001000
00100000
00010000
,
10000000
00100000
10000000
00100000
00000000
01000000
00010000
01000000
,
00000000
00001000
00010000
00000100
00001000
00000000
00000001
00000000
,
00000010
00000100
00000010
00000000
00000001
00001000
00000001
00000000
,
00001000
00000100
00010000
00001000
00000000
01000000
00010000
10000000
,
00100000
01000000
00100000
01000000
00000000
00001000
00010000
00001000
,
00000000
00000100
00000010
00000100
00000010
00000010
00000000
00000000
,
00001000
00000100
00001000
00000000
00000001
00000000
00000010
00000000
,
00001000
00010000
01000000
10000000
,
00010000
00100000
00000000
00001000
00010000
00000000
00000100
00000000
,
00001000
00000010
00000100
00001001
,
00001000
00000010
00010000
00001000
00010000
00000000
00100000
10000000
,
00000000
00010000
00100000
00000000
00001000
00010000
00001000
00000000
,
01000000
00010000
01000000
00100000
00000000
10100000
00000000
01100000
,
00000000
10000000
00010000
01000000
00001000
00001000
00000000
00000000
,
00010000
00000010
00001000
00000010
00000100
00000000
00000001
00001000
,
00000000
00000001
00000010
00000000
00001000
00010000
00001000
00000000
,
00000010
00000100
00000010
00000001
00000000
00000011
00000000
00001001
,
00000000
00001000
00000010
00010000
00001000
00001000
00000000
00000000
,
00010000
01000000
10000000
00000000
10000000
01000000
00010000
00000000
,
00001000
00000010
00000001
00000010
00000001
00001000
00000001
00000000
,
00000100
00001000
00010000
00100000
10000000
00100000
00000000
01100000
,
00000000
00010000
00100000
00001000
00010000
00010000
00000000
00000000
,
00000100
00001000
00000010
00000100
00000001
00001000
00000100
00001000
,
00000000
00000100
00010000
00001000
00010000
00001000
01000000
00000000
,
00100000
10000000
00100000
10000000
00000000
10010000
00000000
00110000
,
00000000
00100000
00001000
00010000
00000100
00000100
00000000
00000000
,
00000220
00000000
00000000
00000000
,
00000000
00000000
00000330
00001001
,
00000001
00000100
00000001
00000100
00000000
00000001
00000000
00000010
,
00000000
00001000
00010000
00001000
00100000
00010000
00100000
00000000
,
00010000
01000000
00010000
01000000
00100000
10000000
00100000
10000000
,
01000000
00000000
00010000
00000000
00001000
00010000
00001000
00000000
,
00000010
00000100
00000010
00000000
00000001
00001000
00000001
00000000
,
00001000
00000000
00000100
00010000
00000000
00010000
00001000
00010000
00001000
00010000
00000000
00000000
,
00001000
01000000
00001000
01000000
00000000
00010000
00100000
00010000
,
00000000
10000000
00100000
10000000
00010000
00010000
00000000
00000000
,
00100000
00001000
00010000
00001000
00000000
00010000
00000100
00001000
,
00000000
00000001
00000100
00000001
00000000
00001000
00000010
00010000
,
00001000
01000000
00010000
10000000
00000000
10100000
00000000
10010000
,
00000000
00010000
00100000
00001000
00100000
00001000
00010000
00000000
,
00000010
00001000
00000010
00000100
00000000
00000001
00001000
00000001
,
00000000
00000010
00000100
00001000
00000100
00010000
00001000
00000000
,
00010000
01000000
10000000
01000000
00000000
00010000
00001000
00000010
,
00000000
00001000
00010000
00001000
00100000
00100000
00000000
00000000
,
00010000
10000000
01000000
00100000
,
00010000
00100000
00001000
00010000
00001000
00000000
00011000
00000000
,
00010000
00000100
00001000
00000001
,
00000100
00000010
00000100
00000010
00001000
00000000
00001010
00000000
,
00000010
00010000
00001000
00100000
,
00010000
01000000
00010000
01000000
00100000
00000000
01100000
00000000
,
10000000
00100000
00010000
00001000
,
00000100
00000010
00000100
00000001
00001000
00000000
00000000
00000000
,
00011000
00000000
00000000
00000000
,
00000000
00000000
00000000
00000000
;
#NOTES:
     dance-double:
     :
     Hard:
     16:
     :
00000000
00000000
00000000
00000000
,
00000000
00000000
00000000
00000000
,
00000000
00000000
00000000
00000000
,
00000000
00000000
00000000
00000000
,
00000000
00000000
00000000
00000000
,
00000000
00000000
00000000
00000000
,
00000000
00000000
00000000
00000000
,
00000101
00000101
00000000
00001001
00000000
00001100
00000000
00010100
,
00000000
00010000
00001000
00100000
00010000
10000000
01000000
00100000
,
00010000
00000000
00100000
00001000
00100000
00000000
00001000
00000000
00000000
00000000
00010000
00000100
00010000
00000000
00000100
00000000
,
00000000
00000000
00001000
00000010
00001000
00000000
00000010
00000000
00000000
00000000
00000100
00000000
00000001
00000000
00000010
00000000
,
00000001
00000100
00001000
00010000
00000000
01000000
00000000
01100000
,
00000000
10000000
00010000
00100000
00001000
00010000
00001000
01000000
,
00010000
00000000
10000000
01000000
00100000
00000000
00010000
00000000
00000000
00000000
00100000
00001000
00010000
00000000
00000100
00000000
,
00000000
00001000
00000001
00000010
00000001
00000100
00001000
00010000
,
01000000
00000000
10000000
00010000
10000000
00000000
00010000
00000000
00000000
00000000
00100000
00001000
00100000
00000000
00001000
00000000
,
00000000
00010000
00000100
00001000
00000010
00000010
00000000
00000000
,
00001000
00000000
00000100
00010000
00000100
00000000
00010000
00000000
00000000
00000000
00001000
00100000
00001000
00000000
00100000
00000000
,
00000000
00000000
00010000
01000000
00010000
00000000
01000000
00000000
00000000
00000000
00100000
00000000
10000000
00000000
01000000
00000000
,
10000000
00100000
00010000
00001000
00000000
00000010
00000000
00000110
,
00000000
00000001
00001000
00000100
00010000
00001000
00010000
00000010
,
00001000
00000000
00000001
00000010
00000100
00000000
00001000
00000000
00000000
00000000
00000100
00010000
00001000
00000000
00100000
00000000
,
00000000
00010000
10000000
01000000
10000000
00100000
00010000
00001000
,
00000010
00000000
00000001
00001000
00000001
00000000
00001000
00000000
00000000
00000000
00000100
00010000
00000100
00000000
00010000
00000000
,
00000000
00001000
00100000
00010000
01000000
01000000
01100000
00000000
,
00010000
00000000
10000000
00100000
10000000
00000000
00010000
00000000
00000000
00000000
01010000
00000000
00000000
00000000
01001000
00000000
,
00000000
00011000
00000000
00010100
00000000
00000100
00001000
00000001
,
00000000
00000011
00000000
00000110
00000000
00000001
00000100
00001000
,
00000000
00011000
00000000
00101000
00000000
00100000
00010000
10000000
,
00100000
00000000
01000000
00010000
01000000
00000000
00001000
00000000
00000000
00000000
00010000
00000000
00000100
00000000
00001000
00000000
,
00000000
00001100
00000000
00000011
00000000
00001000
00000010
00010000
,
00000000
00001000
00010000
00100000
00000000
00010000
00001000
00000100
,
00000000
00000000
00000001
00000010
00000100
00000000
00000010
00000000
00000000
00000000
00000001
00000000
00000001
00000000
00000000
00000000
,
00001000
00000000
00000001
00000100
00000001
00000000
00001000
00000000
00000000
00000000
00001010
00000000
00000000
00000000
00010010
00000000
,
00000000
00011000
00000000
00101000
00000000
00100000
00010000
10000000
,
00000000
11000000
00000000
01100000
00000000
10000000
00100000
00010000
,
00000000
00011000
00000000
00010100
00000000
00000100
00001000
00000001
,
00000100
00000000
00000010
00001000
00000010
00000000
00010000
00000000
00000000
00000000
00001000
00000000
00100000
00000000
00010000
00000000
,
00000000
00110000
00000000
11000000
00000000
00010000
01000000
00001000
,
00000000
00010000
00001000
00000100
00000000
00001000
00010000
00100000
,
00000000
00000000
10000000
01000000
00100000
00000000
01000000
00000000
00000000
00000000
10000000
00000000
10010000
00000000
00000000
00000000
,
00010000
00100000
00001000
00010000
00000010
00001000
00000100
00000010
,
00000001
00000100
00001000
00010000
00000000
00001000
00000100
00001000
,
00010000
00100000
01000000
00100000
00000000
10000000
01000000
10000000
,
00000000
00010000
00100000
00010000
10000000
01000000
00100000
00010000
,
00100000
00001000
00010000
00000010
00000100
00001000
00010000
00001000
,
00100000
00010000
01000000
00100000
00000000
10000000
01000000
10000000
,
00010000
00010000
00100000
00001000
00000000
00010000
00000100
00001000
,
00000000
00000001
00000010
00000100
00001000
00001000
00000000
00000000
,
00000001
00000100
00000001
00000000
00000100
00000000
00001000
00000000
,
00010000
00000000
00000000
01000000
00000000
00000000
10000000
00000000
00000000
00010000
00100000
00010000
,
10000000
01000000
00000000
00010000
00001000
00000000
00010000
00000000
,
00010100
00000000
00001100
00000000
00000100
00000010
00001001
00000000
,
00000001
00000000
00000100
00000000
00000010
00000000
00001000
00000000
00000100
00010000
00000100
00000000
00010000
00000000
00001000
00000000
,
00000000
00000000
00100000
00000000
00010000
00000000
10000000
00000000
01000000
00100000
01000000
00000000
00100000
00000000
00010000
00000000
,
10000000
00100000
00010000
00001000
00000000
00011000
00000000
00010100
,
00000000
00000100
00001000
00000001
00000100
00000100
00000010
00000010
,
00001000
00000000
00000100
00000000
00000001
00000000
00000100
00000000
00001000
00000100
00010000
00000000
00001000
01000000
00010000
00000000
,
00000000
00000000
10000000
00000000
00010000
00000000
01000000
00000000
00001000
00010000
00001000
00000000
00100000
00000000
00010000
00000000
,
01000000
00001000
00100000
00001000
00000000
00011000
00000000
00010010
,
00000000
00000000
00000010
00001000
00000010
00001000
00000100
00000000
00000010
00000000
00000010
00000000
00000000
00000000
00000000
00000000
,
00000001
00000010
00000001
00000000
00000100
00000000
00000010
00000000
00001000
00000000
00000100
00010000
00000100
00000000
00001000
00000000
,
00000000
00000000
00000001
00000000
00000010
00000000
00001000
00000000
00010000
00001000
00010000
00000000
00001000
00000000
00100000
00000000
,
00010000
00000000
10000000
00100000
10000000
00000000
00010000
00000000
00100000
01000000
00100000
00000000
00000000
00000000
00110000
00000000
,
00000000
10000000
01000000
00010000
00001000
00011000
00000000
00000000
,
00010000
00000100
00001000
00000000
00000010
00000000
00000100
00000000
00000001
00000000
00000010
00000100
00001000
00000000
00000100
00000000
,
00000000
00000000
00010000
00000000
00000010
00000000
00001000
00000000
00000100
00010000
00000100
00000000
00010000
00001000
00010000
00000000
,
00001000
00100000
00010000
10010000
00000000
11000000
00000000
00110000
,
00000000
00001000
00010000
00000100
00001000
00001001
00000000
00000000
,
00000220
00000000
00000000
00000000
,
00000000
00000000
00000330
00001001
,
00001000
00000000
00000100
00000010
00000001
00000000
00001000
00000000
00000000
00000000
00001010
00000000
00000000
00000000
00010010
00000000
,
00000000
00010000
00001000
00100000
00010000
00100000
01000000
00100000
,
00010000
00000000
10000000
00000000
00100000
01000000
00100000
00000000
01000000
00000000
00001000
00000000
00010000
00000000
00001000
00000000
,
00010000
00000100
00010000
00000000
00000100
00001000
00000100
00000000
00001000
00000000
00000001
00000000
00000100
00000000
00000010
00000000
,
00001000
00000000
00000100
00000000
00010000
00001000
00010000
00000000
00001000
00000000
00100000
00010000
00100000
00000000
01000000
00000000
,
10000000
00100000
00010000
00001000
00000100
00000001
00001000
00000100
00000001
00000100
00000000
00000000
,
00001000
00000000
00000010
00000100
00001000
00000000
00010000
00000000
00000000
00000000
00100000
01000000
00010000
00000000
10000000
00000000
,
00000000
01000000
00100000
00010000
10000000
10010000
00000000
00000000
,
10000000
00000000
01000000
00100000
00010000
00000000
01000000
00000000
00000000
00000000
00100000
00010000
00001000
00000000
00010000
00000000
,
00000000
00000000
00000010
00000100
00001000
00000000
00010000
00000000
00000000
00000000
00001000
00000000
00000100
00000000
00000001
00000000
,
00001000
00000010
00010000
00001000
00000000
00101000
00000000
00110000
,
00000000
10000000
00100000
00010000
00001000
00000100
00000001
00001000
,
00000001
00000000
00000010
00000100
00001000
00000000
00000010
00000000
00000000
00000000
00000100
00001000
00010000
00000000
00001000
00000000
,
00000000
00100000
00010000
10000000
01000000
00100000
00010000
00100000
,
00001000
00000000
00010000
00000100
00001000
00000000
00001100
00000000
00000000
00000000
00000001
00000010
00000100
00000000
00000110
00000000
,
00000000
00001000
00000100
00010000
00011000
00011000
00000000
00000000
,
00001000
00000000
00100000
00010000
00000000
10000000
00000000
01000000
,
00010000
00001000
00010000
00001000
00000000
00000010
00000000
00000001
,
00000100
00000000
00000010
00001000
00000000
00000100
00000000
00010000
,
00001000
00010000
00001000
00000000
00010000
00000000
01000000
00000000
,
10000000
00000000
00100000
01000000
00000000
00001000
00010000
00001000
,
00010000
00000000
00000100
00000010
00000000
00000001
00000010
00000100
,
00001000
00000000
00000100
00010000
00000000
00001000
00100000
00010000
,
10000000
01000000
00010000
00000000
,
00011000
00000000
00000000
00000000
,
00000000
00000000
00000000
00000000
;
