
//----- song ID: king -----//
#TITLE:KING;
#ARTIST:Kanaria;
#BANNER:KING.png;
#BACKGROUND:KING-bg.png;
#CDTITLE:./CDTitles/DDR A3.png;
#MUSIC:KING.ogg;
#SAMPLESTART:53.494;
#SAMPLELENGTH:15;
#BPMS:0=166;
#NOTES:
     dance-single:
     :
     Beginner:
     1:
     :
0000
0000
0000
0000
,
0000
0000
0000
0000
,
0000
0000
0000
0000
,
0000
0000
0000
0000
,
0000
0000
0000
0000
,
0000
0000
0000
0000
,
0000
0000
0000
0000
,
0001
0000
0000
0000
,
0001
0000
0000
0000
,
0010
0000
0000
0000
,
0000
0000
0000
0000
,
1000
0000
0000
0000
,
1000
0000
0000
0000
,
0010
0000
0000
0000
,
0000
0000
0000
0000
,
1000
0000
0000
0000
,
0010
0000
0000
0000
,
1000
0000
0000
0000
,
0000
0000
0000
0000
,
0001
0000
0000
0000
,
0010
0000
0000
0000
,
0001
0000
0000
0000
,
0000
0000
0000
0000
,
0010
0000
0000
0000
,
0010
0000
0000
0000
,
0001
0000
0000
0000
,
0000
0000
0000
0000
,
1001
0000
0000
0000
,
0000
0000
0000
0000
,
0001
0000
0000
0000
,
0001
0000
0000
0000
,
0010
0000
0000
0000
,
0010
0000
0000
0000
,
0001
0000
0000
0000
,
0010
0000
0000
0000
,
1000
0000
0000
0000
,
0000
0000
0000
0000
,
1000
0000
0000
0000
,
1000
0000
0000
0000
,
0010
0000
0000
0000
,
0010
0000
0000
0000
,
1000
0000
0000
0000
,
0010
0000
0000
0000
,
0001
0000
0000
0000
,
0000
0000
0000
0000
,
1001
0000
0000
0000
,
0000
0000
0000
0000
,
0001
0000
0000
0000
,
0001
0000
0000
0000
,
0010
0000
0000
0000
,
0000
0000
0000
0000
,
0010
0000
0000
0000
,
0010
0000
0000
0000
,
1000
0000
0000
0000
,
0000
0000
0000
0000
,
1000
0000
0000
0000
,
0010
0000
0000
0000
,
1000
0000
0000
0000
,
0000
0000
0000
0000
,
1000
0000
0000
0000
,
1000
0000
0000
0000
,
0010
0000
0000
0000
,
0000
0000
0000
0000
,
0010
0000
0000
0000
,
0010
0000
0000
0000
,
0001
0000
0000
0000
,
0000
0000
0000
0000
,
1001
0000
0000
0000
,
0000
0000
0000
0000
,
0001
0000
0000
0000
,
0010
0000
0000
0000
,
0001
0000
0000
0000
,
0000
0000
0000
0000
,
1000
0000
0000
0000
,
0010
0000
0000
0000
,
1000
0000
0000
0000
,
0000
0000
0000
0000
,
1000
0000
0000
0000
,
0010
0000
0000
0000
,
0001
0000
0000
0000
,
0020
0000
0000
0000
,
0030
0000
0000
0000
,
0000
0000
0000
0000
;
#NOTES:
     dance-single:
     :
     Easy:
     7:
     :
0000
0000
0000
0000
,
0000
0000
0000
0000
,
0000
0000
0000
0000
,
0000
0000
0000
0000
,
0000
0000
0000
0000
,
0000
0000
0000
0000
,
0000
0000
0000
0000
,
0001
0100
0001
0100
,
0001
0010
0001
0010
0001
0000
0000
0000
,
1000
0100
1000
0100
,
1000
0010
1000
0010
1000
0000
0000
0000
,
0001
0100
0010
1000
,
0001
0100
0010
1000
,
0001
0001
1000
1000
,
0100
0010
0100
0000
,
1000
0010
0100
0001
,
1000
0010
0100
0001
,
1000
1000
0001
0001
,
0010
0100
0010
0000
,
0001
1000
0001
0100
,
0010
0010
0010
0000
,
1000
0001
1000
0100
,
0010
0010
0010
0000
,
0001
0100
0010
1000
,
0001
0001
0001
0000
,
1000
0100
0010
0001
,
1000
1000
1000
0000
,
1001
0000
0000
0000
,
0010
0100
1001
0000
,
1000
0000
0001
0000
0100
0010
0100
0000
,
0001
0010
0100
0000
,
1000
0000
0010
0000
0100
0001
0100
0000
,
0010
1000
0001
0000
,
0001
0000
1000
0000
0010
0100
0010
0000
,
1000
0100
0010
0000
,
0001
0000
0100
0000
0010
1000
0010
0000
,
0100
0001
1000
0000
,
1001
0000
0110
0000
,
0001
0010
1000
0010
,
0001
0000
0000
1000
0000
0001
0000
1000
,
0000
0010
0010
0000
,
1001
0000
0110
0000
,
1000
0010
0001
0010
,
1000
0000
0000
0001
0000
1000
0000
0001
,
0000
0000
0100
0010
,
1001
0000
0000
0000
,
0001
1000
0000
0000
,
0001
0000
0100
0000
0010
1000
0001
0000
,
1000
0100
0010
0000
,
0001
0000
0100
0000
0010
1000
0100
0000
,
1000
0001
1000
0000
,
0001
0001
0100
0100
,
0010
0100
0010
0000
0100
0000
0010
0000
,
1000
1000
0100
0100
,
0010
0100
0010
0000
0100
0000
0010
0000
,
0001
1000
0100
0010
,
0001
1000
0001
0000
0100
0000
0010
0000
,
1000
0001
0100
0010
,
1000
1000
0001
0001
,
1001
0000
0110
0000
,
1001
0100
0110
0001
,
1001
0000
0000
0010
0000
0100
0000
0010
,
0000
1000
0001
1000
,
1001
0000
0110
0000
,
1001
0010
0110
1000
,
1001
0000
0000
0100
0000
0010
0000
0100
,
0000
0001
1000
0001
,
1001
0000
0000
0000
,
0010
0100
0000
0000
,
0001
1000
0010
0100
,
0001
1000
0001
0000
0100
0000
0010
0000
,
1000
0100
0001
0100
,
1000
0000
0001
1000
0001
0000
0000
0000
,
1000
0001
0100
0010
,
1000
0001
1000
0000
0010
0000
0100
0000
,
0001
0010
1000
0010
,
0001
0000
1000
0001
1000
0000
0000
0000
,
0001
0000
0000
0001
0000
0000
0001
0000
,
0100
0000
0000
0100
0000
0000
0100
0000
,
0010
0000
0000
0010
0000
0000
0010
0000
,
1000
0000
0000
1000
0000
0000
1000
0000
,
0000
0000
0000
0000
;
#NOTES:
     dance-single:
     :
     Medium:
     13:
     :
0000
0000
0000
0000
,
0000
0000
0000
0000
,
0000
0000
0000
0000
,
0000
0000
0000
0000
,
0000
0000
0000
0000
,
0000
0000
0000
0000
,
0000
0000
0000
0000
,
1001
0000
1000
0100
0001
0100
1000
0000
,
1000
0100
0010
0001
2000
0000
3001
0000
,
1001
0000
0001
0100
1000
0100
0001
0000
,
0001
0100
0010
0100
0002
0000
1003
0000
,
1001
0000
1000
0100
0010
0000
0010
0001
,
1000
0001
0100
0000
0110
0000
1010
0000
,
1001
0000
0001
0100
1000
0000
1000
0100
,
0000
0001
1000
0001
1000
0000
0010
0000
,
1001
0000
0001
0010
0100
0000
0100
1000
,
0001
1000
0010
0000
0110
0000
0101
0000
,
1001
0000
1000
0010
0001
0000
0001
0010
,
0000
1000
0001
1000
0002
0000
0003
0000
,
1000
0100
0010
0001
1000
0100
0010
0001
,
0100
0000
0010
0000
1000
0000
0010
0000
0100
0001
0000
0100
0001
0000
1000
0000
,
0001
0010
0100
1000
0001
0010
0100
1000
,
0010
0000
0100
0000
0001
0000
0010
0000
0011
0000
0000
0011
0000
0000
0011
0000
,
0001
0100
1000
0100
0001
0100
1000
0100
,
0001
0000
1000
0000
0100
0000
0010
0000
0001
1000
0000
0001
1000
0000
0010
0000
,
1000
0010
0001
0010
1000
0010
0001
0010
,
1010
1100
0011
0101
,
1001
0000
0000
0000
,
1001
0110
1001
0000
,
0000
0000
0000
0000
1000
0000
0100
0000
0010
0000
0001
1000
0001
0000
1000
0000
,
0001
0000
0100
0000
0010
0000
1000
0000
0010
0000
0000
1000
0000
0000
1010
0000
,
0000
0000
0000
0000
1000
0000
0100
0000
0010
0000
0001
1000
0001
0000
1000
0000
,
0001
0010
1000
0010
0001
1000
0100
0010
,
0000
0000
0000
0000
0001
0000
1000
0000
0010
0000
0100
0010
0100
0000
0010
0000
,
1000
0000
0001
0000
0100
0000
0001
0000
0010
0000
0000
0100
0000
0000
1100
0000
,
0000
0000
1000
0010
0001
0010
1000
0001
,
0101
1100
1010
0011
,
1001
0010
1001
0100
,
0000
1001
0000
1000
0100
0010
0001
0100
,
0010
0000
0000
1010
0000
1100
0000
1010
,
0000
1000
0100
0001
1000
0010
0001
0000
,
1001
0010
1001
0100
,
0000
1001
0000
0001
0100
0010
1000
0100
,
0010
0000
0000
0011
0000
0101
0000
0011
,
0000
0001
0100
1000
0001
0010
1000
0000
,
1001
0000
0000
0000
,
0010
0100
0010
0100
0000
0000
0000
0000
,
1001
0000
1000
0100
0001
1000
0010
0001
,
1000
0100
0001
0100
2000
0000
3001
0000
,
1001
0000
1000
0010
0001
1000
0100
0001
,
0100
1000
0100
1000
0200
0000
0300
0000
,
1001
0000
0000
0000
1000
0000
0001
0000
0100
0000
0010
1000
0010
0000
0100
0000
,
0001
0000
0010
0000
0100
0000
0010
0000
0001
0000
0000
0001
0000
0000
0001
0000
,
1001
0000
0000
0000
1000
0000
0100
0000
0010
0000
0001
1000
0001
0000
0010
0000
,
0100
1000
0010
1000
0100
0010
0001
0100
,
0001
0000
0000
0000
1000
0000
0001
0000
0100
0000
0010
1000
0001
0000
1000
0000
,
0100
0000
0010
0000
0100
0000
0010
0000
0001
0100
0000
0001
0100
0000
0010
0000
,
1000
0000
0000
0000
0001
0000
0100
0000
0001
0000
0010
0100
1000
0000
0010
0000
,
1010
1100
0011
0101
,
0110
0001
0110
1000
,
0000
0001
0010
0100
0001
1000
0010
0100
,
1000
0000
0000
1100
0000
0101
0000
1100
,
0000
0001
0010
0100
1000
0010
0100
0000
,
0110
1000
0110
0001
,
0000
1000
0100
0010
1000
0001
0100
0010
,
0001
0000
0000
0011
0000
1010
0000
0011
,
0000
1000
0100
0010
0001
0100
0010
0000
,
1001
0000
0000
0000
,
0001
0001
1000
1000
0000
0000
0000
0000
,
0001
0100
1000
0100
0001
0010
1000
0010
,
0001
0100
0010
0001
1000
0100
0001
0000
,
0001
0010
1000
0010
0001
0100
1000
0100
,
0001
0010
0001
0100
0002
1000
1003
0000
,
1000
0100
0001
0100
1000
0010
0001
0010
,
1000
0100
0010
1000
0001
0100
1000
0000
,
1000
0010
0001
0010
1000
0100
0001
0100
,
1000
0010
1000
0100
1000
0010
0100
0001
,
1000
0000
0000
0010
0000
1000
0000
0010
,
0100
0000
0000
0001
0000
0100
0000
0001
,
0010
0000
0000
0001
0000
0010
0000
0001
,
1000
0000
0000
0100
0000
1000
0000
0100
,
0000
0000
0000
0000
;
#NOTES:
     dance-single:
     :
     Hard:
     16:
     :
0000
0000
0000
0000
,
0000
0000
0000
0000
,
0000
0000
0000
0000
,
0000
0000
0000
0000
,
0000
0000
0000
0000
,
0000
0000
0000
0000
,
0000
0000
0000
0000
,
0001
0000
1000
0001
1000
0000
0010
0000
0100
0010
0100
0010
0100
0000
0001
0000
,
1000
0100
0010
0001
2000
0000
3001
0000
,
1000
0000
0001
1000
0001
0000
0010
0000
0100
0010
0100
0010
0100
0000
1000
0000
,
0001
0100
0001
0000
1000
0100
1000
0000
0020
0000
0100
0000
0130
0000
0000
0000
,
1001
0000
1000
0100
0001
0000
0001
0100
,
1000
0001
0010
1000
0020
0000
0031
0000
,
0011
0000
0001
0100
0110
0000
1000
0100
,
0110
0010
1000
0010
0002
0000
1003
0000
,
1001
0000
0001
0010
1000
0000
1000
0010
,
0001
1000
0100
0001
0200
0000
1300
0000
,
1100
0000
1000
0010
0110
0000
0001
0010
,
0110
0100
0001
0100
2000
0000
3001
0000
,
1000
0000
0001
0010
0001
0000
1000
0000
0001
0000
1000
0010
1000
0000
0001
0000
,
1000
0100
1000
0000
0001
0100
0001
0000
1000
0001
0000
1000
0001
0000
1000
0000
,
0001
0000
1000
0100
1000
0000
0001
0000
1000
0000
0001
0100
0001
0000
1000
0000
,
0010
1000
0100
0000
0010
0001
0100
0000
0010
0100
0000
0010
0100
0000
0010
0000
,
1000
0000
0100
0001
0100
0000
1000
0000
0001
0000
0100
1000
0100
0000
0001
0000
,
1000
0100
0010
0000
0001
0100
0010
0000
1000
0001
0000
1000
0001
0000
1000
0000
,
0001
0000
0010
1000
0010
0000
0001
0000
1000
0000
0010
0001
0010
0000
1000
0000
,
0001
0010
0100
0000
1000
0010
0100
0000
0001
0100
0010
0000
1000
0100
0010
0000
,
1001
0000
0000
0000
,
1001
0110
1001
0000
,
1001
0000
0000
0000
0001
0000
0100
0000
0010
1000
0000
0010
1000
0000
0001
0000
,
1000
0100
0010
0000
0001
0100
0001
0000
1000
0010
0000
0100
0010
0000
1000
0000
,
1001
0000
0000
0000
0001
0000
0010
0000
0100
1000
0000
0010
1000
0000
0100
0000
,
0010
0001
0010
0000
0100
1000
0010
0000
0001
0000
0010
0000
1000
0000
0010
0000
,
1001
0000
0000
0000
1000
0000
0010
0000
0100
0001
0000
0100
0001
0000
1000
0000
,
0001
0010
0100
0000
1000
0010
1000
0000
0001
0100
0000
0010
0100
0000
0001
0000
,
1001
0000
0000
0000
1000
0000
0100
0000
0010
0001
0000
0100
0001
0000
0010
0000
,
0100
1000
0100
0000
0010
0001
0100
0000
0010
1000
0010
0000
0100
0001
0010
0000
,
1001
0100
1001
0000
1001
0010
1001
0000
,
1000
0000
0001
0100
0001
0000
0010
0000
0100
1000
0001
0010
0100
0000
1000
0000
,
1001
0000
0000
0000
0110
0000
1000
0010
0100
0000
0001
0010
0100
0000
1000
0010
,
0100
0000
0001
0010
1000
0000
0010
0000
0001
1000
0100
0010
0001
0000
0000
0000
,
0110
1000
0110
0000
0110
0001
0110
0000
,
0001
0000
1000
0010
1000
0000
0100
0000
0010
0001
1000
0100
0010
0000
0001
0000
,
1001
0000
0000
0000
0110
0000
0001
0100
0010
0000
1000
0100
0010
0000
0001
0100
,
0010
0000
1000
0100
0001
0000
0100
0000
1000
0010
1000
0000
0001
0100
0001
0000
,
1001
0000
0000
0000
,
0100
0100
0100
0100
0000
0000
0000
0000
,
1000
0000
0100
0010
0100
0000
0010
0000
0001
0100
0001
1000
0001
0000
0100
0000
,
0010
1000
0010
0000
0100
0001
0100
0000
0002
0000
1000
0000
1003
0000
0000
0000
,
0001
0000
0010
0100
0010
0000
0100
0000
1000
0010
1000
0001
1000
0000
0010
0000
,
0100
0001
0100
0000
0010
1000
0010
0000
2000
0000
0001
0000
3001
0000
0000
0000
,
1001
0000
0000
0000
1000
0010
1000
0010
1000
0000
0100
0010
0000
0010
0100
0000
,
1000
0100
0010
0000
0001
0100
0010
0000
1000
0001
0000
1000
0001
0000
1000
0000
,
1001
0000
0000
0000
0001
0010
0001
0010
0001
0000
0100
0010
0000
0010
0100
0000
,
0010
1000
0001
0000
0100
0001
1000
0000
1001
0000
0100
0000
0110
0000
0010
0000
,
1001
0000
0000
0000
0001
0010
0100
0010
0001
0000
1000
0010
0000
0100
0010
0000
,
1000
0100
0010
0000
0100
0010
0001
0000
1000
0010
0000
0100
0010
0000
1000
0000
,
1001
0000
0000
0000
1000
0100
0010
0100
1000
0000
0001
0010
0000
0100
1000
0000
,
1010
0011
0101
1100
,
1001
0000
0001
0100
0010
0000
1000
0000
1001
0000
1000
0100
0010
0000
0001
0000
,
0000
0000
0001
0100
0001
0100
0010
1000
0010
0000
1000
0100
1000
0100
0010
0001
,
0020
0000
0000
0000
0030
0000
0001
0010
1000
0000
1000
0010
0001
0000
0001
0010
,
1000
0010
0001
1000
0100
0100
0010
0010
,
1001
0000
1000
0100
0010
0000
0001
0000
1001
0000
0001
0100
0010
0000
1000
0000
,
0000
0000
1000
0100
1000
0100
0010
0001
0010
0000
0001
0100
0001
0100
0010
1000
,
0020
0000
0000
0000
0030
0000
1000
0010
0001
0000
0001
0010
1000
0000
1000
0010
,
0001
0010
1000
0001
0200
0000
0310
0000
,
1001
0000
0000
0000
,
0010
0010
0110
0110
0000
0000
0000
0000
,
1000
0000
0001
0100
0010
0000
0100
0000
0001
0010
0100
1000
0001
0000
0100
0000
,
0001
0010
0100
0000
1000
0010
0100
0001
1000
0000
0100
0000
0110
0000
0000
0000
,
1000
0000
0100
0010
0001
0000
0100
0000
0010
1000
0010
0100
0010
0000
1000
0000
,
0001
1000
0010
1000
0001
1000
0010
1000
0002
0000
1000
0000
1003
0000
0000
0000
,
0001
0000
1000
0100
0010
0000
0100
0000
1000
0010
0100
0001
1000
0000
0100
0000
,
1000
0010
0100
0000
0001
0010
0100
1000
0001
0000
0100
0000
0110
0000
0000
0000
,
0001
0000
0100
0010
1000
0000
0100
0000
0010
0001
0010
0100
0010
0000
0001
0000
,
1000
0001
0010
0001
1000
0001
0010
0001
1000
0000
0010
0100
0010
0000
1000
0000
,
0002
0000
0003
0001
0000
0001
0000
0001
,
0020
0000
0030
0010
0000
0010
0000
0010
,
0200
0000
0300
0100
0000
0100
0000
0100
,
2000
0000
3000
1000
0000
1000
0000
1000
,
0000
0000
0000
0000
;
#NOTES:
     dance-double:
     :
     Easy:
     7:
     :
00000000
00000000
00000000
00000000
,
00000000
00000000
00000000
00000000
,
00000000
00000000
00000000
00000000
,
00000000
00000000
00000000
00000000
,
00000000
00000000
00000000
00000000
,
00000000
00000000
00000000
00000000
,
00000000
00000000
00000000
00000000
,
00001000
00010000
00001000
00100000
,
00010000
00100000
00010000
00100000
00010000
00000000
00000000
00000000
,
10000000
01000000
10000000
00100000
,
01000000
00010000
01000000
00010000
01000000
00000000
00000000
00000000
,
00010000
10000000
01000000
00100000
,
00001000
00010000
00001000
00001000
,
00000010
00000001
00001000
00000100
,
00000010
00000010
00000010
00000000
,
00000001
00001000
00000010
00000100
,
00001000
00010000
00001000
00001000
,
00010000
00100000
10000000
00010000
,
01000000
01000000
00010000
00000000
,
10000000
01000000
10000000
01000000
,
00100000
00010000
00100000
00001000
,
00010000
00001000
00010000
00001000
,
00000010
00000010
00000010
00000000
,
00000001
00000100
00000001
00000100
,
00000010
00001000
00000010
00010000
,
00001000
00010000
00001000
00010000
,
00100000
00100000
00100000
00000000
,
01100000
00000000
00000000
00000000
,
01000000
00100000
10010000
00000000
,
10000000
00000000
01000000
00000000
00100000
01000000
00100000
00000000
,
00001000
00010000
00001000
00000000
,
00010000
00000000
00001000
00000000
00000010
00000100
00000010
00000000
,
00000001
00001000
00000001
00000000
,
00000001
00000000
00000100
00000000
00000010
00000100
00000010
00000000
,
00010000
00001000
00010000
00000000
,
00001000
00000000
00010000
00000000
00100000
01000000
00100000
00000000
,
10000000
00010000
10000000
00000000
,
10010000
00000000
01100000
00000000
,
10000000
01000000
00010000
00001000
,
00010000
00000000
00000000
00001000
00000000
00010000
00000000
00001000
,
00000000
00000010
00000100
00000000
,
00000110
00000000
00001001
00000000
,
00000001
00000100
00001000
00010000
,
00001000
00000000
00000000
00010000
00000000
00001000
00000000
00010000
,
00000000
00000000
00100000
01000000
,
10010000
00000000
00000000
00000000
,
10000000
00010000
00000000
00000000
,
10000000
00000000
00100000
00000000
01000000
00010000
00100000
00000000
,
00001000
00010000
00001000
00000000
,
00001000
00000000
00010000
00000000
00000100
00001000
00000010
00000000
,
00000100
00000001
00001000
00000000
,
00000001
00000001
00000010
00000010
,
00000100
00001000
00000100
00000000
00010000
00000000
00001000
00000000
,
00010000
00010000
00100000
00100000
,
01000000
00100000
01000000
00000000
00010000
10000000
00010000
00000000
,
10000000
10000000
01000000
01000000
,
00100000
00010000
00100000
00000000
00001000
00000000
00010000
00000000
,
00001000
00001000
00000010
00000010
,
00000100
00001000
00000100
00000000
00000010
00000001
00000010
00000000
,
00001001
00000000
00000110
00000000
,
00000001
00000100
00001000
00010000
,
01100000
00000000
00000000
10000000
00000000
00010000
00000000
10000000
,
00000000
01000000
00100000
01100000
,
10010000
00000000
01100000
00000000
,
10000000
01000000
00010000
00001000
,
00000110
00000000
00000000
00000001
00000000
00001000
00000000
00000001
,
00000000
00000100
00000010
00000110
,
00001001
00000000
00000000
00000000
,
00001000
00000001
00000000
00000000
,
00000001
00000000
00001000
00000000
00000100
00000010
00000001
00000000
,
00001000
00000100
00010000
00011000
,
00001000
00000000
01000000
00000000
00010000
00100000
01000000
00000000
,
10000000
00010000
10000000
00000000
00010000
00000000
00000000
00000000
,
10000000
00000000
00010000
00000000
01000000
00100000
10000000
00000000
,
00010000
01000000
00001000
00011000
,
00010000
00000000
00000100
00000000
00001000
00000010
00000100
00000000
,
00000001
00001000
00000001
00000000
00001000
00000100
00000010
00000000
,
00000001
00000000
00000000
00000001
00000000
00000000
00000001
00000000
,
00001000
00000000
00000000
00001000
00000000
00000000
00001000
00000000
,
00000100
00000000
00000000
00000100
00000000
00000000
00000100
00000000
,
00010000
00000000
00000000
00010000
00000000
00000000
00010000
00000000
,
00000000
00000000
00000000
00000000
;
#NOTES:
     dance-double:
     :
     Medium:
     13:
     :
00000000
00000000
00000000
00000000
,
00000000
00000000
00000000
00000000
,
00000000
00000000
00000000
00000000
,
00000000
00000000
00000000
00000000
,
00000000
00000000
00000000
00000000
,
00000000
00000000
00000000
00000000
,
00000000
00000000
00000000
00000000
,
00011000
00000000
00001000
00010000
00100000
10000000
00010000
00000000
,
10000000
01000000
00010000
01000000
20000000
00000000
30010000
00000000
,
10010000
00000000
10000000
01000000
00100000
00001000
00010000
00000000
,
00001000
00010000
00100000
00010000
00002000
00000000
00013000
00000000
,
00011000
00000000
00010000
00000100
00001000
00000000
00001000
00000010
,
00000100
00000000
00000100
00000001
00000010
00000000
00000100
00000000
,
00001001
00000000
00000001
00000100
00000010
00000000
00000010
00001000
,
00000100
00000000
00000100
00010000
00001000
00000000
00010000
00000000
,
00011000
00000000
00001000
01000000
00010000
00000000
00010000
00100000
,
01000000
00000000
01000000
10000000
00100000
00000000
01000000
00000000
,
10010000
00000000
10000000
01000000
00100000
00000000
00100000
00010000
,
01000000
00000000
01000000
00001000
00010000
00000000
00001000
00000000
,
00010000
00001000
00010000
00001000
00000010
00000100
00000010
00000100
,
00000010
00000000
00000001
00000000
00001000
00000000
00000100
00000000
00000010
00000001
00000000
00000010
00000001
00000000
00001000
00000000
,
00000001
00000100
00000001
00000100
00000010
00001000
00000010
00001000
,
00000010
00000000
00000100
00000000
00001000
00000000
00010000
00000000
00001000
00000000
00000000
00011000
00000000
00000000
00011000
00000000
,
00001000
00010000
00001000
00010000
00100000
01000000
00100000
01000000
,
00100000
00000000
10000000
00000000
00010000
00000000
01000000
00000000
00100000
10000000
00000000
00100000
10000000
00000000
00010000
00000000
,
10000000
01000000
10000000
01000000
00100000
00010000
00100000
00010000
,
00100000
01000000
00100000
01000000
00010000
00001000
00010000
00000000
,
00011000
00000000
00000000
00000000
,
00010000
00001000
00011000
00000000
,
00010000
00000010
00001000
00000010
00000100
00001000
00000100
00000001
,
00000010
00000000
00000100
00000000
00001000
00000000
00000100
00000000
00000010
00000001
00000000
00001000
00000001
00000000
00001000
00000000
,
00000000
00000000
00000001
00000100
00001000
00000100
00001000
00010000
,
00001000
00010000
00100000
10000000
01000000
00010000
01000000
10000000
,
00000000
00000000
10000000
01000000
00100000
01000000
00010000
00001000
,
00000010
00000000
00001000
00000000
00000010
00000000
00000100
00000000
00000010
00000001
00000000
00001000
00000001
00000000
00000100
00000000
,
00000000
00000000
00000001
00000010
00001000
00000010
00001000
00010000
,
00011000
01010000
00011000
00110000
,
10100000
01000000
00110000
00001000
,
00000000
00011000
00000000
00010000
00001000
00000010
00000001
00000010
,
00001000
00000000
00000000
00011000
00000000
00001000
00000100
00000001
,
00000000
00001000
00000100
00000001
00001000
00000010
00000001
00000000
,
00000011
00000100
00001010
00010000
,
00000000
00011000
00000000
00001000
00010000
00100000
10000000
00100000
,
00010000
00000000
00000000
00011000
00000000
00010000
01000000
10000000
,
00000000
00010000
01000000
10000000
00010000
00100000
10000000
00010000
,
10000000
00000000
00000000
00000000
,
01000000
00100000
01000000
00100000
00000000
00000000
00000000
00000000
,
10010000
00000000
00010000
00100000
01000000
00010000
00001000
00000000
,
00000010
00001000
00010000
00001000
00000200
00000000
00000301
00000000
,
00001001
00000000
00000001
00000100
00000010
00010000
00001000
00000010
,
00001000
00010000
00001000
00000100
00000002
00000000
00000003
00000000
,
00000001
00000100
00000010
00001000
00000100
00000010
00000001
00001000
,
00000100
00000000
00010000
00000000
00001000
00000000
00010000
00000000
01000000
00000000
00000000
01000000
00000000
00000000
01000000
00000000
,
00100000
00010000
10000000
01000000
00100000
00010000
10000000
00100000
,
01000000
00100000
00010000
00001000
00000010
00001000
00010000
00001000
,
00011000
00000000
00010000
00100000
01000000
00010000
00100000
01000000
,
00010000
00000000
00001000
00000000
00010000
00000000
00001000
00000000
00000010
00000000
00000000
00000010
00000000
00000000
00000010
00000000
,
00000100
00001000
00000001
00000010
00000100
00001000
00000010
00000100
,
00000001
00000100
00001000
00010000
00100000
10000000
00010000
00000000
,
00110000
01000000
10100000
01000000
,
00000000
10000000
01000000
00010000
00001000
00000010
00000001
00000000
,
00001001
00000000
00000001
00000100
00001000
00000100
00000001
00000100
,
00000000
00000001
00000010
00001000
00010000
01000000
10000000
00000000
,
11000000
00100000
01010000
00100000
,
00000000
10000000
00100000
00010000
00001000
00000100
00000001
00000000
,
00001001
00000000
00000001
00000010
00001000
00000010
00000001
00000010
,
00000000
00000001
00000100
00000010
00000100
00001000
00010000
00000000
,
00011000
00000000
00000000
00000000
,
00010000
00010000
00001000
00001000
00000000
00000000
00000000
00000000
,
00001000
00000000
00100000
00000000
00010000
00000000
01000000
00000000
00100000
00000000
10000000
00100000
10000000
00000000
01000000
00000000
,
10000000
00100000
00010000
00001000
00020000
00001000
00031000
00000000
,
00010000
00000000
00000100
00000000
00001000
00000000
00000010
00000000
00000100
00000000
00000001
00000010
00000001
00000000
00000100
00000000
,
00000010
00001000
00000100
00001000
00000020
00000100
00000130
00000000
,
00000001
00000000
00001000
00000000
00000100
00000000
00010000
00000000
00001000
00000000
01000000
00010000
01000000
00000000
00010000
00000000
,
00100000
00001000
00010000
00100000
20000000
00010000
30010000
00000000
,
10000000
00000000
01000000
00000000
00100000
00000000
10000000
00000000
00100000
00000000
00001000
00010000
00001000
00000000
00000100
00000000
,
00000001
00001000
00000100
00000010
00000001
00001000
00000001
00000010
,
00000100
00000000
00000000
00001000
00000000
00000010
00000000
00010000
,
00001000
00000000
00000000
00010000
00000000
00001000
00000000
01000000
,
00010000
00000000
00000000
01000000
00000000
00010000
00000000
10000000
,
01000000
00000000
00000000
10000000
00000000
01000000
00000000
00100000
,
00000000
00000000
00000000
00000000
;
#NOTES:
     dance-double:
     :
     Hard:
     16:
     :
00000000
00000000
00000000
00000000
,
00000000
00000000
00000000
00000000
,
00000000
00000000
00000000
00000000
,
00000000
00000000
00000000
00000000
,
00000000
00000000
00000000
00000000
,
00000000
00000000
00000000
00000000
,
00000000
00000000
00000000
00000000
,
00000001
00000000
00001000
00000001
00001000
00000000
00000010
00000000
00000100
00000000
00001000
00000000
00010000
00000000
00100000
00000000
,
10000000
01000000
00010000
01000000
20000000
00000000
30010000
00000000
,
10000000
00000000
00010000
10000000
00010000
00000000
00100000
00000000
01000000
00000000
00010000
00000000
00001000
00000000
00000010
00000000
,
00000001
00000100
00001000
00000100
00000002
00001000
00001003
00000000
,
00001001
00000000
00000001
00000100
00001000
00000000
00001000
00010000
,
01000000
10000000
00010000
00100000
02000000
00000000
03100000
00000000
,
11000000
00000000
01000000
00010000
00011000
00000000
00001000
00000010
,
00000011
00000001
00001000
00000100
00000020
00000000
00000031
00000000
,
00001001
00000000
00000001
00000010
00001000
00000000
00001000
00010000
,
01000000
10000000
00010000
00100000
02000000
00000000
13000000
00000000
,
10100000
00000000
00100000
00010000
00011000
00000000
00001000
00000100
,
00000110
00000010
00001000
00000100
00000020
00000000
00000031
00000000
,
00001000
00000000
00000001
00000100
00000001
00000000
00000010
00000000
00000100
00000000
00010000
00001000
00010000
00000000
01000000
00000000
,
00100000
00010000
00100000
00000000
01000000
10000000
01000000
00000000
10000000
00100000
00000000
10000000
00100000
00000000
10000000
00000000
,
00010000
00000000
10000000
01000000
10000000
00000000
01000000
00000000
00100000
00000000
00001000
00010000
00001000
00000000
00000010
00000000
,
00000100
00001000
00000100
00000000
00001000
00000001
00001000
00000000
00000001
00000010
00000000
00000001
00000010
00000000
00000100
00000000
,
00001000
00000000
00000010
00000001
00000010
00000000
00001000
00000000
00000100
00000000
00010000
00001000
00010000
00000000
00100000
00000000
,
10000000
01000000
00100000
00000000
00010000
01000000
00100000
00000000
10000000
00010000
00000000
10000000
00010000
00000000
10000000
00000000
,
00100000
00000000
00010000
00001000
00010000
00000000
00001000
00000000
00000010
00000000
00000001
00001000
00000001
00000000
00000100
00000000
,
00000010
00010000
00001000
00000000
00010000
00001000
01000000
00000000
00010000
00100000
01000000
00000000
10000000
01000000
00100000
00000000
,
10010000
00000000
00000000
00000000
,
10010000
01100000
10010000
00000000
,
10000000
00000000
01000000
00000000
00010000
00000000
00001000
00000000
00000010
00000001
00000000
00000010
00000001
00000000
00001000
00000000
,
00000001
00000100
00000001
00000000
00001000
00000100
00001000
00000000
00000010
00000100
00000000
00001000
00010000
00000000
00001000
00000000
,
00011000
00000000
00000000
00000000
00010000
00000000
00001000
00000000
00010000
00100000
00000000
10000000
00100000
00000000
01000000
00000000
,
00010000
00100000
00010000
00000000
10000000
00100000
10000000
00000000
01000000
00000000
00010000
00000000
00001000
00000000
00010000
00000000
,
00100000
00000000
00000000
00000000
10000000
00000000
01000000
00000000
00010000
00001000
00000000
00010000
00001000
00000000
00000010
00000000
,
00000001
00000100
00000010
00000000
00001000
00000100
00000010
00000000
00000001
00000010
00000000
00000100
00001000
00000000
00000100
00000000
,
00010000
00000000
00000000
00000000
00001000
00000000
00010000
00000000
00100000
10000000
00000000
00010000
01000000
00000000
00100000
00000000
,
10000000
01000000
00100000
00000000
00001000
00010000
00000100
00000000
00001000
00000010
00000100
00000000
00000001
00000010
00000001
00000000
,
00001001
00001000
00000010
00010000
00011000
00001000
01000000
00010000
,
00110000
00000000
00100000
01000000
10000000
00000000
00010000
00000000
01000000
00001000
00010000
00001000
01000000
00000000
00001000
00000000
,
00011000
00000000
00000000
00000000
00010000
00000000
00000100
00000010
00000001
00000000
00000100
00000010
00001000
00000000
00000100
00000010
,
00000001
00000000
00000100
00000000
00001000
00000000
00010000
00000000
00100000
10000000
01000000
00100000
00010000
00000000
00000000
00000000
,
10010000
00010000
00100000
00001000
00011000
00010000
00000100
00001000
,
00001010
00000000
00000010
00000100
00000001
00000000
00001000
00000000
00000100
00010000
00001000
00010000
00000100
00000000
00010000
00000000
,
00011000
00000000
00000000
00000000
00001000
00000000
01000000
00100000
10000000
00000000
01000000
00100000
00010000
00000000
01000000
00100000
,
10000000
00000000
01000000
00000000
00010000
00000000
00001000
00000000
00000010
00000001
00000100
00000000
00001000
00010000
00001000
00000000
,
00011000
00000000
00000000
00000000
,
00010000
00010000
00001000
00001000
00000000
00000000
00000000
00000000
,
00001000
00000000
01000000
00010000
01000000
00000000
00100000
00000000
10000000
01000000
00100000
00010000
00100000
00000000
01000000
00000000
,
00010000
00001000
00010000
00000000
00001000
00000010
00001000
00000000
00000020
00000000
00000001
00000000
00000031
00000000
00000000
00000000
,
00000100
00000000
00000010
00001000
00000010
00000000
00000100
00000000
00001000
00010000
00001000
01000000
00010000
00000000
00100000
00000000
,
01000000
10000000
01000000
00000000
10000000
00100000
01000000
00100000
20000000
00000000
00010000
00000000
30010000
00000000
00000000
00000000
,
10010000
00000000
10000000
01000000
00010000
00000000
00001000
00000000
00000010
00000001
00000000
00000001
00001000
00000000
00000001
00000000
,
00000100
00000010
00001000
00000000
00000100
00000010
00000001
00000000
00000100
00001000
00000000
00001000
00000100
00000000
00000010
00000000
,
00000110
00000000
00000000
00000000
00001001
00000000
00000001
00000100
00001000
00000000
00010000
00000000
00100000
10000000
00100000
00000000
,
01000000
00010000
10000000
00000000
00100000
10000000
00010000
00000000
00100000
00000000
00001000
00000000
00010000
00000000
01000000
00000000
,
01100000
00000000
10000000
01000000
00010000
00000000
00001000
00000000
00010000
00000100
00000000
00000100
00001000
00000000
00000010
00000000
,
00000100
00000001
00000010
00000000
00000100
00001000
00000010
00000000
00000100
00001000
00000000
00001000
00010000
00000000
00001000
00000000
,
00011000
00000000
00000000
00000000
00011000
00000000
00010000
00100000
01000000
00000000
00010000
00100000
01000000
00000000
10000000
00000000
,
10100000
00110000
00011000
00001010
,
00000011
00000000
00000001
00000100
00000010
00000000
00010000
00000000
00011000
00000000
00001000
01000000
00010000
00000000
00100000
00000000
,
00000000
00000000
00010000
10000000
00010000
10000000
01000000
00100000
01000000
00000000
00100000
00001000
00100000
00001000
00010000
00001000
,
00020000
00000000
00000000
00000000
00030000
00000000
00001000
00000010
00000000
00000000
00000001
00000100
00000000
00000000
00001000
00010000
,
00000000
00100000
10000000
00010000
01000000
01000000
00100000
00100000
,
10100000
00000000
10000000
01000000
00100000
00000000
00001000
00000000
00011000
00000000
00010000
00000100
00001000
00000000
00000010
00000000
,
00000000
00000000
00001000
00000001
00001000
00000001
00000100
00000010
00000100
00000000
00000010
00010000
00000010
00010000
00001000
00010000
,
00002000
00000000
00000000
00000000
00003000
00000000
00010000
00100000
00000000
00000000
10000000
01000000
00000000
00000000
00010000
00001000
,
00000000
00000010
00000001
00001000
00000100
00000001
00000100
00000000
,
00001001
00000000
00000000
00000000
,
00000010
00000010
00000110
00000110
00000000
00000000
00000000
00000000
,
00000001
00000000
00000100
00000010
00001000
00000000
00000100
00000000
00010000
00001000
00010000
00000000
01000000
10000000
00010000
00000000
,
10000000
00100000
01000000
00100000
10000000
00000000
01000000
00000000
00100000
00000000
00001000
00000000
00011000
00000000
00000000
00000000
,
00010000
00000000
00000010
00001000
00000010
00000000
00000100
00000000
00000001
00000010
00000100
00000000
00001000
00000010
00000100
00000000
,
00001000
00010000
00001000
00010000
00001000
01000000
00010000
01000000
00020000
00000000
00000000
00000000
00130000
00000000
00000000
00000000
,
10000000
00000000
01000000
00100000
00010000
00000000
01000000
00000000
00001000
00010000
00001000
00000000
00000100
00000001
00001000
00000000
,
00000001
00000010
00000100
00000010
00000001
00000000
00000100
00000000
00000010
00000000
00010000
00000000
00011000
00000000
00000000
00000000
,
00001000
00000000
00100000
00010000
00100000
00000000
01000000
00000000
10000000
00100000
01000000
00000000
00010000
00100000
01000000
00000000
,
00010000
00001000
00010000
00001000
00010000
00000100
00001000
00000100
00001000
00000000
00000010
00000100
00000010
00000000
00000100
00000000
,
00000002
00000000
00000003
00000001
00000000
00000001
00000000
00000001
,
00002000
00000000
00003000
00001000
00000000
00001000
00000000
00001000
,
00020000
00000000
00030000
00010000
00000000
00010000
00000000
00010000
,
20000000
00000000
30000000
10000000
00000000
10000000
00000000
10000000
,
00000000
00000000
00000000
00000000
;
