
//----- song ID: hani -----//
#TITLE:HANIPAGANDA;
#ARTIST:暁Records;
#ARTISTTRANSLIT:Akatsuki Records;
#BANNER:HANIPAGANDA.png;
#BACKGROUND:HANIPAGANDA-bg.png;
#CDTITLE:./CDTitles/DDR A3.png;
#MUSIC:HANIPAGANDA.ogg;
#SAMPLESTART:48.692;
#SAMPLELENGTH:15;
#DISPLAYBPM:91:181;
#BPMS:0=90.35,4=90.5,24=181;
#BGSTAGE:29;
#NOTES:
     dance-single:
     :
     Beginner:
     3:
     :
0000
0000
0000
0000
,
0000
0000
0000
0000
,
0000
0000
0000
0000
,
0000
0000
0000
0000
,
0001
0000
0001
0000
,
1000
0000
1000
0000
,
1001
0000
0000
0000
,
0000
0000
0000
0000
,
1001
0000
0000
0000
,
0000
0000
0000
0000
,
1001
0000
0000
0000
,
0000
0000
0000
0000
,
1001
0000
0000
0000
,
0000
0000
0000
0000
,
0001
0000
0000
0000
,
0010
0000
0000
0000
,
0100
0000
0000
0000
,
1000
0000
0000
0000
,
1000
0000
0000
0000
,
0010
0000
0000
0000
,
0100
0000
0000
0000
,
0001
0000
0000
0000
,
0001
0000
0001
0000
,
0010
0000
0000
0000
,
0001
0000
0001
0000
,
0100
0000
0000
0000
,
1000
0000
1000
0000
,
0010
0000
0000
0000
,
1000
0000
1000
0000
,
0100
0000
0000
0000
,
0000
0000
0000
0000
,
2000
0000
0000
0000
,
3000
0000
1000
0000
,
0100
0000
0100
0000
,
0010
0000
0000
0000
,
0002
0000
0000
0000
,
0003
0000
0001
0000
,
0100
0000
0100
0000
,
0010
0000
0000
0000
,
1001
0000
0000
0000
,
0000
0000
0000
0000
,
1001
0000
0000
0000
,
0000
0000
0000
0000
,
0001
0001
0010
0000
,
0001
0000
0000
0000
,
1001
0000
0000
0000
,
0000
0000
0000
0000
,
1000
0000
1000
0000
,
0100
0000
0000
0000
,
1000
0000
1000
0000
,
0010
0000
0000
0000
,
0100
0000
0010
0000
,
0100
0000
0000
0000
,
0100
0000
0000
0000
,
0000
0000
0000
0000
,
0001
0000
0001
0000
,
0100
0000
0000
0000
,
0001
0000
0001
0000
,
0010
0000
0000
0000
,
0100
0000
0010
0000
,
0100
0000
0000
0000
,
0100
0000
0000
0000
,
0000
0000
0000
0000
,
1000
0000
0100
0000
,
1000
1000
0100
0000
,
0020
0000
0000
0000
,
0030
0000
0000
0000
,
0001
0000
0100
0000
,
0001
0001
0100
0000
,
0020
0000
0000
0000
,
0030
0000
0000
0000
,
1001
0000
0000
0000
,
0001
0000
0100
0000
,
0100
0000
0000
0000
,
1000
0000
0000
0000
,
1001
0000
0000
0000
,
1000
0000
0100
0000
,
0100
0000
0000
0000
,
0001
0000
0000
1001
,
0000
0000
0000
0000
;
#NOTES:
     dance-single:
     :
     Easy:
     7:
     :
0000
0000
0000
0000
,
0000
0000
0000
0000
,
0000
0000
0000
0000
,
0000
0000
0000
0000
,
0001
1000
0001
1000
,
0001
1000
0001
2000
,
3001
0000
0001
0000
,
0010
0100
1000
0000
,
0001
0000
0001
0000
,
1000
0100
0010
0000
,
0001
0000
0100
0010
,
1000
0000
1001
0000
,
1000
0000
0100
0010
,
0001
0000
1001
0000
,
2000
0000
0000
3000
,
0200
0000
0000
0300
,
0020
0000
0000
0030
,
0002
0000
0000
0003
,
0001
0100
0001
0100
,
0010
1000
0010
0000
,
1000
0100
1000
0100
,
0010
0001
0010
0000
,
0011
0000
0101
0000
,
0011
0000
1001
0000
,
1010
0000
1100
0000
,
1010
0000
1001
0000
,
2000
0000
3100
0000
,
0200
0000
0310
0000
,
0020
0000
0031
0000
,
0002
0000
1003
1000
,
0000
0000
0000
0000
,
1000
0100
0010
0010
,
0001
0100
0001
0010
,
0001
0010
0100
0100
,
1000
0001
1001
0000
,
0001
0100
0010
0010
,
1000
0100
1000
0010
,
1000
0010
0100
0100
,
0001
1000
1001
0000
,
2002
0000
0000
3003
,
0220
0000
0000
0330
,
2002
3003
0220
0330
,
2002
0000
0000
3003
,
1000
0100
0010
0001
,
1000
0100
0010
0000
,
0001
0100
0010
1000
,
0001
0100
0010
0000
,
2000
0000
3010
0000
,
1000
0100
1100
0000
,
0002
0000
0013
0000
,
0001
0100
0101
0000
,
0002
0000
0103
0000
,
0001
0010
0011
0000
,
2000
0000
3100
0000
,
1000
0010
1010
0000
,
1000
0010
1000
0100
,
1000
1000
1001
0000
,
0001
0010
0001
0100
,
0001
0001
1001
0000
,
0001
0100
1000
0100
,
0002
0000
1003
0000
,
1000
0100
0001
0100
,
2000
0000
3001
0000
,
0101
0000
1010
0000
,
1000
0100
0010
0000
,
1100
0000
0011
0000
,
0001
0100
0010
0000
,
0110
0000
1001
0000
,
0010
0100
0110
0000
,
1001
0000
0110
0000
,
1000
0001
1001
0000
,
1000
0010
1000
1010
,
0010
1000
1100
0000
,
0001
0010
0001
0011
,
0010
0001
0101
0000
,
0001
0100
0110
0110
,
0010
1000
1001
0000
,
1000
0100
0110
0110
,
0010
0001
1000
1001
,
0000
0000
0000
0000
;
#NOTES:
     dance-single:
     :
     Medium:
     12:
     :
0000
0000
0000
0000
,
0000
0000
0000
0000
,
0000
0000
0000
0000
,
0000
0000
0000
0000
,
0001
1000
0001
1000
,
0001
1000
0001
2000
,
3001
0100
0000
0001
0100
0000
0010
0000
,
1010
0000
0011
0000
,
1000
0100
0000
1000
0100
0000
1000
0000
,
1010
0000
0011
0000
,
0001
0010
0000
0001
0010
0000
0100
0000
,
1100
0000
0101
0000
,
1000
0010
0000
1000
0010
0000
1000
0000
,
1100
0000
0101
0000
,
0001
0010
0010
0001
0100
0100
,
0010
0000
1000
0000
0010
0000
2000
0000
0000
3000
0000
0000
,
1000
0010
0010
1000
0100
0100
,
0010
0000
0001
0000
0010
0000
0002
0000
0000
0003
0000
0000
,
0001
0100
0001
1000
0100
1000
,
0001
0000
0010
0000
0100
0000
2000
0000
0000
3000
0000
0000
,
1000
0100
1000
0001
0100
0001
,
1000
0010
1000
0001
0010
0001
,
1000
0100
0010
0001
0100
0010
,
1000
0000
0010
0000
0100
0000
0002
0000
0000
1003
0000
0000
,
0001
0010
0100
1000
0010
0100
,
0001
0000
0100
0000
0010
0000
2000
0000
0000
3001
0000
0000
,
1000
0001
0100
0001
1000
0100
,
0010
0000
0001
0000
0100
0000
0020
0000
0000
0130
0000
0000
,
0001
0100
0100
0010
1000
1000
,
0001
0010
0100
1000
0001
1001
,
0000
0000
0000
0000
,
0001
0000
0001
0100
0000
0100
0010
0000
0100
0000
0100
0000
,
0010
0000
0010
1000
0000
1000
0100
0000
0100
1000
0000
0000
,
0001
0000
0001
0010
0000
0010
0001
0000
1000
0000
1000
0000
,
0001
0000
0001
0100
0000
0100
0010
0000
0010
1000
0000
1000
,
0100
0000
0100
0010
0000
0010
0100
0000
0010
0000
0010
0000
,
0100
0000
0100
1000
0000
1000
0001
0000
0001
0100
0000
0000
,
0001
0000
0001
1000
0000
1000
0010
0000
0100
0000
0100
0000
,
0010
0000
0010
1000
0000
1000
0001
0000
0001
1000
0000
0000
,
0002
0010
1000
0103
,
2000
0010
0001
3100
,
0002
0013
2000
3010
,
0002
2003
0002
3003
,
1000
0000
1000
0010
0000
0000
1000
0000
1000
0100
0000
0000
,
0001
0000
0001
0010
0000
0000
0001
0000
0001
0100
0000
0000
,
0001
0000
0001
0010
0000
0010
0100
0000
0000
1000
0100
1000
,
0100
0110
2002
3003
,
0002
0203
0320
2030
,
3010
0000
1000
0100
0000
0010
0001
0000
1000
0100
0000
0000
,
2000
3200
0320
0032
,
0103
0000
0001
0010
0000
0100
1000
0000
0001
0010
0000
0000
,
0002
0203
2300
3200
,
0301
0000
0010
0001
0000
0100
0010
0000
1000
0100
0000
0000
,
2000
3020
0032
0023
,
1030
0000
0100
1000
0000
0010
0100
0000
0001
0010
0000
0000
,
0011
0000
0000
0110
0000
0000
1100
0000
1000
0000
1000
0000
,
0001
0000
0100
0010
0000
1000
0001
0000
0100
0010
0000
0000
,
1010
0000
0000
0110
0000
0000
0101
0000
0001
0000
0001
0000
,
1000
0000
0010
0100
0000
0001
1000
0000
0010
0100
0000
0000
,
0002
0000
0000
0023
0000
0000
1030
0000
0010
0000
0001
0000
,
1000
0000
1000
0100
0000
0100
0010
0000
0010
0001
0000
0000
,
2000
0000
0000
3020
0000
0000
0031
0000
0010
0000
1000
0000
,
0001
0000
0001
0100
0000
0100
0010
0000
0010
1000
0000
0000
,
0001
0000
0010
0001
0000
1000
0010
0000
1000
0000
0100
0000
,
1100
0000
1000
0001
0000
0001
1000
0000
1000
0001
0000
0000
,
1000
0000
0010
1000
0000
0001
0010
0000
0001
0000
0100
0000
,
0101
0000
0001
1000
0000
1000
0001
0000
0001
1000
0000
0000
,
0001
0000
0100
0001
0000
1000
0100
0000
1000
0000
0010
0000
,
1010
0000
1000
0001
0000
0001
1000
0000
1000
0001
0000
0000
,
1000
0000
0100
1000
0000
0001
0100
0000
0001
0000
0010
0000
,
0011
0000
0001
1000
0000
1000
0001
0000
0001
1000
0000
0000
,
0001
0000
0100
0010
0000
0100
0001
0000
1000
0000
0001
0000
,
1000
0000
0100
0010
0000
0001
1000
0000
1000
0001
0000
0000
,
1000
0000
0100
0010
0000
0100
1000
0000
0001
0000
1000
0000
,
0001
0000
0100
0010
0000
1000
0001
0000
0001
1000
0000
0000
,
0001
0000
0001
0100
0000
0100
0010
0000
1000
0000
0010
0000
,
1010
1100
1010
1001
,
1000
0000
1000
0100
0000
0100
0010
0000
0001
0000
0010
0000
,
0011
0101
0011
1001
,
0000
0000
0000
0000
;
#NOTES:
     dance-single:
     :
     Hard:
     16:
     :
0000
0000
0000
0000
,
0000
0000
0000
0000
,
0000
0000
0000
0000
,
0000
0000
0000
0000
,
0001
1000
0001
1000
,
0001
1000
0001
2000
,
3001
0010
0000
0001
0100
0001
0010
0001
,
1000
0010
1010
0000
0001
0010
0011
0000
,
1000
0100
0000
1000
0010
1000
0100
1000
,
0001
0100
0101
0000
1000
0100
1100
1000
,
0001
1000
0010
0100
0001
1000
0100
0010
,
0011
0001
0101
0000
1010
1000
1100
0000
,
1000
0001
0100
0010
1000
0001
0010
0100
,
1100
1000
1010
0000
0101
0001
0011
0000
,
1000
1000
1000
0100
0100
0100
,
0010
0000
0010
0000
0010
0000
0011
0000
0000
0011
0000
0000
,
0001
0001
0001
0100
0100
0100
,
0010
0000
0010
0000
0010
0000
1010
0000
0000
1010
0000
0000
,
1000
0100
1100
1000
0010
1010
,
0001
0000
0100
0000
0101
0000
0011
0000
0000
0011
0000
0000
,
0001
0100
0101
0001
0010
0011
,
1000
0100
1100
1000
0010
1010
,
0001
0100
0110
1000
0100
0110
,
0001
0000
0100
0000
0110
0000
1001
0000
0000
1001
0000
0000
,
1000
0100
0110
0001
0100
0110
,
1000
0000
0100
0000
0110
0000
1001
0000
0000
1001
0000
0000
,
0001
0010
0110
1000
0010
0110
,
0001
0000
0010
0000
0110
0000
1001
0000
0000
1001
0000
0000
,
1000
0010
0110
0001
0010
0110
,
1000
0010
0110
0001
1000
1001
,
0000
0000
0000
0000
0000
0000
0000
0000
0000
1000
0100
0010
,
0001
0100
0010
1000
0010
0100
0001
0000
0001
0000
0001
0000
,
0001
0100
0010
0100
0001
0010
0001
0100
0010
0100
0000
0000
,
0001
1000
0100
1000
0001
0100
0010
0000
0010
0000
0010
0000
,
0010
1000
0100
0010
0100
1000
0010
0100
0001
0010
0100
1000
,
0010
0100
0001
0100
0010
1000
0100
0000
0100
0000
0100
0000
,
0100
0010
0001
1000
0100
0010
0100
1000
0001
0010
0000
0000
,
0001
1000
0010
0100
0010
1000
0001
0000
0001
0000
0001
0000
,
0001
0010
0100
1000
0010
0100
0001
1000
0001
1000
0000
0000
,
0001
0000
0001
0010
0000
0010
0100
1000
0001
1000
0000
1000
,
0100
0000
0100
0010
0000
0010
0001
0100
0010
0100
0000
0000
,
0010
1000
0010
1000
0100
1000
0001
0010
0001
0100
0001
0100
,
0010
1000
0100
0001
0100
1000
0001
0000
0001
0000
0001
0000
,
1000
0000
1000
0010
0000
0010
0100
0001
1000
0001
0000
0001
,
0100
0000
0100
0010
0000
0010
1000
0100
0010
0100
0000
0000
,
0010
0001
0010
0001
0100
0001
1000
0010
1000
0100
1000
0100
,
0010
0001
0100
1000
0100
0001
1000
0000
1000
0000
1000
0000
,
0001
0000
0100
0010
0000
1000
0001
0000
0010
0000
0001
0000
,
1000
0100
0010
0001
1000
0100
0010
0001
1000
0100
0000
0000
,
1000
0000
0010
0100
0000
0001
1000
0000
0100
0000
1000
0000
,
0001
0010
0100
1000
0001
0010
0100
1000
0001
0010
0001
1000
,
0100
0000
0100
0001
0000
0001
0100
0000
0010
0000
0100
0000
,
1000
0010
0100
0001
0100
0010
1000
0100
0010
0001
0000
0000
,
0010
0000
0010
1000
0000
1000
0010
0000
0100
0000
0010
0000
,
0001
1000
0100
1000
0001
0100
0010
0100
0001
1000
0100
0010
,
0001
0000
0001
0100
0000
0100
0010
0000
1010
0000
1001
0000
,
0001
0100
0010
0001
0010
0100
0001
0010
0100
1000
0000
0000
,
0010
0000
0010
0100
0000
0100
0001
0000
0011
0000
0101
0000
,
0100
0010
1000
0100
0010
1000
0010
0100
1000
0010
0100
0001
,
1000
0000
1000
0100
0000
0100
0001
0000
0100
0000
1000
0000
,
0001
0010
0100
1000
0001
0010
0100
1000
0001
0010
0000
0000
,
0001
0000
0001
0100
0000
0100
1000
0000
0100
0000
0001
0000
,
1000
0100
1000
0100
0010
0100
0010
0001
0010
0001
1000
0001
,
1000
0010
0100
1000
0100
0010
1000
0000
1100
0000
0110
0000
,
0001
0010
0100
0001
1000
0010
0100
1000
0001
0010
0000
0000
,
0001
0100
0010
0001
0010
0100
0001
0000
0011
0000
0110
0000
,
1000
0100
0010
1000
0001
0100
0010
0001
1000
0100
0010
0001
,
1000
0100
0001
1000
0010
0001
1000
0000
1001
0000
0110
0000
,
0001
0010
0100
0001
1000
0010
0100
1000
0001
0100
0000
0000
,
0001
0100
1000
0001
0010
1000
0001
0000
1001
0000
0110
0000
,
1000
0010
0100
1000
0001
0010
0100
0001
1000
0100
0010
0001
,
0100
0010
1000
0100
0010
0001
0101
0000
0110
0000
1010
0000
,
1000
0010
1000
0010
0001
0010
1000
0001
0100
0010
0000
0000
,
0100
0001
0010
0100
1000
0010
0110
0000
0101
0000
1001
0000
,
1000
0100
1000
0100
0001
0100
1000
0100
1000
0001
0010
0100
,
1000
0010
1000
0001
0100
0001
0020
0130
0020
0130
0020
0130
,
1000
0100
0001
1000
0010
0001
1000
0100
0010
0001
0000
0000
,
1000
0100
1000
0001
0010
0001
0200
0310
0200
0310
0200
0310
,
1000
0010
0001
1000
0100
0001
1000
0010
0100
0110
0000
0000
,
0000
0000
0000
0000
;
#NOTES:
     dance-double:
     :
     Easy:
     7:
     :
00000000
00000000
00000000
00000000
,
00000000
00000000
00000000
00000000
,
00000000
00000000
00000000
00000000
,
00000000
00000000
00000000
00000000
,
00001000
00010000
00001000
00010000
,
00001000
00010000
00001000
00020000
,
00031000
00000000
00001000
00000000
,
01000000
00010000
01000000
00000000
,
00100000
00000000
00100000
00000000
,
10000000
01000000
00100000
00000000
,
00010000
00000000
00010000
00000000
,
00100000
00001000
00100000
00000000
,
00001000
00000000
00001000
00000000
,
00010000
00000100
00001000
00000000
,
00000200
00000000
00000000
00000300
,
00000020
00000000
00000000
00000030
,
00000002
00000000
00000000
00000003
,
00002000
00000000
00000000
00003000
,
00000100
00010000
00000100
00000000
,
00010000
00001000
00010000
00000000
,
00001000
00100000
00001000
00000000
,
00100000
00010000
00100000
00000000
,
00110000
00000000
01100000
00000000
,
11000000
00000000
10010000
00000000
,
00110000
00000000
00101000
00000000
,
00011000
00000000
00010100
00000000
,
00000200
00000000
00001300
00000000
,
00000002
00000000
00000013
00000000
,
00002000
00000000
00003010
00000000
,
00020000
00000000
00031000
00001000
,
00000000
00000000
00000000
00000000
,
00001000
00100000
00010000
00010000
,
00100000
01000000
10000000
00000000
,
00100000
01000000
00010000
00010000
,
10000000
01000000
00010000
00001000
,
00000010
00000001
00001000
00001000
,
00000001
00000100
00000001
00000000
,
00001000
00000010
00001000
00001000
,
00000100
00010000
00011000
00000000
,
00011000
00000000
00110000
00000000
,
00011000
00000000
01010000
00000000
,
00011000
00000000
00110000
00000000
,
00022000
00000000
00000000
00033000
,
00011000
00000000
00001010
00000000
,
00011000
00000000
00001100
00000000
,
00011000
00000000
00001010
00000000
,
00022000
00000000
00000000
00033000
,
00001000
00100000
00001000
01000000
,
00010000
00100000
00010000
00000000
,
10000000
01000000
00100000
00010000
,
10000000
10000000
10000000
00000000
,
00010000
00100000
00010000
01000000
,
00001000
00010000
00001000
00000000
,
00010000
00000010
00001000
00000100
,
00000010
00000010
00000010
00000000
,
00000001
00000100
00000110
00000000
,
00000010
00001000
00000010
00010000
,
00001000
00010000
00011000
00000000
,
00010000
00001000
01000000
00010000
,
00100000
01000000
01100000
00000000
,
00100000
01000000
10000000
01000000
,
00100000
00001000
00011000
00000000
,
00010000
00000010
00001000
00000100
,
00000010
00000010
00000011
00000000
,
00000001
00000100
00001000
00010000
,
00100000
00100000
10100000
00000000
,
10000000
00010000
01000000
00100000
,
10000000
01000000
00110000
00000000
,
10000000
01000000
00010000
00001000
,
00000010
00000100
00000011
00000000
,
00000001
00001000
00000010
00000100
,
00000001
00000010
00000110
00000110
,
00000100
00010000
00001000
00000000
,
00010000
00001000
00101000
00101000
,
00100000
00010000
01000000
00010000
,
00100000
01000000
01100000
01100000
,
00100000
00010000
10000000
00000000
,
00010000
01000000
01010000
01010000
,
00010000
00100000
00001000
00011000
,
00000000
00000000
00000000
00000000
;
#NOTES:
     dance-double:
     :
     Medium:
     12:
     :
00000000
00000000
00000000
00000000
,
00000000
00000000
00000000
00000000
,
00000000
00000000
00000000
00000000
,
00000000
00000000
00000000
00000000
,
00001000
00010000
00001000
00010000
,
00001000
00010000
00001000
00020000
,
00031000
00100000
00000000
00001000
00100000
00000000
00010000
00000000
,
01010000
00000000
10100000
00000000
,
10000000
01000000
00000000
10000000
01000000
00000000
00100000
00000000
,
00101000
00000000
00011000
00000000
,
00010000
00000100
00000000
00010000
00000100
00000000
00001000
00000000
,
00001010
00000000
00000101
00000000
,
00000001
00000010
00000000
00000001
00000010
00000000
00000100
00000000
,
00001100
00000000
00001010
00000000
,
00000001
00000010
00000001
00000100
00000001
00000100
,
00000001
00000000
00000010
00000000
00000100
00000000
00002000
00000000
00000000
00003000
00000000
00000000
,
00000001
00000100
00000010
00001000
00000100
00010000
,
00001000
00000000
00100000
00000000
00010000
00000000
02000000
00000000
00000000
03000000
00000000
00000000
,
01000000
00010000
01000000
00100000
10000000
00100000
,
01000000
00000000
00010000
00000000
00100000
00000000
02000000
00000000
00000000
03000000
00000000
00000000
,
10000000
01000000
10000000
00010000
00100000
00010000
,
01000000
00001000
01000000
00001000
00010000
00001000
,
00010000
00000100
00001000
00000010
00000100
00000001
,
00001000
00000000
00000100
00000000
00000001
00000000
00000200
00000000
00000000
00001300
00000000
00000000
,
00000001
00000100
00000010
00010000
00001000
00010000
,
00000100
00000000
00000010
00000000
00000001
00000000
00002000
00000000
00000000
00003001
00000000
00000000
,
00000001
00000100
00000010
00000100
00001000
00010000
,
00001000
00000000
01000000
00000000
00001000
00000000
00020000
00000000
00000000
00031000
00000000
00000000
,
00010000
00001000
00001000
00100000
00010000
00010000
,
01000000
00100000
00100000
10000000
00010000
10010000
,
00000000
00000000
00000000
00000000
,
10000000
00000000
10000000
01000000
00000000
01000000
00100000
00000000
00010000
00000000
00010000
00000000
,
00100000
00000000
00100000
00001000
00000000
00001000
00010000
00000000
00010000
00001000
00000000
00000000
,
00010000
00000000
00010000
00000100
00000000
00000100
00001000
00000000
00000010
00000000
00000010
00000000
,
00001000
00000000
00001000
00000100
00000000
00000100
00000001
00000000
00000001
00000100
00000000
00000000
,
00001000
00000000
00001000
00000001
00000000
00000001
00000010
00000000
00000100
00000000
00000100
00000000
,
00000010
00000000
00000010
00000001
00000000
00000001
00001000
00000000
00001000
00000100
00000000
00000000
,
00010000
00000000
00010000
00001000
00000000
00001000
01000000
00000000
00010000
00000000
00010000
00000000
,
01000000
00000000
01000000
00100000
00000000
00100000
10000000
00000000
10000000
00010000
00000000
00000000
,
20000000
31000000
02000000
03100000
,
00200000
00301000
00002000
00013000
,
00020000
00030010
00002000
00103000
,
00020000
00031000
00022000
00033000
,
00010000
00000000
00010000
00000100
00000000
00000000
00001000
00000000
00001000
00000100
00000000
00000000
,
00010000
00000000
00010000
00000010
00000000
00000000
00001000
00000000
00001000
00000010
00000000
00000000
,
00010000
00000000
00010000
00001000
00000000
00001000
01000000
00000000
01000000
00010000
00000000
00000000
,
10000000
00000000
00000000
00010000
10000000
00010000
20000000
00000000
00000000
30000000
00000000
00000000
,
20000000
32000000
03020000
00032000
,
00003010
00000000
00000001
00000010
00000000
00000100
00001000
00000000
00000001
00000010
00000000
00000000
,
00000002
00000203
00002300
00023000
,
00130000
00000000
10000000
00100000
00000000
01000000
00010000
00000000
10000000
00100000
00000000
00000000
,
20000000
30200000
00320000
00032000
,
00003100
00000000
00000001
00000100
00000000
00000010
00001000
00000000
00000001
00000100
00000000
00000000
,
00000002
00000023
00002030
00023000
,
01030000
00000000
10000000
01000000
00000000
00100000
00010000
00000000
10000000
01000000
00000000
00000000
,
11000000
00000000
00000000
01100000
00000000
00000000
00110000
00000000
00010000
00000000
00010000
00000000
,
01000000
00000000
01000000
00001000
00000000
00001000
00010000
00000000
00010000
00000100
00000000
00000000
,
00001100
00000000
00000000
00000110
00000000
00000000
00000011
00000000
00000001
00000000
00000001
00000000
,
00000100
00000000
00000100
00000010
00000000
00000010
00001000
00000000
00001000
00000001
00000000
00000000
,
00002000
00000000
00000000
00003200
00000000
00000000
00000301
00000000
00000100
00000000
00001000
00000000
,
00000001
00000000
00000001
00000100
00000000
00000100
00001000
00000000
00001000
01000000
00000000
00000000
,
00020000
00000000
00000000
02030000
00000000
00000000
13000000
00000000
01000000
00000000
00010000
00000000
,
10000000
00000000
10000000
01000000
00000000
01000000
00010000
00000000
00010000
00000100
00000000
00000000
,
00000010
00000000
00000001
00000100
00000000
00000001
00000010
00000000
00000100
00000000
00001000
00000000
,
00001100
00000000
00000100
00010000
00000000
00010000
00001000
00000000
00001000
01000000
00000000
00000000
,
00100000
00000000
10000000
01000000
00000000
10000000
00100000
00000000
01000000
00000000
00010000
00000000
,
00110000
00000000
00100000
00001000
00000000
00001000
00010000
00000000
00010000
00000010
00000000
00000000
,
00001000
00000000
00000010
00000100
00000000
00000001
00001000
00000000
00000100
00000000
00000010
00000000
,
00000110
00000000
00000100
00010000
00000000
00010000
00001000
00000000
00001000
01000000
00000000
00000000
,
00010000
00000000
00100000
01000000
00000000
10000000
00010000
00000000
01000000
00000000
00100000
00000000
,
01100000
00000000
01000000
00001000
00000000
00001000
00010000
00000000
00010000
00000100
00000000
00000000
,
00000010
00000000
00000001
00000100
00000000
00000001
00000010
00000000
00000100
00000000
00000001
00000000
,
00000100
00000000
00000100
00001000
00000000
00001000
00000001
00000000
00000001
00000100
00000000
00000000
,
00000010
00000000
00000100
00001000
00000000
00000100
00000010
00000000
00010000
00000000
00000010
00000000
,
00010000
00000000
00001000
00100000
00000000
00010000
01000000
00000000
00100000
10000000
00000000
00000000
,
00100000
00000000
10000000
01000000
00000000
10000000
00100000
00000000
01000000
00000000
10000000
00000000
,
01000000
00000000
01000000
00010000
00000000
00010000
10000000
00000000
10000000
01000000
00000000
00000000
,
00100000
00000000
01000000
00010000
00000000
01000000
00100000
00000000
00001000
00000000
00100000
00000000
,
00001000
00000000
00010000
00000010
00000000
00001000
00000100
00000000
00000000
00000110
00000000
00000000
,
00000000
00000000
00000000
00000000
;
#NOTES:
     dance-double:
     :
     Hard:
     16:
     :
00000000
00000000
00000000
00000000
,
00000000
00000000
00000000
00000000
,
00000000
00000000
00000000
00000000
,
00000000
00000000
00000000
00000000
,
00001000
00010000
00001000
00010000
,
00001000
00010000
00001000
00020000
,
00031000
01000000
00000000
00010000
00100000
00010000
01000000
00100000
,
10000000
01000000
11000000
00000000
00010000
00100000
00110000
00000000
,
10000000
01000000
00000000
10000000
00100000
10000000
01000000
10000000
,
00100000
01000000
01100000
00000000
00001000
00010000
00001000
00011000
,
00000000
00000100
00000000
00001000
00000010
00001000
00000100
00000010
,
00000001
00000100
00000101
00000000
00001000
00000010
00001010
00000000
,
00000001
00000100
00000000
00000001
00000010
00000001
00000100
00000001
,
00000010
00000100
00000110
00000000
00010000
00001000
00011000
00000000
,
00001000
00001000
00001000
00010000
00010000
00010000
,
00100000
00000000
00100000
00000000
00100000
00000000
10100000
00000000
00000000
10100000
00000000
00000000
,
10000000
10000000
10000000
01000000
01000000
01000000
,
00100000
00000000
00100000
00000000
00100000
00000000
00101000
00000000
00000000
00101000
00000000
00000000
,
00001000
00010000
00010100
00000100
00001000
00001010
,
00000010
00000000
00000100
00000000
00000101
00000000
00000011
00000000
00000000
00000011
00000000
00000000
,
00000001
00000100
00000110
00000010
00010000
00011000
,
00001000
00100000
00110000
00010000
10000000
11000000
,
01000000
00100000
00110000
10000000
01000000
00110000
,
10000000
00000000
01000000
00000000
00010000
00000000
00011000
00000000
00000000
00011000
00000000
00000000
,
00010000
00000100
00001100
00001000
00000100
00000011
,
00000010
00000000
00000001
00000000
00000100
00000000
00001001
00000000
00000000
00001001
00000000
00000000
,
00001000
00000010
00001010
00000001
00000100
00001010
,
00000001
00000000
00000100
00000000
00001000
00000000
00011000
00000000
00000000
00011000
00000000
00000000
,
00001000
01000000
01010000
00010000
01000000
10100000
,
00100000
10000000
10100000
01000000
00100000
10010000
,
00000000
00000000
00000000
00000000
00000000
00000000
00000000
00000000
00000000
10000000
01000000
00100000
,
00010000
01000000
00100000
10000000
00100000
01000000
00010000
00000000
00010000
00000000
00010000
00000000
,
00100000
01000000
00100000
00010000
00100000
00001000
00010000
00001000
00100000
00001000
00000000
00000000
,
00010000
00000100
00010000
00000010
00001000
00000010
00010000
00000000
00010000
00000000
00010000
00000000
,
00000100
00001000
00000010
00000100
00000001
00000010
00000100
00001000
00000100
00000010
00000001
00000100
,
00000010
00001000
00000010
00000100
00000001
00000100
00000010
00000000
00000010
00000000
00000010
00000000
,
00000100
00001000
00000100
00001000
00010000
00001000
00010000
00001000
00000010
00001000
00000000
00000000
,
00000010
00000001
00000100
00000010
00001000
00000100
00010000
00000000
00010000
00000000
00010000
00000000
,
00001000
00100000
00001000
01000000
00010000
01000000
00010000
00100000
01000000
10000000
00000000
00000000
,
00010000
00000000
00010000
01000000
00000000
01000000
00100000
10000000
00010000
10000000
00000000
10000000
,
01000000
00000000
01000000
00010000
00000000
00010000
00001000
00010000
00001000
00010000
00000000
00000000
,
00001000
00010000
00001000
00010000
00000010
00010000
00000010
00001000
00000100
00000010
00000100
00001000
,
00000001
00000100
00000010
00001000
00000100
00010000
00000100
00000000
00000100
00000000
00000100
00000000
,
00001000
00000000
00001000
00000100
00000000
00000100
00000010
00000001
00001000
00000001
00000000
00000001
,
00000100
00000000
00000100
00001000
00000000
00001000
00010000
00001000
00010000
00001000
00000000
00000000
,
00010000
00001000
00010000
00001000
00100000
00001000
00100000
00010000
01000000
00100000
01000000
00010000
,
10000000
01000000
00100000
00010000
01000000
00001000
00010000
00000000
00010000
00000000
00010000
00000000
,
00001000
00000000
00001000
00000010
00000000
00000010
00000001
00000000
00001000
00000000
00000001
00000000
,
00000100
00000001
00000100
00001000
00000100
00001000
00010000
00001000
00010000
00100000
00000000
00000000
,
00010000
00000000
00010000
00100000
00000000
00100000
10000000
00000000
00010000
00000000
10000000
00000000
,
01000000
10000000
01000000
00010000
01000000
00010000
00001000
00010000
00001000
00000010
00001000
00000010
,
00000001
00000000
00000001
00000100
00000000
00000100
00000010
00000000
00001000
00000000
00000010
00000000
,
00000100
00001000
00000100
00001000
00010000
00001000
00010000
00000010
00010000
00001000
00000000
00000000
,
00010000
00000000
00010000
00100000
00000000
00100000
10000000
00000000
01000000
00000000
10000000
00000000
,
00100000
01000000
00010000
01000000
00100000
10000000
00010000
00100000
01000000
00010000
00001000
00010000
,
00001000
00000000
00001000
00000010
00000000
00000010
00000100
00000000
00001100
00000000
00001001
00000000
,
00000001
00000100
00000010
00000001
00000010
00000100
00000001
00000010
00000100
00001000
00000000
00000000
,
00000100
00000000
00000100
00010000
00000000
00010000
00001000
00000000
00101000
00000000
01001000
00000000
,
01000000
00010000
00100000
00001000
00010000
00100000
01000000
00010000
00100000
01000000
00010000
01000000
,
00100000
00000000
00100000
00010000
00000000
00010000
01000000
00000000
10000000
00000000
01000000
00000000
,
00010000
00100000
01000000
00010000
00001000
00000010
00000100
00001000
00000010
00000100
00000000
00000000
,
00001000
00000000
00001000
00000100
00000000
00000100
00000001
00000000
00000010
00000000
00000001
00000000
,
00001000
00000100
00001000
00000100
00010000
00000100
00010000
00001000
00010000
00001000
00100000
00001000
,
00100000
00010000
00100000
01000000
10000000
00100000
01000000
00000000
01010000
00000000
10010000
00000000
,
10000000
01000000
00100000
00001000
00010000
00000100
00001000
00000100
00000010
00000001
00000000
00000000
,
00001000
00000100
00000010
00001000
00000010
00000100
00001000
00000000
00001100
00000000
00001001
00000000
,
00000001
00000100
00000010
00001000
00000100
00010000
00001000
00100000
00010000
00100000
01000000
10000000
,
00100000
01000000
10000000
01000000
00100000
10000000
01000000
00000000
11000000
00000000
10010000
00000000
,
00010000
01000000
00100000
00010000
00001000
00000100
00000010
00001000
00000100
00000010
00000000
00000000
,
00000001
00000010
00000100
00000001
00000100
00000010
00000001
00000000
00000011
00000000
00001001
00000000
,
00001000
00000010
00000100
00001000
00010000
00100000
01000000
00010000
00100000
00001000
00010000
01000000
,
10000000
00010000
01000000
10000000
01000000
00010000
01010000
00000000
01100000
00000000
10100000
00000000
,
10000000
00100000
01000000
00001000
00010000
00001000
00000010
00000100
00001000
00000001
00000000
00000000
,
00000100
00000001
00000010
00001000
00000010
00000001
00000011
00000000
00001001
00000000
00001100
00000000
,
00000100
00000010
00000001
00000100
00000010
00001000
00000100
00010000
00001000
00100000
00010000
01000000
,
00100000
10000000
01000000
10000000
00100000
01000000
00020000
00130000
00020000
00130000
00020000
00130000
,
01000000
00010000
00001000
00100000
00001000
00010000
00000100
00001000
00000010
00000100
00000000
00000000
,
00000001
00001000
00000010
00000100
00001000
00010000
00000200
00001300
00000200
00001300
00000200
00001300
,
00000010
00000100
00001000
00010000
00100000
01000000
00010000
10000000
00010000
10010000
00000000
00000000
,
00000000
00000000
00000000
00000000
;
