
//----- song ID: godo -----//
#TITLE:Go Down;
#ARTIST:KO3;
#BANNER:Go Down.png;
#BACKGROUND:Go Down-bg.png;
#CDTITLE:./CDTitles/DANCE aROUND.png;
#MUSIC:Go Down.ogg;
#SAMPLESTART:49.524;
#SAMPLELENGTH:15;
#BPMS:0=126;
#STAGE:17;
#NOTES:
     dance-single:
     :
     Beginner:
     1:
     :
0000
0000
0000
0000
,
0000
0000
0000
0000
,
0000
0000
0000
0000
,
0000
0000
0000
0000
,
0000
0000
0000
0000
,
0000
0000
0000
0000
,
0001
0000
1000
0000
,
0001
0000
1000
0000
,
0001
0000
1000
0000
,
0001
0000
1000
0000
,
0001
0000
1000
0000
,
0100
0000
0001
0000
,
0100
0000
0001
0000
,
0100
0000
1000
0000
,
0001
0000
0000
0000
,
0000
0000
0000
0000
,
0000
0000
0000
0000
,
0100
0000
0000
0000
,
0001
0000
1000
0000
,
0001
0000
1000
0000
,
0001
0000
1000
0000
,
0001
0000
1000
0000
,
0010
0000
0001
0000
,
0010
0000
1000
0000
,
0010
0000
0001
0000
,
0010
0000
1000
0000
,
0001
0000
0001
0000
,
1000
0000
1000
0000
,
0001
0000
1000
0000
,
0001
0000
1000
0000
,
0001
0000
1000
0000
,
0001
0000
1000
0000
,
0001
0000
1000
0000
,
0001
0000
1000
0000
,
1001
0000
0000
0000
,
0000
0000
0000
0000
,
1000
0000
0000
0000
,
0000
0000
0000
0000
,
0001
0000
0000
0000
,
0001
0000
0000
0000
,
0010
0000
1000
0000
,
1000
0000
1000
0000
,
0002
0000
0003
0000
,
1000
0001
1000
0000
,
0001
0000
1000
0000
,
0001
0000
1000
0000
,
0001
0000
1000
0000
,
0001
0000
1000
0000
,
0001
0000
1000
0000
,
0001
0000
1000
0000
,
0000
0000
0000
0000
,
0001
0000
0001
0000
,
0000
0000
0000
0000
,
1000
0000
1000
0000
,
0000
0000
0000
0000
,
0001
0000
0001
0000
,
0000
0000
0000
0000
,
1000
0000
1000
0000
,
0001
0000
0000
0000
,
0000
0000
0000
0000
;
#NOTES:
     dance-single:
     :
     Easy:
     4:
     :
0000
0000
0000
0000
,
0000
0000
0000
0000
,
0000
0000
0000
0000
,
0000
0000
0000
0000
,
0000
0000
0000
0000
,
0000
0000
0000
0000
,
0001
0000
1000
0000
,
0001
0000
1000
0000
,
0001
0000
1000
0000
,
0001
0000
1000
0000
,
0001
0000
1000
0000
,
0100
0000
0001
0000
,
0100
0000
0001
0000
,
0100
0000
2000
0000
,
0002
0000
0000
0000
,
0000
0000
0000
0000
,
0000
0000
3003
0000
,
0100
0000
0000
0000
,
0001
0000
1000
0000
,
0001
0000
1000
0000
,
0001
0000
1000
0000
,
0001
0000
1000
0000
,
0010
0001
0001
0000
,
0010
1000
1000
0000
,
0010
0001
0001
0000
,
0010
1000
1000
0000
,
0001
1000
0001
0000
,
1000
0001
1000
0000
,
0001
0000
1000
0000
,
0001
0000
1000
0000
,
0001
0001
1000
1000
,
0001
0001
1000
1000
,
0001
0010
1000
0010
,
0001
0010
1000
0010
,
1002
0000
0003
0000
,
0001
0000
0001
0000
,
2000
0000
3000
0000
,
1000
0000
1000
0000
,
0002
0000
0003
0000
,
0001
0000
0001
0000
,
0010
0000
1000
0000
,
1000
0000
1000
0000
,
0002
0000
0003
0001
,
1000
0001
1000
1000
,
0001
0000
1000
0000
,
0001
0000
1000
0000
,
0001
0001
1000
1000
,
0001
0001
1000
1000
,
0001
0010
1000
0010
,
0001
0010
1000
0010
,
0000
0000
0000
0000
,
0001
0000
0001
0000
,
0000
0000
0000
0000
,
1000
0000
1000
0000
,
0000
0000
0000
0000
,
0001
0000
0001
0000
,
0000
0000
0000
0000
,
1000
0000
2000
0000
,
3001
0000
0000
0000
,
0000
0000
0000
0000
;
#NOTES:
     dance-single:
     :
     Medium:
     10:
     :
0000
0000
0000
0000
,
0000
0000
0000
0000
,
0000
0000
0000
0000
,
0000
0000
0000
0000
,
0000
0000
0000
0000
,
0000
0000
0000
0000
,
0100
0000
0000
0000
0000
0100
0000
0000
0000
0001
0000
0000
0010
0000
0000
0001
0000
0000
0000
0000
0000
1000
0000
0000
,
0100
0000
0000
0000
0000
0100
0000
0000
0000
1000
0000
0000
0010
0000
0000
1000
0000
0000
0001
0000
0000
0010
0000
0000
,
0100
0000
0000
0000
0000
0100
0000
0000
0000
1000
0000
0000
0010
0000
0000
1000
0000
0000
0000
0000
0000
0001
0000
0000
,
0100
0000
0000
0000
0000
0100
0000
0000
0000
0100
0000
0000
0001
0000
0000
0010
0000
0000
0001
0000
0000
1000
0000
0000
,
0100
0000
0000
0010
0001
1000
0000
0001
,
0100
0000
0000
0000
0000
0100
0000
0000
0000
0010
0000
0000
1000
0000
0000
0001
0000
0000
0010
0000
0000
0001
0000
0000
,
0100
0000
0000
0000
0000
0100
0000
0000
0000
0001
0000
0000
1000
0000
0000
0001
0000
0000
0000
0000
0000
1000
0000
0000
,
0100
0000
0010
0000
0001
0001
1000
0001
,
0100
0100
0100
0100
,
0100
0100
0100
0100
,
0100
0100
0100
0100
,
0200
0000
0300
1001
,
0001
0010
0001
0000
1000
0010
1000
0000
,
0001
0010
1000
0010
0001
1000
0001
0000
,
1000
0001
0010
0000
0001
1000
0010
0000
,
1000
0001
0010
0001
1000
0010
1000
0010
,
0100
0000
1010
0000
0001
0010
0001
0000
,
1000
0010
0001
0010
1000
0010
0001
0000
,
0010
1000
0001
0000
0010
0001
1000
0000
,
0001
0010
1000
0010
0001
1000
0010
1000
,
0200
0000
0310
1000
0010
0001
0000
1000
,
1100
0000
0000
0000
0000
0101
0000
0000
0000
0001
0000
0000
0010
0000
0000
1000
0000
0000
0010
0000
0000
0000
0000
0000
,
0101
0000
0000
0000
0000
1100
0000
0000
0000
1000
0000
0000
0010
0000
0000
0001
0000
0000
0000
0000
0000
0010
0000
0000
,
0110
0000
0000
0000
0000
0101
0000
0000
0000
0100
0000
0000
0001
0000
0000
0010
0000
0000
0001
0000
0000
1000
0000
0000
,
0200
0000
0310
1000
0010
0001
0000
1000
,
0101
0000
0000
0000
0000
1100
0000
0000
0000
1000
0000
0000
0010
0000
0000
0001
0000
0000
0010
0000
0000
0000
0000
0000
,
1100
0000
0000
0000
0000
0101
0000
0000
0000
0001
0000
0000
0010
0000
0000
1000
0000
0000
0000
0000
0000
0010
0000
0000
,
0110
0000
0001
0000
1000
0010
0001
0010
,
0200
0001
0000
0010
,
0000
0001
0000
0310
,
0020
1000
0000
0001
,
0000
0000
1030
0000
0001
1000
0001
1000
,
0100
0010
0000
0001
0000
1000
0000
0010
,
0100
0000
0000
0000
0000
0100
0000
0000
0000
0001
0000
0000
0000
0000
0000
1000
0000
0000
0000
0000
0000
0010
0000
0000
,
0100
0000
0000
0000
0000
0100
0000
0000
0000
0001
0000
0000
0000
0000
0000
0001
0000
0000
0000
0000
0000
1000
0000
0000
,
0100
0000
0000
0000
0000
0100
0000
0000
0000
0100
0000
0000
1000
0000
0000
0001
0000
0000
0010
0000
0000
0001
0000
0000
,
0200
0000
0300
1001
,
1100
0001
0101
0000
0001
0010
0001
1000
,
1100
0000
0000
0000
0000
0101
0000
0000
0000
0001
0000
0000
0010
0000
0000
1000
0000
0000
0010
0000
0000
0001
0000
0000
,
0101
0000
0000
0000
0000
1100
0000
0000
0000
0100
0000
0000
1000
0000
0000
0010
0000
0000
0001
0000
0000
0010
0000
0000
,
0100
0000
0001
0010
1000
0010
0001
0000
,
0101
0000
0000
0000
0000
1100
0000
0000
0000
1000
0000
0000
0010
0000
0000
0001
0000
0000
0010
0000
0000
0000
0000
0000
,
0101
0000
0000
0000
0000
1100
0000
0000
0000
1000
0000
0000
0010
0000
0000
0001
0000
0000
0010
0000
0000
1000
0000
0000
,
0200
0000
0320
0000
0031
1000
0001
1000
,
0100
0000
1001
0000
0001
0010
0001
1000
,
0010
1000
0001
0010
0001
1000
0010
0001
,
0010
1000
0001
0010
0001
1000
0010
1000
,
0001
0010
1000
0010
0001
1000
0001
1000
,
0100
1000
0010
1000
,
0001
0010
0001
1000
,
0002
0003
2000
3000
,
0001
1000
0010
0001
,
0200
0300
0000
0000
,
0000
0000
0000
0000
;
#NOTES:
     dance-single:
     :
     Hard:
     14:
     :
0000
0000
0000
0000
,
0000
0000
0000
0000
,
0000
0000
0000
0000
,
0000
0000
0000
0000
,
0000
0000
0000
0000
,
0000
0000
0000
0000
,
0100
0000
0000
0000
0000
0110
0000
0000
0000
1000
0000
0000
0001
0000
0000
0010
0000
0000
0000
0000
0000
0001
0000
0000
,
0100
0000
0000
0000
0000
0110
0000
0000
0000
1000
0000
0000
0010
0000
0000
0001
0000
0000
0010
0000
0000
1000
0000
0000
,
0100
0000
0000
0000
0000
1100
0000
0000
0000
0001
0000
0000
0010
0000
0000
1000
0000
0000
0000
0000
0000
0010
0000
0000
,
0110
0000
0000
0000
0000
1100
0000
0000
0000
0101
0000
0000
0001
0000
1000
0010
0000
1000
0000
0000
0001
0010
0000
0000
,
0110
0000
0001
1000
0010
1000
0000
0001
,
0100
0000
0000
0000
0000
0110
0000
0000
0000
0001
0000
0000
0010
0000
0000
1000
0000
0000
0010
0000
0000
0001
0000
0000
,
0100
0000
0000
0000
0000
0110
0000
0000
0000
0010
0000
0000
1000
0000
0000
0001
0000
0000
0000
0000
0000
0010
0000
0000
,
0100
0000
0000
0000
0000
0000
1000
0000
0000
0000
0000
0001
1000
0000
0010
1000
0000
0001
0010
0000
0000
0001
0000
0000
,
0100
0000
0001
0000
0000
0000
0100
0000
0000
0001
0000
0001
0100
0000
0001
0000
0000
0000
0100
0000
0000
0001
0000
0000
,
0100
0000
0001
0000
0000
0000
0100
0000
0000
0000
0000
0001
0100
0000
0000
0001
0000
0000
0100
0000
0000
0001
0000
0000
,
0100
0000
0000
0001
0000
0000
0100
0000
0000
0001
0000
0000
0100
0000
0001
0010
0000
0001
0100
0000
0001
0010
0000
0001
,
0200
0000
0300
1001
,
0001
0000
1000
0010
0000
0000
1000
0000
0000
0001
0000
0000
0010
0000
0001
1000
0000
0000
0010
0000
0000
1000
0000
0000
,
0001
0000
0010
0001
0000
0000
1000
0000
0001
1000
0000
0000
0010
0000
1000
0001
0000
0000
0010
0000
0001
1000
0000
0000
,
1001
0000
0001
0010
0000
0000
0001
0000
0000
1000
0000
0000
0010
0000
0001
0010
0000
0000
1000
0000
0000
0001
0000
0000
,
0010
0000
1000
0010
0000
0000
0001
0000
0010
0001
0000
0000
0010
0000
1000
0010
0000
0000
0001
0000
0000
1000
0000
0000
,
0100
0000
0000
1000
0000
0000
1001
0000
0001
0010
0000
0000
0001
0000
0000
1000
0000
0000
0001
0000
0010
0001
0000
0000
,
1000
0000
0010
1000
0000
0000
0001
0000
1000
0001
0000
0000
0010
0000
0001
1000
0000
0000
0010
0000
0000
1001
0000
0000
,
0001
0000
1000
0010
0000
0000
1000
0000
0000
0001
0000
0000
0010
0000
1000
0010
0000
0000
0001
0000
0000
1000
0000
0000
,
0010
0000
0001
0010
0000
0000
1000
0000
0010
1000
0000
0000
0010
0000
0001
0010
0000
0000
1000
0000
0000
0001
0000
0000
,
0100
0000
1001
0002
0010
2003
0010
3002
,
0100
0000
0000
0023
0000
0100
0000
0000
0000
0032
0000
0000
1000
0000
0000
0023
0000
0000
1000
0000
0000
0032
0000
0000
,
0100
0000
0000
2003
0000
0100
0000
0000
0000
3020
0000
0000
0001
0000
0000
2030
0000
0000
0001
0000
0000
3020
0000
0000
,
0100
0000
0000
2030
0000
0100
0000
0000
0000
3200
0000
0000
0001
0000
0000
2300
0000
0000
0010
0000
0000
0001
0000
0000
,
3200
0001
0010
2300
0010
0001
3020
0001
,
0100
0000
0000
2030
0000
0100
0000
0000
0000
0001
0000
0000
3020
0000
0000
0001
0000
0000
2030
0000
0000
0001
0000
0000
,
0100
0000
0000
3020
0000
0100
0000
0000
0000
0001
0000
0000
2030
0000
0000
0001
0000
0000
0010
0000
0000
3002
0000
0000
,
0103
0001
1000
0010
0001
0010
1000
0001
,
0101
0000
0000
0000
0000
0000
0001
0000
0001
0010
0000
0010
0001
0000
0001
1000
0000
1000
0010
0000
0010
1000
0000
1000
,
0001
0000
0000
0000
0000
0000
0010
0000
0010
0001
0000
0001
1000
0000
1000
0001
0000
0001
0010
0000
0010
0001
0000
0001
,
1000
0000
0000
0000
0000
0000
0010
0000
0010
1000
0000
1000
0001
0000
0001
0010
0000
0010
0001
0000
0001
1000
0000
1000
,
0020
0000
0032
0000
0013
1000
0001
0010
,
0100
1000
0000
1000
0001
1000
0010
1000
,
0100
0000
0000
1000
0000
0100
0000
0000
0000
1000
0000
0000
0001
0000
0000
1000
0000
0000
0010
0000
0000
1000
0000
0000
,
0100
0000
0000
1000
0000
0100
0000
0000
0000
1000
0000
0000
0010
0000
0000
1000
0000
0000
0001
0000
0000
1000
0000
0000
,
1100
0000
0000
0000
0000
0101
0000
0000
0000
1100
0000
0000
1000
0000
0000
0001
0000
0000
1000
0000
0000
0010
0000
0000
,
0200
0000
0000
0000
0000
0000
0300
0000
0000
0000
0000
0000
0001
0010
0001
1000
0010
1000
0001
0000
0000
0000
0000
0000
,
0100
0000
0000
0010
0000
0100
1001
0000
0000
1000
0000
0000
0001
0000
1000
0020
0000
0000
0001
0000
0000
1030
0000
0000
,
0102
0000
0000
1000
0000
0103
0010
0000
0000
1000
0000
0000
0001
0000
0000
2000
0000
0000
0010
0000
0000
0001
0000
0000
,
3100
0000
1000
0001
0000
0100
0001
0000
1000
0100
0000
0000
0010
0000
0000
0001
0000
0000
1000
0000
0000
0001
0000
0000
,
1100
0000
0010
0001
0000
0000
1000
0000
0000
0020
0000
0000
0001
0000
0000
2030
0000
0000
0001
0000
0000
3020
0000
0000
,
0100
0000
0000
2030
0000
0100
0000
0000
0000
3001
0000
0000
1000
0000
0010
1000
0000
0000
0001
0000
0010
0001
0000
0000
,
0101
0000
0000
2000
0000
0100
0000
0000
0000
3020
0000
0000
0001
0000
0000
2030
0000
0000
0001
0000
0000
0010
0000
0000
,
3200
0000
0001
0000
1300
0010
0001
0010
,
0110
1000
1001
0000
1000
0010
0001
0010
,
1000
0000
1000
0010
0000
0000
0001
0000
0001
0010
0000
0000
1000
0000
1000
0010
0000
0000
0001
0000
0001
0010
0000
0000
,
1000
0001
0010
1000
0010
0001
0010
1000
,
0010
0000
0010
0001
0000
0000
0010
0000
0010
1000
0000
0000
0010
0000
0010
0001
0000
0000
0010
0000
0010
1000
0000
0000
,
0110
0001
1000
0010
,
1000
0001
0010
0001
,
2000
3000
0002
0003
,
1000
0010
1000
0001
0010
1000
0010
0001
,
0200
0300
0000
0000
,
0000
0000
0000
0000
;
#NOTES:
     dance-double:
     :
     Easy:
     4:
     :
00000000
00000000
00000000
00000000
,
00000000
00000000
00000000
00000000
,
00000000
00000000
00000000
00000000
,
00000000
00000000
00000000
00000000
,
00000000
00000000
00000000
00000000
,
00000000
00000000
00000000
00000000
,
00001000
00000000
00010000
00000000
,
00001000
00000000
00010000
00000000
,
00001000
00000000
00010000
00000000
,
00001000
00000000
00010000
00000000
,
00001000
00000000
00010000
00000000
,
00001000
00000000
00000100
00000000
,
00001000
00000000
00000100
00000000
,
00001000
00000000
00020000
00000000
,
00002000
00000000
00000000
00000000
,
00000000
00000000
00000000
00000000
,
00000000
00000000
00000000
00000000
,
00033000
00000000
00000000
00000000
,
00001000
00000000
00010000
00000000
,
00001000
00000000
00010000
00000000
,
00001000
00000000
00010000
00000000
,
00001000
00000000
00010000
00000000
,
00001000
00000100
00000100
00000000
,
00010000
01000000
01000000
00000000
,
00001000
00000100
00000100
00000000
,
00010000
01000000
01000000
00000000
,
00001000
00010000
00000100
00000000
,
00010000
00001000
01000000
00000000
,
00001000
00000000
00010000
00000000
,
00001000
00000000
00010000
00000000
,
00001000
00001000
00010000
00010000
,
00001000
00001000
00010000
00010000
,
00020000
00130000
00002000
00003010
,
00020000
00130000
00001000
00010000
,
00000200
00000000
00000300
00000000
,
00000100
00000000
00000100
00000000
,
00020000
00000000
00030000
00000000
,
01000000
00000000
01000000
00000000
,
00002000
00000000
00003000
00000000
,
00000100
00000000
00000100
00000000
,
00020000
00000000
00030000
00000000
,
01000000
00000000
01000000
00000000
,
00012000
00000000
00003000
00001000
,
00010000
00001000
00010000
00010000
,
00000100
00000000
00010000
00000000
,
00001000
00000000
01000000
00000000
,
00001000
00001000
00010000
00010000
,
00001000
00001000
00010000
00010000
,
00020000
00130000
00002000
00003010
,
00020000
00130000
00002000
00003010
,
00000000
00000000
00000000
00000000
,
00000100
00000000
00000100
00000000
,
00000000
00000000
00000000
00000000
,
01000000
00000000
01000000
00000000
,
00000000
00000000
00000000
00000000
,
00000100
00000000
00000100
00000000
,
00000000
00000000
00000000
00000000
,
01000000
00000000
01000000
00000000
,
00001000
00000000
00000000
00000000
,
00000000
00000000
00000000
00000000
;
#NOTES:
     dance-double:
     :
     Medium:
     10:
     :
00000000
00000000
00000000
00000000
,
00000000
00000000
00000000
00000000
,
00000000
00000000
00000000
00000000
,
00000000
00000000
00000000
00000000
,
00000000
00000000
00000000
00000000
,
00000000
00000000
00000000
00000000
,
01000000
00000000
00000000
00000000
00000000
01000000
00000000
00000000
00000000
00001000
00000000
00000000
00010000
00000000
00000000
00000010
00000000
00000000
00000000
00000000
00000000
00001000
00000000
00000000
,
00000100
00000000
00000000
00000000
00000000
00000100
00000000
00000000
00000000
00001000
00000000
00000000
00000010
00000000
00000000
00010000
00000000
00000000
00001000
00000000
00000000
00100000
00000000
00000000
,
01000000
00000000
00000000
00000000
00000000
01000000
00000000
00000000
00000000
00100000
00000000
00000000
00001000
00000000
00000000
00010000
00000000
00000000
00000000
00000000
00000000
00001000
00000000
00000000
,
00000100
00000000
00000000
00000000
00000000
00000100
00000000
00000000
00000000
00000100
00000000
00000000
00000001
00000000
00000000
00000010
00000000
00000000
00001000
00000000
00000000
00010000
00000000
00000000
,
00000100
00000000
00000000
00001000
00000001
00000010
00000000
00000001
,
00000100
00000000
00000000
00000000
00000000
00000100
00000000
00000000
00000000
00000001
00000000
00000000
00001000
00000000
00000000
00000010
00000000
00000000
00010000
00000000
00000000
00000000
00000000
00000000
,
00000100
00000000
00000000
00000000
00000000
00000100
00000000
00000000
00000000
00010000
00000000
00000000
00001000
00000000
00000000
00100000
00000000
00000000
00000000
00000000
00000000
00010000
00000000
00000000
,
01000000
00000000
00010000
00000000
00100000
00001000
00010000
00001000
,
01000000
01000000
00000100
00000100
,
01000000
01000000
00000100
00000100
,
01000000
00000100
01000000
00000100
,
02000000
00000000
03000000
00011000
,
00001000
00100000
00010000
10000000
00100000
10000000
00010000
00100000
,
10000000
00100000
00010000
10000000
00100000
00010000
00001000
00010000
,
00000010
00001000
00000001
00000010
00000001
00001000
00000010
00000001
,
00000010
00001000
00000001
00000010
00001000
00010000
00100000
10000000
,
01000000
00100000
00010000
10000000
00100000
00010000
00001000
00100000
,
00010000
10000000
00100000
00010000
00001000
00010000
00000010
00001000
,
00000001
00000010
00000001
00001000
00000010
00001000
00000001
00000010
,
00001000
00010000
00000010
00001000
00000001
00000010
00001000
00010000
,
00000100
00000000
00011000
00010000
00100000
10000000
00000000
00010000
,
01010000
00000000
00000000
00000000
00000000
11000000
00000000
00000000
00000000
10000000
00000000
00000000
00100000
00000000
00000000
00010000
00000000
00000000
00001000
00000000
00000000
00000000
00000000
00000000
,
00000100
00000000
00000000
00000000
00000000
00000110
00000000
00000000
00000000
00000010
00000000
00000000
00001000
00000000
00000000
00000001
00000000
00000000
00000000
00000000
00000000
00001000
00000000
00000000
,
00001100
00000000
00000000
00000000
00000000
00000101
00000000
00000000
00000000
00000100
00000000
00000000
00000001
00000000
00000000
00000010
00000000
00000000
00001000
00000000
00000000
00010000
00000000
00000000
,
00000100
00000000
00010000
00000010
00001000
00000001
00000000
00001000
,
00000101
00000000
00000000
00000000
00000000
00001100
00000000
00000000
00000000
00000001
00000000
00000000
00000010
00000000
00000000
00001000
00000000
00000000
00010000
00000000
00000000
00000000
00000000
00000000
,
01000000
00000000
00000000
00000000
00000000
01100000
00000000
00000000
00000000
10000000
00000000
00000000
00100000
00000000
00000000
00010000
00000000
00000000
00000000
00000000
00000000
00001000
00000000
00000000
,
01000000
00000000
00011000
00000000
00001000
00010000
00000010
00001000
,
00000200
00010000
00000000
00000010
,
00000000
00010000
00000000
00000310
,
00000002
00001000
00000000
00000010
,
00000000
00000000
00001003
00000000
00000001
00001000
00000001
00001000
,
00000100
00000000
00000000
00000010
00000001
00001000
00000000
00000010
,
00000100
00000000
00000000
00000000
00000000
00000100
00000000
00000000
00000000
00000010
00000000
00000000
00010000
00000000
00000000
00001000
00000000
00000000
00010000
00000000
00000000
00000000
00000000
00000000
,
01000000
00000000
00000000
00000000
00000000
01000000
00000000
00000000
00000000
00100000
00000000
00000000
00001000
00000000
00000000
00010000
00000000
00000000
00000000
00000000
00000000
00100000
00000000
00000000
,
01000000
00000000
00000000
00000000
00000000
01000000
00000000
00000000
00000000
01000000
00000000
00000000
00001000
00000000
00000000
00010000
00000000
00000000
00001000
00000000
00000000
00010000
00000000
00000000
,
00020200
00000000
00030300
00011000
,
01000000
00000000
00000000
00000000
00000000
01000000
00000000
00000000
00000000
00010000
00000000
00000000
00100000
00000000
00000000
00010000
00000000
00000000
10000000
00000000
00000000
00100000
00000000
00000000
,
01000000
00000000
00000000
00000000
00000000
01000000
00000000
00000000
00000000
00001000
00000000
00000000
00010000
00000000
00000000
00000010
00000000
00000000
00010000
00000000
00000000
00001000
00000000
00000000
,
00000100
00000000
00000000
00000000
00000000
00000100
00000000
00000000
00000000
00000100
00000000
00000000
00000001
00000000
00000000
00000010
00000000
00000000
00001000
00000000
00000000
00010000
00000000
00000000
,
00000100
00000000
00010000
00001000
00000010
00000001
00001000
00000010
,
00000100
00000000
00000000
00000000
00000000
00000100
00000000
00000000
00000000
00000001
00000000
00000000
00000010
00000000
00000000
00001000
00000000
00000000
00010000
00000000
00000000
00100000
00000000
00000000
,
01000000
00000000
00000000
00000000
00000000
01010000
00000000
00000000
00000000
10000000
00000000
00000000
00100000
00000000
00000000
00010000
00000000
00000000
00001000
00000000
00000000
00010000
00000000
00000000
,
00000100
00000000
00001000
00000000
00000010
00001000
00000001
00000010
,
00000100
00000000
00001000
00000010
00010000
00001000
00100000
00010000
,
10000000
00100000
00010000
00001000
00010000
00000010
00001000
00000000
,
00000001
00000010
00001000
00010000
00001000
00100000
00010000
10000000
,
00010000
10000000
00100000
00010000
00001000
00010000
00000010
00001000
,
00000100
00010000
00001000
00000010
,
00001000
00010000
00000010
00010000
,
00002000
00003000
00020000
00030000
,
00001000
00010000
00100000
10000000
,
02000000
03000000
00000000
00000000
,
00000000
00000000
00000000
00000000
;
#NOTES:
     dance-double:
     :
     Hard:
     13:
     :
00000000
00000000
00000000
00000000
,
00000000
00000000
00000000
00000000
,
00000000
00000000
00000000
00000000
,
00000000
00000000
00000000
00000000
,
00000000
00000000
00000000
00000000
,
00000000
00000000
00000000
00000000
,
01000000
00000000
00000000
00000000
00000000
01000000
00000000
00000000
00000000
00001000
00000000
00000000
00010000
00000000
00000000
00001000
00000000
00000000
00000000
00000000
00000000
00100000
00000000
00000000
,
01000000
00000000
00000000
00000000
00000000
01000000
00000000
00000000
00000000
10000000
00000000
00000000
00100000
00000000
00000000
00010000
00000000
00000000
00001000
00000000
00000000
00000000
00000000
00000000
,
00000100
00000000
00000000
00000000
00000000
00000101
00000000
00000000
00000000
00000001
00000000
00000000
00001000
00000000
00000000
00000001
00000000
00000000
00000000
00000000
00000000
00000001
00000000
00000000
,
00000101
00000000
00000000
00000000
00000000
00010100
00000000
00000000
00000000
01010000
00000000
00000000
00001000
00000000
00000000
00010000
00000000
00000000
00001000
00000000
00000000
00100000
00000000
00000000
,
01000000
00000000
10000000
00100000
00010000
00001000
00000000
00001000
,
00010100
00000000
00000000
00000000
00000000
00000110
00000000
00000000
00000000
00000010
00000000
00000000
00001000
00000000
00000000
00010000
00000000
00000000
00001000
00000000
00000000
00000000
00000000
00000000
,
01010000
00000000
00000000
00000000
00000000
00010100
00000000
00000000
00000000
00010000
00000000
00000000
00001000
00000000
00000000
00100000
00000000
00000000
00000000
00000000
00000000
00010000
00000000
00000000
,
01010000
00000000
10010000
00000000
00010000
00100000
00001000
00010000
,
00020100
00000100
01000000
01000000
,
00000100
00000100
01000000
01000000
,
00000100
01000000
00000100
01030000
,
00000200
00000000
00000300
00011000
,
00010000
00000000
00000010
00001000
00000000
00000000
00000001
00000000
00000000
00000010
00000000
00000000
00000001
00000000
00001000
00000010
00000000
00000000
00010000
00000000
00000000
00000010
00000000
00000000
,
00001000
00000000
00000001
00000010
00000000
00000000
00000001
00000000
00000000
00001000
00000000
00000000
00000010
00000000
00010000
00001000
00000000
00000000
00010000
00000000
00000000
00011000
00000000
00000000
,
00001000
00000000
00100000
00010000
00000000
00000000
10000000
00000000
00000000
00100000
00000000
00000000
10000000
00000000
00010000
00100000
00000000
00000000
00001000
00000000
00000000
00100000
00000000
00000000
,
00010000
00000000
10000000
00100000
00000000
00000000
10000000
00000000
00000000
00010000
00000000
00000000
00100000
00000000
00000000
00001000
00000000
00000000
00010000
00000000
00000000
00100000
00000000
00000000
,
01000000
00000000
00010000
10000000
00000000
00000000
10100000
00000000
00000000
00010000
00000000
00000000
00100000
00000000
00001000
00010000
00000000
00000000
00000010
00000000
00000000
00010000
00000000
00000000
,
00001000
00000000
00000010
00000001
00000000
00000000
00001000
00000000
00000000
00000010
00000000
00000000
00001000
00000000
00000001
00000010
00000000
00000000
00000001
00000000
00000000
00001001
00000000
00000000
,
00001000
00000000
00000010
00001000
00000000
00000000
00000001
00000000
00000000
00001000
00000000
00000000
00000010
00000000
00010000
00001000
00000000
00000000
00100000
00000000
00000000
00001000
00000000
00000000
,
00010000
00000000
00100000
10000000
00000000
00000000
00010000
00000000
00000000
00100000
00000000
00000000
00001000
00000000
00000000
00010000
00000000
00000000
00001000
00000000
00000000
00000010
00000000
00000000
,
00000100
00020000
00001000
00030020
00001000
00020030
00001000
00030020
,
00000100
00000000
00000000
00002030
00000000
00000100
00000000
00000000
00000000
00003001
00000000
00000000
00000010
00000000
00000001
00001000
00000000
00000000
00000010
00000000
00010000
00001000
00000000
00000000
,
01000000
00000000
00000000
00020000
00000000
01000000
00000000
00000000
00000000
00230000
00000000
00000000
00001000
00000000
00000000
00320000
00000000
00000000
10000000
00000000
00000000
00230000
00000000
00000000
,
01000000
00000000
00000000
00310000
00000000
01000000
00000000
00000000
00001000
01000000
00000000
00000000
00010000
00000000
00000000
00100000
00000000
00000000
00001000
00000000
00000000
00010000
00000000
00000000
,
01001000
00002000
00010000
00203000
00010000
00302000
00010000
00203000
,
01000000
00000000
00000000
00320000
00000000
01000000
00000000
00000000
00000000
10030000
00000000
00000000
00100000
00000000
10000000
00010000
00000000
00000000
00100000
00000000
00001000
00010000
00000000
00000000
,
00000100
00000000
00000000
00002000
00000000
00000100
00000000
00000000
00000000
00003020
00000000
00000000
00010000
00000000
00000000
00002030
00000000
00000000
00000001
00000000
00000000
00003020
00000000
00000000
,
00000130
00000001
00000010
00001000
00010000
00100000
10000000
00010000
,
02010000
00000000
00000000
03000000
00000000
00000000
00010000
00000000
00010000
00100000
00000000
00000000
00001000
00000000
00000000
00010000
00000000
00000000
00000000
00000000
00000000
00000010
00000000
00000000
,
00001000
00000000
00000000
00000000
00000000
00000000
00000001
00000000
00000010
00000001
00000000
00000010
00000000
00000000
00001000
00000000
00000000
00100000
00000000
00000000
00000000
00010000
00000000
00000000
,
20000000
00000000
00000000
30000000
00000000
00000000
00100000
00000000
10000000
00010000
00000000
00000000
00100000
00000000
00000000
00001000
00000000
00000000
00000000
00000000
00000000
00000010
00000000
00000000
,
00000001
00000000
00001000
00000000
00000010
00010000
00001000
00000010
,
00000100
00010000
00000000
00010000
00001000
00010000
00000000
00010000
,
01000000
00000000
00000000
00010000
00000000
00000100
00000000
00000000
00000000
00010000
00000000
00000000
00001000
00000000
00000000
00010000
00000000
00000000
00100000
00000000
00000000
00010000
00000000
00000000
,
00000100
00000000
00000000
00010000
00000000
01000000
00000000
00000000
00000000
00010000
00000000
00000000
00000010
00000000
00000000
00010000
00000000
00000000
00000000
00000000
00000000
00010000
00000000
00000000
,
01000000
00000000
00000000
00010000
00000000
00000100
00000000
00000000
00000000
00010100
00000000
00000000
00010000
00000000
00000000
00001000
00000000
00000000
00000010
00000000
00000000
00000001
00000000
00000000
,
00000202
00000003
00000300
00001001
,
00001100
00010000
01001000
00002000
00010000
00203000
00010000
00302000
,
01000000
00000000
00000000
00203000
00000000
01000000
00000000
00000000
00000000
00320000
00000000
00000000
10000000
00000000
00000000
00230000
00000000
00000000
00001000
00000000
00000000
00320000
00000000
00000000
,
01000000
00000000
00000000
00230000
00000000
01000000
00000000
00000000
00000000
01300000
00000000
00000000
10000000
00000000
00100000
00010000
00000000
00000000
00000010
00000000
00000000
00001000
00000000
00000000
,
00000200
00000010
00020300
00001000
00030020
00000001
00002030
00000001
,
00003200
00000000
00000000
00020300
00000000
01000000
00000000
00000000
00000000
00032000
00000000
00000000
00000010
00000000
00000000
00203000
00000000
00000000
10000000
00000000
00000000
00302000
00000000
00000000
,
01000000
00000000
00000000
00023000
00000000
00000100
00000000
00000000
00000000
00032000
00000000
00000000
00000010
00000000
00000000
00023000
00000000
00000000
00000010
00000000
00000000
00032000
00000000
00000000
,
01003000
00000000
00100000
00000000
10000000
00100000
00010000
00001000
,
00000100
00000000
00000000
00000000
00000000
00000000
00000001
00000000
00000000
00000010
00000000
00000000
00000001
00000000
00001000
00000010
00000000
00000000
00010000
00000000
00001000
00100000
00000000
00000000
,
00010000
00000000
10000000
00100000
00000000
00000000
10000000
00000000
00010000
00100000
00000000
00000000
00010000
00000000
10000000
00100000
00000000
00000000
00010000
00000000
00000000
00011000
00000000
00000000
,
00001000
00000000
00010000
00000010
00000000
00000000
00001000
00000000
00000001
00000010
00000000
00000000
00001000
00000000
00010000
00001000
00000000
00000000
00010000
00000000
00100000
10000000
00000000
00000000
,
00010000
00000000
10000000
00100000
00000000
00000000
00010000
00000000
00000010
00001000
00000000
00000000
00000001
00000000
00000010
00001000
00000000
00000000
00100000
00000000
00010000
10000000
00000000
00000000
,
01000000
00100000
00002000
00000000
00003010
00001000
00020000
00000000
,
00130000
00010000
00002000
00000000
00013000
00000010
00001000
00001001
,
00000001
00000010
00001000
00100000
00010000
10000000
00100000
00010000
,
00000010
00001000
00000001
00000010
00001000
00100000
00010000
00000010
,
00000200
00000300
00000000
00000000
,
00000000
00000000
00000000
00000000
;
