
//----- song ID: comi -----//
#TITLE:カラフルミニッツ;
#ARTIST:Qrispy Joybox feat.mao;
#TITLETRANSLIT:Colorful minutes;
#BANNER:Colorful minutes.png;
#BACKGROUND:Colorful minutes-bg.png;
#CDTITLE:./CDTitles/REFLEC BEAT.png;
#MUSIC:Colorful minutes.ogg;
#SAMPLESTART:55.263;
#SAMPLELENGTH:15;
#BPMS:0=152;
#STAGE:16;
#NOTES:
     dance-single:
     :
     Beginner:
     1:
     :
0000
0000
0000
0000
,
0000
0000
0000
0000
,
0000
0000
0000
0000
,
0000
0000
0000
0000
,
0000
0000
0000
0000
,
0000
0000
0000
0000
,
0000
0000
0000
0000
,
0000
0000
0000
0000
,
0000
0000
0000
0000
,
1000
0000
0000
0000
,
1000
0000
0000
0000
,
0001
0000
0000
0000
,
0001
0000
0000
0000
,
1000
0000
0000
0000
,
0001
0000
0000
0000
,
1000
0000
0000
0000
,
0001
0000
0000
0000
,
0100
0000
0000
0000
,
0000
0000
0000
0000
,
1000
0000
0000
0000
,
0001
0000
0000
0000
,
1000
0000
0000
0000
,
0001
0000
0000
0000
,
0001
0000
0000
0000
,
1000
0000
0000
0000
,
0001
0000
0000
0000
,
1000
0000
0000
0000
,
0002
0000
0003
0000
,
0000
0000
0000
0000
,
2000
0000
3000
0000
,
0000
0000
0000
0000
,
0100
0000
0000
0000
,
0100
0000
0000
0000
,
0100
0000
0000
0000
,
0100
0000
0000
0000
,
1000
0000
1000
0000
,
1000
0000
0000
0000
,
0001
0000
0001
0000
,
0001
0000
0000
0000
,
1000
0000
1000
0000
,
0001
0000
0000
0000
,
0001
0000
0001
0000
,
1000
0000
0000
0000
,
1000
0000
0001
0000
,
1000
0000
0000
0000
,
0001
0000
1000
0000
,
0001
0000
0000
0000
,
0100
0000
0100
0000
,
0100
0000
0000
0000
,
0010
0000
0010
0000
,
0010
0000
0000
0000
,
1000
0000
0000
0000
,
0001
0000
0000
0000
,
0100
0000
0000
0000
,
0010
0000
0000
0000
,
0001
0000
1000
0000
,
0100
0000
0000
0000
,
1000
0000
0001
0000
,
0100
0000
0000
0000
,
0000
0000
0000
0000
;
#NOTES:
     dance-single:
     :
     Easy:
     4:
     :
0000
0000
0000
0000
,
0000
0000
0000
0000
,
0000
0000
0000
0000
,
0000
0000
0000
0000
,
0000
0000
0000
0000
,
1000
0000
0000
0000
,
0001
0000
0000
0000
,
0001
0000
0000
0000
,
1000
0000
0000
0000
,
0010
0000
0010
0000
,
0100
0000
0000
0000
,
0001
0000
1000
0000
,
0001
0000
0000
0000
,
0100
0000
0100
0000
,
0010
0000
0000
0000
,
1000
0000
0001
0000
,
1000
0000
0000
0000
,
0010
0000
0100
0000
,
0220
0000
0330
0000
,
0001
0000
0100
0000
,
0001
0000
0000
0000
,
1000
0000
0010
0000
,
1000
0000
0000
0000
,
0001
0000
0010
0000
,
0100
0000
0000
0000
,
1000
0000
0100
0000
,
0010
0000
0000
0000
,
0002
0000
0003
0000
,
0001
0000
0000
0000
,
2000
0000
3000
0000
,
1000
0000
0000
0000
,
1000
0000
0100
0000
,
0001
0000
0100
0000
,
1000
0000
0001
0000
,
1001
0000
0000
0000
,
0001
0000
0100
0000
,
0001
0000
1000
0000
,
0100
0000
0010
0000
,
0100
0100
0100
0000
,
1000
0000
0001
0000
,
1000
0000
0001
0000
,
0010
0000
0100
0000
,
0010
0100
0010
0000
,
0001
0100
0001
0000
,
1000
0000
0100
0000
,
1000
0010
1000
0000
,
0010
0000
1000
0000
,
0001
0010
0001
0010
,
0100
1000
0100
1000
,
0010
0000
0100
0000
,
0110
0000
0000
0000
,
1000
0000
0010
0000
,
0100
0000
0000
0000
,
0001
0000
0010
0000
,
0100
0000
0000
0000
,
1000
0000
0100
0000
,
0001
0000
0100
0000
,
1000
0001
1000
0002
,
0000
0000
0000
0000
,
0003
0000
0000
0000
,
0000
0000
0000
0000
;
#NOTES:
     dance-single:
     :
     Medium:
     7:
     :
0000
0000
0000
0000
,
0000
0000
0000
0000
,
0000
0000
0000
0000
,
0000
0000
0000
0000
,
0000
0000
0000
0000
,
0001
0000
0000
0100
0000
0000
0010
0000
,
0000
2000
0000
0000
0000
3000
0000
0000
,
0001
0000
0000
1000
0000
0000
0200
0000
,
0000
0000
0000
0300
,
0010
0000
0001
0000
0010
0001
0100
0000
,
0010
1000
0001
0000
,
0100
0000
0001
0000
0100
0001
0010
0000
,
0100
0010
1001
0000
,
1000
0000
0001
0000
1000
0010
1000
0000
,
0001
0100
0010
1000
,
0100
0000
0000
0010
0000
0000
0001
1000
,
0000
0100
0110
0000
,
0001
0001
0000
1000
1000
0000
0010
0020
,
0000
0000
0000
0030
,
0100
0010
1000
0000
,
0001
0100
0010
0000
,
1000
0100
0001
0100
,
2000
0000
0001
3001
,
0010
0001
1000
0000
,
0010
1000
0001
1001
,
1000
0010
0100
0001
,
1000
0001
0110
0000
,
0002
0000
1003
0000
,
0200
0000
0310
0000
,
0100
0100
1000
0002
,
0000
0000
0003
1001
,
1000
0001
0100
0000
,
0001
1000
0010
0000
,
1000
1100
0001
0101
,
1000
0001
1001
0000
,
1000
0000
0100
0000
1000
0010
0100
0000
,
0001
0100
0010
0000
,
0100
0000
0001
0000
1000
0100
0010
0000
,
0100
1000
1001
0000
,
1000
0000
0001
0000
0010
0001
1000
0000
,
0100
0010
0100
0000
,
0010
0000
0000
0001
0000
0000
0100
0010
,
0000
1000
2000
3000
,
0010
1000
0100
0001
,
0100
1000
0001
0000
,
0010
0001
0100
1000
,
0100
0100
0100
0000
,
0001
0001
0100
0100
,
0010
0010
1000
0000
,
0001
0000
0000
0010
0000
0000
0100
1000
,
0001
0001
1000
1000
,
0100
0100
0000
0010
0010
0000
0001
0001
,
0000
1000
1000
0000
0010
0000
0100
0000
,
0010
0010
0000
0100
0100
0000
0001
0002
,
0000
0003
0010
0010
,
0001
0001
0000
0100
0100
0000
0010
0010
,
0000
1000
1000
0000
0100
0000
1000
0000
,
0001
0000
0010
0000
0100
0000
0010
0200
,
0000
0000
0000
0000
,
0300
0000
0000
0000
,
0000
0000
0000
0000
;
#NOTES:
     dance-single:
     :
     Hard:
     11:
     :
0000
0000
0000
0000
,
0000
0000
0000
0000
,
0000
0000
0000
0000
,
0000
0000
0000
0000
,
0000
0000
0000
0000
,
0001
0100
0001
0000
1000
0100
1000
0010
,
0000
0010
0100
0000
0010
0000
0100
0100
,
0010
1000
1000
0000
0001
1000
0001
2000
,
0000
0000
0100
3100
,
1100
0000
0101
0000
0001
1000
0001
0100
,
0000
0001
0001
0100
0000
0010
0100
0010
,
1000
0000
1000
0000
0100
1000
0100
1000
,
0001
1000
0100
1000
0010
0100
0010
0000
,
0101
0000
1100
0000
1000
0001
1000
0100
,
0000
1000
1000
0100
0000
0010
0100
0010
,
0002
0000
0003
0200
0000
0000
0010
0310
,
0000
0000
0100
0010
1000
0001
0000
0000
,
1001
1001
0000
1100
1100
0000
0110
0220
,
0000
0000
0000
0330
,
0000
0001
1000
0100
1000
0001
0100
0010
,
0000
1000
0000
0001
0000
0100
0100
0001
,
0000
1000
0010
0100
0001
1000
0001
0200
,
0000
0000
0000
0000
0300
0010
1000
0001
,
0000
1000
0100
0010
0001
0010
0000
0001
,
0100
0010
1000
0100
0000
1000
0100
0010
,
0000
0001
0100
0010
0010
1000
0100
0010
,
0000
0001
1000
0001
0100
0000
0110
0000
,
0200
0000
0310
0000
1000
0001
1000
0002
,
0000
0010
0013
0000
0000
0001
0010
0100
,
2000
0000
3001
0010
0000
0001
0200
0000
,
0010
0000
1000
0000
0301
1000
0010
1000
,
0001
0010
0100
1000
0000
0001
0010
0001
,
0001
0100
0001
0100
0000
0010
1000
0010
,
1000
0100
0010
0001
1000
0100
0010
0001
,
1000
0010
0100
0001
2000
0000
3000
0000
,
1010
0000
0101
0000
1000
0001
0100
0010
,
0000
1000
0100
0010
0000
0001
0100
0010
,
1000
0000
1000
0000
0010
0100
0010
1000
,
0000
0001
0100
0001
0010
0000
0011
0000
,
0101
0000
1010
0000
0010
1000
0001
0100
,
0000
0001
1000
0010
0000
1000
0010
0100
,
0002
0000
0003
2000
0000
0000
0100
3100
,
0000
0000
1000
0010
0100
0001
0000
0000
,
1000
0100
1000
0100
0010
0001
0000
0011
,
0000
1001
0000
1100
0000
1001
0000
0101
,
0000
0100
0001
0010
0100
1000
0000
1001
,
0000
0110
0000
2002
0000
0000
3003
0000
,
0001
0100
0001
1000
0000
0010
1000
0001
,
0000
1000
0001
0100
0000
1001
0000
0000
,
2000
0000
0000
3002
0000
0000
1003
0100
,
0001
0000
0100
0000
0110
0000
0010
0100
,
0110
0110
0000
1100
1100
0000
0101
0101
,
0000
0001
1000
0100
0010
0001
1000
0100
,
1100
1100
0000
0011
0011
0000
1001
2002
,
0000
3003
0110
1001
,
1010
1010
0000
1100
1100
0000
1001
1001
,
0000
1000
0010
0100
0001
1000
0100
0010
,
0000
0001
1000
0001
0010
0010
0100
2000
,
0000
0000
0000
0000
,
3000
0000
0000
0000
,
0000
0000
0000
0000
;
#NOTES:
     dance-double:
     :
     Easy:
     4:
     :
00000000
00000000
00000000
00000000
,
00000000
00000000
00000000
00000000
,
00000000
00000000
00000000
00000000
,
00000000
00000000
00000000
00000000
,
00000000
00000000
00000000
00000000
,
00010000
00000000
00000000
00000000
,
00001000
00000000
00000000
00000000
,
00010000
00000000
00000000
00000000
,
00000100
00000000
00000000
00000000
,
00001000
00000000
00000001
00000000
,
00001000
00000000
00000000
00000000
,
00000100
00000000
00010000
00000000
,
00001000
00000000
00000000
00000000
,
01000000
00000000
00010000
00000000
,
01000000
00000000
00000000
00000000
,
00100000
00000000
10000000
00000000
,
00010000
00000000
00000000
00000000
,
00100000
00000000
00001000
00000000
,
00022000
00000000
00033000
00000000
,
00010000
00000000
00000010
00000000
,
00001000
00000000
00000000
00000000
,
00000001
00000000
00000100
00000000
,
00000001
00000000
00000000
00000000
,
00000010
00000000
00000100
00000000
,
00001000
00000000
00000000
00000000
,
00000100
00000000
00010000
00000000
,
00001000
00000000
00000000
00000000
,
02000000
00000000
03000000
00000000
,
00010000
00000000
00000000
00000000
,
20000000
00000000
30000000
00000000
,
00010000
00000000
00000000
00000000
,
10000000
00000000
01000000
00000000
,
00010000
00000000
00001000
00000000
,
00000010
00000000
00000001
00000000
,
00001000
00000000
00000000
00000000
,
00000010
00000000
00001000
00000000
,
00000010
00000000
00000000
00000000
,
00010000
00000000
00001000
00000000
,
00010000
00010000
00010000
00000000
,
00001000
00000000
00100000
00000000
,
00010000
00000000
00000000
00000000
,
10000000
00000000
00100000
00000000
,
01000000
00100000
01000000
00000000
,
00010000
00100000
00001000
00000000
,
00010000
00000000
00001000
00000000
,
00010000
00000010
00001000
00000000
,
00000001
00000000
00001000
00000000
,
00000100
00001000
00000100
00010000
,
00001000
01000000
00010000
00000000
,
10000000
00000000
00010000
00000000
,
10010000
00000000
00000000
00000000
,
10000000
00000000
00100000
00000000
,
00010000
00000000
00000000
00000000
,
00001000
00000000
00000100
00000000
,
00000001
00000000
00000000
00000000
,
00000001
00000000
00000010
00000000
,
00001000
00000000
00010000
00000000
,
01000000
00000000
10000000
00020000
,
00000000
00000000
00000000
00000000
,
00030000
00000000
00000000
00000000
,
00000000
00000000
00000000
00000000
;
#NOTES:
     dance-double:
     :
     Medium:
     7:
     :
00000000
00000000
00000000
00000000
,
00000000
00000000
00000000
00000000
,
00000000
00000000
00000000
00000000
,
00000000
00000000
00000000
00000000
,
00000000
00000000
00000000
00000000
,
10000000
00000000
00000000
01000000
00000000
00000000
00010000
00000000
,
00000000
00002000
00000000
00000000
00000000
00003000
00000000
00000000
,
00010000
00000000
00000000
00001000
00000000
00000000
00020000
00000000
,
00000000
00000000
00000000
00030000
,
00001000
00010000
00000100
00000100
,
00000010
00000100
00001000
00000000
,
00000001
00000100
00000010
00001000
,
00000100
00010000
00001000
00000000
,
00010000
00001000
00100000
00010000
,
01000000
00100000
01000000
00000000
,
00100000
00000000
00000000
10000000
00000000
00000000
01000000
00010000
,
00000000
00001000
00011000
00000000
,
00010000
00010000
00000000
00000100
00000100
00000000
00001000
00002000
,
00000000
00000000
00000000
00003000
,
00000010
00000000
00000010
00000000
,
00000100
00001000
00010000
00000000
,
00001000
00010000
00001000
00100000
,
00020000
00000000
01000000
01030000
,
00100000
00000000
00100000
00000000
,
10000000
01000000
00010000
00001000
,
00000100
00000000
00000001
00000000
,
00000100
00001000
00010000
01000000
,
20000000
00000000
30010000
00000000
,
00020000
00000000
01030000
00000000
,
00001000
00001000
00010000
00000200
,
00000000
00000000
00000300
00001000
,
00000001
00000100
00001000
00000000
,
00010000
00100000
10000000
00000000
,
00010000
10000000
01000000
00010000
,
00002000
00000000
00003000
00000000
,
00010000
00000100
00010000
00001000
,
00000100
00000010
00000100
00000000
,
00000001
00000001
00001000
00000100
,
00010000
00000100
00002000
00003000
,
00000001
00000100
00001000
00010000
,
00001000
00100000
01000000
00000000
,
01000000
00000000
00000000
10000000
00000000
00000000
01000000
00100000
,
00000000
00010000
00002000
00003000
,
00000100
00000010
00000001
00000100
,
00001000
00010000
00001000
00000000
,
00010000
00100000
00010000
00100000
,
10000000
01000000
00100000
00000000
,
00010000
00000000
10000000
00000000
,
00010000
01000000
00001000
00010000
,
00000100
00000000
00000000
00000010
00000000
00000000
00000001
00000000
,
00001000
00000100
00010000
00010000
,
00001000
00001000
00000000
00100000
00100000
00000000
00010000
00010000
,
00000000
01000000
02000000
00000000
00000000
00000000
03000000
00000000
,
00010000
00010000
00000000
00100000
00100000
00000000
00001000
00002000
,
00000000
00003000
00010000
00010000
,
00000100
00000100
00000000
00001000
00001000
00000000
00000001
00000001
,
00000000
00000100
00000100
00000000
00001000
00000000
00010000
00000000
,
00100000
00000000
01000000
00000000
00100000
00000000
10000000
02000000
,
00000000
00000000
00000000
00000000
,
03000000
00000000
00000000
00000000
,
00000000
00000000
00000000
00000000
;
#NOTES:
     dance-double:
     :
     Hard:
     11:
     :
00000000
00000000
00000000
00000000
,
00000000
00000000
00000000
00000000
,
00000000
00000000
00000000
00000000
,
00000000
00000000
00000000
00000000
,
00000000
00000000
00000000
00000000
,
10000000
01000000
00100000
00000000
00010000
00100000
00001000
00010000
,
00000000
00010000
00000100
00000000
00001000
00000000
00000010
00000010
,
00000100
00000001
00001000
00000000
00000100
00010000
00000100
00020000
,
00000000
00000000
00001000
00031000
,
00010000
00000000
00000100
00000000
00001000
00000100
00000010
00000100
,
00000000
00001000
00000100
00010000
00000000
00001000
00100000
00010000
,
00100000
00000000
01000000
00000000
10000000
00100000
01000000
00010000
,
00100000
00001000
00010000
00000100
00001000
00000000
00001100
00000000
,
00000001
00000000
00001000
00000000
00000001
00000100
00000010
00000100
,
00000000
00000010
00000010
00001000
00000000
00000100
00010000
00001000
,
00020000
00000000
00030000
00000200
00000000
00000000
00010000
00010300
,
00000000
00000000
00001000
00001000
00010000
01000000
00000000
00000000
,
10010000
10010000
00000000
00110000
00110000
00000000
00101000
00202000
,
00000000
00000000
00000000
00303000
,
00000000
00100000
00001000
00010000
00000100
00001000
00000100
00001000
,
00000000
00000001
00000000
00000100
00000000
00000001
00000001
00001000
,
00000000
00000010
00001000
00000100
00010000
00001000
00100000
00002000
,
00000000
00000000
00000000
00000000
00003000
00010000
00001000
01000000
,
00000000
00100000
10000000
01000000
00100000
00010000
00000000
01000000
,
00010000
01000000
00100000
00010000
00000000
00001000
00100000
00001000
,
00000000
00010000
00000100
00001000
00000010
00000010
00001000
00000001
,
00000000
00000100
00000010
00000100
00000001
00000000
00000101
00000000
,
00000002
00000000
00000103
00000000
00001000
00010000
01000000
10000000
,
00000000
01000000
00010000
00000000
00000000
00001000
00100000
00010000
,
00100000
00000000
00001000
00010000
00000000
00000100
00002000
00000000
,
00000000
00000000
00000000
00000000
00003000
00000001
00000010
00000001
,
00001000
00000000
00000010
00001000
00000000
00000100
00010000
00001000
,
00001000
00100000
00010000
01000000
00000000
00100000
10000000
00010000
,
01000000
00010000
00100000
00001000
00010000
00000100
00001000
00000100
,
00000010
00000001
00000100
00000001
00002000
00000000
00003000
00000000
,
00001100
00000000
00010100
00000000
00000100
00010000
00001000
00100000
,
00000000
00010000
01000000
00010000
00000000
00100000
01000000
10000000
,
00100000
00000000
00100000
00000000
01000000
00010000
00100000
00001000
,
00000000
00010000
00000100
00001000
00000010
00000000
00001001
00000000
,
00000101
00000000
00001010
00000000
00000001
00001000
00000100
00010000
,
00000000
00001000
00010000
01000000
00000000
00100000
00010000
00100000
,
02000000
00000000
03000000
20000000
00000000
00000000
00010000
30010000
,
00000000
00000000
00100000
00010000
00100000
00001000
00000000
00000000
,
00010000
00000100
00010000
00000100
00001000
00000001
00000000
00000010
,
00000000
00000100
00000000
00001000
00000000
00010000
00000000
00100000
,
00000000
00010000
10000000
01000000
00100000
00010000
00000000
00001000
,
00000000
00000100
00000000
00000020
00000000
00000000
00000030
00000000
,
00000001
00001000
00000010
00001000
00000000
00000100
00010000
00001000
,
00000000
01000000
00001000
00010000
00000000
00011000
00000000
00000000
,
00020000
00000000
00000000
00032000
00000000
00000000
01003000
00100000
,
01000000
00000000
00100000
00000000
10010000
00000000
00010000
01000000
,
01010000
01010000
00000000
00110000
00110000
00000000
00101000
00101000
,
00000000
00001000
00020000
00000000
00100000
00000000
00031000
00000000
,
00011000
00011000
00000000
00001100
00001100
00000000
00001010
00002020
,
00000000
00003030
00000110
00001001
,
00000101
00000101
00000000
00001010
00001010
00000000
00010100
00010100
,
00000000
00010000
00000100
00001000
00000100
00010000
00001000
00100000
,
00000000
00010000
01000000
00010000
00100000
00001000
00010000
02000000
,
00000000
00000000
00000000
00000000
,
03000000
00000000
00000000
00000000
,
00000000
00000000
00000000
00000000
;
