
//----- song ID: ckpp2 -----//
#TITLE:ちくわパフェだよ☆CKP (Yvya Remix);
#ARTIST:Remixed by BEMANI Sound Team "Yvya";
#TITLETRANSLIT:Chikuwa parfait da yo☆CKP (Yvya Remix);
#BANNER:Chikuwa parfait da yo CKP (Yvya Remix).png;
#BACKGROUND:Chikuwa parfait da yo CKP (Yvya Remix)-bg.png;
#CDTITLE:./CDTitles/DDR A3.png;
#MUSIC:Chikuwa parfait da yo CKP (Yvya Remix).ogg;
#SAMPLESTART:76.666;
#SAMPLELENGTH:15;
#BPMS:0=205;
#BGSTAGE:14;
#NOTES:
     dance-single:
     :
     Beginner:
     4:
     :
0000
0000
0000
0000
,
0000
0000
0000
0000
,
0000
0000
0000
0000
,
0000
0000
0000
0000
,
0000
0000
0000
0000
,
0000
0000
0000
0000
,
0000
0000
0000
0000
,
0001
0000
0000
1000
,
0000
0000
0001
0000
,
0000
1000
0000
0000
,
0010
0000
0000
0100
,
0000
0000
0010
0000
,
0000
1001
0000
0000
,
1000
0000
0000
0000
,
1000
0000
0000
0000
,
0001
0000
0000
0000
,
0001
0000
0000
0000
,
0100
0000
0000
0000
,
0010
0000
0000
0000
,
0200
0000
0300
0000
,
0020
0000
0030
0000
,
1000
0000
0000
0000
,
1000
0000
0000
0000
,
1000
0000
0000
0000
,
0001
0000
0000
0000
,
0010
0000
0100
0000
,
0010
0000
0000
0000
,
0001
0000
1000
0000
,
0001
0000
0000
0000
,
0100
0000
0000
0000
,
0100
0000
0000
0000
,
0100
0000
0000
0000
,
0010
0000
0000
0000
,
1000
0000
0001
0000
,
1000
0000
0000
0000
,
2002
0000
0000
0000
,
3003
0000
0010
0000
,
0000
0000
0100
0000
,
0000
0000
0001
0000
,
0000
0000
1000
0000
,
0000
0001
0000
0000
,
0000
1000
0000
0000
,
0000
0100
0000
0000
,
0000
0010
0000
0000
,
0000
0000
0000
0000
,
0000
0000
0002
0000
,
0000
0003
0000
2000
,
0000
0000
3000
0000
,
0002
0000
0000
0003
,
0000
2000
0000
0000
,
3000
0000
0010
0000
,
0000
0100
0000
0000
,
0000
0010
0000
0000
0000
0000
0000
0000
,
0000
0100
0000
0000
0000
0000
0000
0000
,
0000
0001
0000
0000
,
0000
0000
2000
0000
,
0000
0000
0000
0000
,
0000
0000
0000
0000
,
0000
0000
0000
0000
,
0000
0000
0000
0000
,
0000
0000
0000
0000
,
0000
0000
3000
0000
,
1000
0000
0000
0000
,
0010
0000
0000
0000
,
1000
0000
0001
0000
,
1001
0000
0000
0000
,
0001
0000
0000
0000
,
0001
0000
0000
0000
,
1000
0000
0000
0000
,
1000
0000
0000
0000
,
0001
0000
0000
0000
,
0100
0000
0000
0000
,
0001
0000
0001
0000
,
0001
0000
0000
0000
,
1000
0000
0000
0000
,
1000
0000
0000
0000
,
0001
0000
0000
0000
,
0001
0000
0000
0000
,
1000
0000
0000
0000
,
0001
0000
0000
0000
,
0200
0000
0000
0000
,
0300
0000
0000
0000
,
0020
0000
0000
0000
,
0030
0000
0000
0000
,
2000
0000
3000
0000
,
0002
0000
0003
0000
,
0200
0000
0300
0000
,
0020
0000
0030
0000
,
1000
0000
0000
0001
,
0000
0000
1000
0000
,
0000
0001
0000
0000
,
0100
0000
0000
0010
,
0000
0000
0100
0000
,
0000
1001
0000
0000
,
0001
0000
0000
0000
,
1000
0000
0000
0000
,
0002
0000
0000
0000
,
0000
0000
0000
0000
,
0003
0000
0000
0000
,
0000
0000
0000
0000
;
#NOTES:
     dance-single:
     :
     Easy:
     7:
     :
0000
0000
0000
0000
,
0000
0000
0000
0000
,
0000
0000
0000
0000
,
0000
0000
0000
0000
,
0000
0000
0000
0000
,
0000
0000
0000
0000
,
0000
0000
0000
0000
,
1000
1000
1000
0001
,
0001
0001
0100
0100
,
0100
0010
0010
0010
,
1000
1000
1000
0001
,
0001
0001
0100
0010
,
0100
0001
1000
0000
,
0001
0100
0100
0100
,
0100
0001
1000
0100
,
1000
0010
0010
0010
,
0010
1000
0100
0010
,
0001
0000
1000
0000
,
0100
0000
0010
0000
,
0001
0000
0000
1000
0000
0000
0001
0000
,
2000
0000
0000
3000
,
1001
0000
0010
0000
,
0000
0000
0010
0000
,
0000
0000
0010
0000
,
0100
0000
0000
0100
0000
0000
0000
0000
,
1000
0001
1000
0000
,
0010
0100
0010
0000
,
1000
0100
0010
0000
,
0110
0000
0000
0000
,
1001
0000
0100
0000
,
0000
0000
0100
0000
,
0000
0000
0100
0000
,
0010
0000
0000
0010
0000
0000
0000
0000
,
0001
1000
0001
0000
,
0100
0010
0100
0000
,
0001
0010
0100
0000
,
0110
0000
1000
0000
,
1000
0000
0001
0000
,
1000
0000
0001
0000
,
1000
0000
0010
0000
,
0100
0000
0010
0000
,
0100
0001
0000
1000
,
0000
0001
0000
1000
,
0000
0010
0000
0100
,
0010
0000
0000
0000
,
0000
0000
2000
0000
,
0000
3010
0010
0002
,
0000
0000
0013
0010
,
2000
0000
0000
3100
,
0100
0002
0000
0000
,
0103
0000
0100
0000
2000
0000
0000
3001
,
0000
0002
0000
1003
,
0000
2000
0000
0000
0000
0000
3001
0000
,
0000
0002
0000
0000
0000
0000
0000
1003
,
0000
2000
0000
0000
,
0000
3001
0000
0000
0001
0000
0000
0000
,
0010
0000
0100
0000
,
1000
0000
0010
0000
,
0100
0000
0001
0001
,
1000
1000
0100
0010
,
0002
0000
0000
0000
,
0000
0000
0003
0000
,
0001
0000
0000
0000
,
0100
0000
0000
0000
,
0001
0000
0010
0000
,
0100
0100
0000
0000
,
1000
0010
1000
0010
,
0100
0000
0001
0000
,
1000
0001
1000
0010
,
0100
0000
0001
0000
,
0010
0100
0010
0000
,
0001
0100
0010
0000
,
1000
0000
0001
0000
,
1001
0000
0000
0000
,
0001
0100
0001
0100
,
0010
0000
1000
0000
,
0001
1000
0001
0010
,
0100
0000
1000
0100
,
0010
0000
0100
0000
,
1000
0001
2000
0000
,
0002
3003
1000
0000
,
0010
0000
0010
0000
,
0100
0000
0001
0000
,
0001
0000
1000
0000
,
0002
0000
0003
0000
,
0200
0000
0300
0000
,
0010
0000
1000
0000
,
0002
0000
0000
0003
,
1000
1000
1000
0001
,
0001
0001
0010
0010
,
0010
0100
0100
0100
,
1000
1000
1000
0001
,
0001
0001
0010
0100
,
0010
0001
1000
0000
,
1001
0000
0000
0000
,
0001
1000
0001
1000
,
0000
0001
1000
0002
0000
0000
0000
0000
,
0000
0000
0000
0000
,
0003
0000
0000
0000
,
0000
0000
0000
0000
;
#NOTES:
     dance-single:
     :
     Medium:
     10:
     :
0000
0000
0000
0000
,
0000
0000
0000
0000
,
0000
0000
0000
0000
,
0000
0000
0000
0000
,
0000
0000
0000
0000
,
0000
0000
0000
0000
,
0000
0000
0000
0000
,
0001
1000
0100
0010
,
0001
0100
0101
0101
,
0101
1100
1100
1100
,
1000
0001
0100
0010
,
1000
0100
0110
0110
,
0110
0001
1000
0000
,
0010
0000
0100
0010
0000
1000
0000
0100
,
0000
2000
0000
3001
0100
0000
0010
0000
,
1000
0000
0100
1000
0000
0020
0000
0230
,
0000
0301
0000
0010
0001
0000
0100
0000
,
0010
1000
0010
0100
,
0001
0010
1000
0010
,
0001
1000
0100
0010
,
2002
0000
0000
3003
,
0001
0010
0010
0010
,
0010
0010
0010
0010
,
0010
0010
0010
0010
,
0001
1000
0000
0100
0000
0000
1000
0000
,
0010
0000
0100
0000
0001
0000
1000
0010
,
0000
0010
0100
0000
0001
0000
0100
0000
,
0001
0010
0100
0010
,
0001
0100
0000
0010
1000
0000
0100
0000
,
1000
0010
0010
0010
,
0010
0010
0010
0010
,
0010
0010
0010
0010
,
1000
0001
0000
0100
0000
0000
0001
0000
,
0010
0000
0100
0000
1000
0000
0001
0010
,
0000
0010
0100
0000
1000
0000
0010
0000
,
1000
0000
0001
0000
0010
0100
0000
2000
,
0000
3000
0001
0100
,
0100
0010
0110
1000
,
0110
0001
1010
0100
,
0110
1010
0001
1000
,
0100
1000
0001
0100
,
0001
0110
1000
0110
,
0001
0110
0010
0101
,
1100
0010
0100
0001
,
1001
0000
0000
0000
,
0000
0000
0000
0000
1000
0000
0000
0010
,
0000
0100
1001
0001
,
0000
0010
0000
0000
0100
0000
1001
0000
,
1000
0000
0000
0010
0000
0000
0001
0000
,
0110
0000
0001
0000
0000
0100
0000
0000
,
1000
0000
0110
0000
0001
0000
1000
0001
,
0000
0000
1000
0000
0001
1000
0001
0000
,
0000
1000
0000
1000
0000
0001
1000
0000
,
0000
0001
0000
0001
0000
1000
0001
1000
,
0000
0001
0001
0001
,
1000
0001
0000
0000
2000
0000
0000
0000
,
3020
0000
0230
0000
,
0301
0000
0000
1000
0000
0000
0100
0000
,
0000
0010
0000
0000
0001
0000
1000
0000
,
0010
1000
0100
0010
,
0002
0000
0000
0000
,
0000
0000
0000
0003
,
1000
0000
0100
0010
0000
0100
1000
0000
,
0001
0000
0100
0001
0100
0000
0010
0000
,
1000
0001
0010
0100
,
1000
0001
1000
0000
0000
0000
0000
0000
,
0010
0100
0010
1000
,
0001
0000
0010
0000
0001
0010
0001
0000
,
1000
0100
1000
0000
0010
0100
0010
0000
,
0100
0001
0010
0000
0001
0000
0100
0000
,
0010
0000
1000
0100
0000
0010
0100
0000
,
1000
0000
0001
0000
0100
0000
0000
0010
,
0000
0100
0010
0000
1000
0000
0001
1000
,
0000
1001
1000
0001
,
0100
0010
0100
0001
,
1000
0000
0100
0000
1000
0100
1000
0000
,
0001
0010
0001
0000
0100
0010
0100
0000
,
0010
1000
0100
0000
1000
0000
0010
0000
,
0100
0000
0001
0010
0000
0100
0010
0000
,
0001
1000
0200
0000
,
0020
0330
0001
1000
,
0100
0001
0100
0000
,
0110
0000
1000
0001
,
0010
1000
0010
0001
,
2000
0000
3002
0000
,
0203
0000
0320
0000
,
1030
0000
0000
0001
0000
0010
0100
0000
,
0020
0000
0000
0030
,
0001
1000
0010
0100
,
0001
0010
0011
0011
,
0011
1010
1010
1010
,
1000
0001
0010
0100
,
1000
0010
0110
0110
,
0110
0001
1000
0000
,
0020
0000
0200
0330
,
0001
0000
0000
1000
0000
0100
0000
0010
,
0000
0001
1000
0002
0000
0000
0000
0000
,
0000
0000
0000
0000
,
0003
0000
0000
0000
,
0000
0000
0000
0000
;
#NOTES:
     dance-single:
     :
     Hard:
     12:
     :
0000
0000
0000
0000
,
0000
0000
0000
0000
,
0000
0000
0000
0000
,
0000
0000
0000
0000
,
0000
0000
0000
0000
,
0000
0000
0000
0000
,
0000
0000
0000
0000
,
1100
1001
1010
0101
,
1001
0011
1010
0110
,
0011
1010
0110
0011
,
0101
1001
0011
1100
,
1001
0000
1010
0000
0001
0010
0100
0010
,
1000
0010
0001
0000
1000
0000
0000
0000
,
0001
0100
0010
0100
0001
1000
0000
0100
,
0000
0020
0000
0031
0100
0010
1000
0001
,
1000
0100
0010
0100
1000
0002
0000
0203
,
0000
0310
1000
0100
1000
0001
0010
0100
,
2000
0000
0010
0000
3001
0010
0100
2000
,
0000
0000
0001
0000
3010
0100
0001
0000
,
1001
0000
0000
0110
0000
0000
1000
0001
,
2002
0000
0000
3003
,
1001
0100
0100
0100
,
0100
0100
0100
0100
,
0100
0100
0100
0100
,
0001
1000
0000
0010
0000
0000
0110
0000
,
1010
0000
1001
0000
1000
0100
0010
0100
,
0000
0010
0001
0010
0001
0010
0100
0000
,
1100
0000
1001
0000
0001
0100
0010
1000
,
0001
0100
0000
1000
0100
0000
0001
0000
,
1001
0010
0010
0010
,
0010
0010
0010
0010
,
0010
0010
0010
0010
,
1000
0001
0000
0100
0000
0000
0110
0000
,
0011
0000
1001
0000
0001
0100
0010
0100
,
0000
0110
1010
0101
,
1000
0000
0100
0000
0010
0001
0010
0200
,
0000
0300
1000
1000
,
0001
0000
0100
0000
0110
0000
0010
1000
,
0010
0000
1000
0001
1000
0000
0001
0010
,
0001
0000
0110
0000
0010
0001
0010
0000
,
1001
0001
0001
1000
,
1000
0000
0110
0000
1000
0010
1000
0000
,
0001
1000
0001
0000
0010
0100
0010
0000
,
1001
0000
0001
0100
0010
0000
1000
0100
,
0010
0000
0000
0000
,
0000
0000
0000
0000
0001
0100
0001
1000
,
0010
1000
0001
0000
1001
0000
1000
0100
,
1000
0001
0010
0001
1000
0000
1001
0000
,
0001
0100
0001
1000
0010
1000
0100
0000
,
0110
0000
1000
0010
1000
0001
0100
0001
,
0010
0000
0110
0000
0001
0100
0001
1000
,
0000
0000
0010
1000
0010
1000
0001
0000
,
0000
0100
0010
0100
0010
0100
0001
0000
,
0000
1000
0001
1000
0001
1000
0100
0010
,
0000
0000
0001
1000
0001
1000
0001
1000
,
0010
0100
0000
0000
0002
0000
0100
0000
,
0203
0010
0320
1000
,
0130
0000
0001
0010
0000
0100
1000
0000
,
0010
0100
0000
0001
0010
0000
0100
0000
,
1000
0010
0100
0001
,
2000
0000
0000
0000
,
0000
0000
0000
3000
,
0001
0000
0010
0100
0000
0010
0001
1000
,
0010
0100
0001
1000
,
0100
0010
0001
1000
,
0001
1000
0001
0000
0000
0000
0000
0000
,
1000
0000
0001
0100
0000
0010
1000
0001
,
0000
0010
0001
0000
0000
1000
0100
0010
,
0002
0000
2003
0000
3001
0100
0010
1000
,
0001
1000
0001
0000
0100
0000
0010
0100
,
0001
0000
1000
0100
0000
0010
0001
0100
,
0001
0000
0010
0000
0100
0000
0000
1000
,
0000
0010
0100
0001
1000
0000
0010
0100
,
0000
0001
0010
0000
0001
0010
0100
1000
,
0001
0000
1000
0100
0000
0010
0001
1000
,
0000
0010
1000
0000
0000
0001
0100
0010
,
2000
0000
3002
0000
1003
0100
0010
0001
,
1000
0001
1000
0000
0100
0000
0010
0100
,
1000
0000
0001
0100
0000
0010
1000
0100
,
1000
0001
0200
0000
,
0020
0330
1000
0100
,
0010
0000
0001
0010
0000
0100
0010
0000
,
0001
1000
0001
0010
,
0100
1000
0001
0100
,
0020
1030
2000
3100
,
0200
0310
0020
0031
,
1000
0010
0000
0100
0000
0001
0010
0100
,
2000
0001
0001
3001
,
1010
1001
1100
0011
,
1001
0101
1100
0110
,
0101
1100
0110
0101
,
0011
1001
0101
1010
,
1001
0000
1100
0000
0001
0100
0010
0100
,
1000
0100
0001
0000
1000
0000
0000
0000
,
0002
0000
1003
0000
0001
0010
0100
1000
,
0010
0100
0000
0001
0000
1000
0000
0100
,
0000
0010
0001
2000
0000
0000
0000
0000
,
0000
0000
0000
0000
,
3000
0000
0000
0000
,
0000
0000
0000
0000
;
#NOTES:
     dance-single:
     :
     Challenge:
     16:
     :
0000
0000
0000
0000
,
0000
0000
0000
0000
,
0000
0000
0000
0000
,
0000
0000
0000
0000
,
0000
0000
0000
0000
,
0000
0000
0000
0000
,
0000
0000
0000
0000
,
1010
0101
0110
1010
,
0101
0000
0110
0000
1000
0001
0100
0001
,
0010
0001
1000
0001
0100
0001
0010
0001
,
0011
1100
0110
0011
,
1100
0000
0000
0000
0110
0000
0000
0000
0001
0010
0001
0000
1000
0010
1000
0000
,
0010
0100
1001
0000
0001
0100
0010
0000
,
1000
0100
1000
0001
0000
0100
0000
0010
,
0000
0000
2000
0000
0000
0000
3001
0010
0001
0000
1000
0000
0100
0000
0010
0000
,
0001
0010
0001
0100
0000
0020
0000
2030
,
0000
0000
3001
0000
0010
0000
0100
0000
1000
0010
0100
0001
0100
0000
0010
0000
,
0110
0000
1000
0001
0010
0100
0010
0002
,
0000
0000
1003
0000
0010
0000
0100
0000
0001
0000
0100
0000
0010
1000
0010
0000
,
1000
0100
1000
0000
0001
0010
0001
0000
0100
0010
0100
0000
0010
1000
0010
0000
,
1000
0010
1000
0000
0001
0010
0001
0010
0100
0000
0000
0000
0000
0000
0000
0000
,
1000
0100
1000
0001
0010
0001
0100
0010
,
1000
0100
0010
0001
0100
0010
1000
0001
,
1000
0100
1000
0100
0010
0001
0010
0001
,
1000
0000
0010
0000
0000
0000
0100
0000
0000
0000
0001
0010
0001
0010
0100
1000
,
0100
1000
0010
1000
0001
0100
0001
0100
,
0010
1000
0100
0010
0001
0100
0010
1000
,
0001
0010
0100
1000
0010
0100
0001
0010
,
0001
0000
1000
0000
0000
0000
0010
0000
0100
0010
0100
0010
0100
0000
0001
0000
,
1000
0010
1000
0001
0100
0001
0010
0100
,
1000
0010
0100
0001
0010
0100
1000
0001
,
1000
0010
1000
0000
0001
0010
0001
0000
0010
0100
0010
0000
0100
1000
0100
0000
,
1000
0000
0001
0000
0000
0000
0100
0000
0000
0000
0001
0010
0100
1000
0100
1000
,
0001
0100
0010
0100
0001
0010
0001
0010
,
0100
1000
0010
0100
0001
0010
0001
1000
,
0100
0010
0001
1000
0001
1001
0000
0110
,
0000
0000
1000
0100
0010
0001
0010
0001
0010
0000
0000
0000
0010
0000
0000
0000
,
0001
0100
0001
0100
0000
0000
0110
0000
0000
1000
0100
1000
,
0100
0000
0000
1000
0010
1000
0010
0000
0000
0100
0001
0100
,
0001
0000
0000
1001
0000
0000
1000
0010
1000
0001
0000
0000
,
0010
0001
0010
0100
0000
0000
0110
0000
0000
0001
0100
0001
,
1000
0000
0000
1001
0000
0000
1000
0100
0010
0001
0000
0000
,
1000
0010
0100
0001
0000
0000
1000
0100
0010
0001
0000
0000
,
1001
0000
0000
0001
0010
0100
1000
0000
0000
0001
0100
0010
,
1000
0000
0000
0000
0000
0000
0000
0010
,
1000
0001
0100
0001
0100
0010
0100
0000
0001
0000
0010
0000
0100
0000
0001
0000
,
0100
1000
0001
0100
0001
0010
0100
1000
,
0010
0100
1000
0100
0010
1000
0100
1000
,
0001
1000
0010
0100
0010
1000
0100
0001
,
0100
1000
0001
1000
0010
0100
0010
1000
,
0001
0100
1000
0100
0001
1000
0010
0100
,
0000
0000
1000
0001
1000
0100
0010
0000
,
0000
0001
1000
0001
1000
0010
0100
0000
,
0000
1000
0001
1000
0001
1000
0100
0010
,
0000
0000
0001
1000
0001
1000
0001
1000
,
0010
0100
0000
0000
0001
0010
0001
0010
,
0100
1000
0100
1000
0001
0100
0010
1000
,
0001
0010
0100
0010
0001
1000
0100
0010
0100
1000
0001
0100
,
0010
0000
1000
0000
0001
0000
0100
0000
0010
0000
1000
0000
0001
0000
0010
0000
0100
0000
1000
0000
0000
0010
0000
0000
,
1000
0100
1000
0000
0100
0010
0100
0000
0010
0001
0010
0000
0001
1000
0001
0000
,
0200
0000
0000
0000
,
0000
0000
0000
0300
,
0001
0010
0001
1000
0000
0001
0010
1000
,
0001
0100
1000
0010
0001
1000
0100
0001
,
0010
0100
0010
0000
0001
0100
0001
0000
0100
0010
0100
0000
0010
1000
0010
0000
,
1000
0001
1000
0000
0001
0010
0100
1000
,
0001
0000
0100
0000
0001
0000
0010
0000
0001
0000
1000
0000
0010
0000
0100
0010
,
0100
0000
0001
1000
0010
0000
1000
0000
0100
0000
0010
0000
0100
0000
1000
0000
,
0010
0001
0010
1000
0100
0010
0100
1000
,
0001
0010
0100
1000
0100
0000
1000
0000
0001
0000
0100
0000
0010
0000
1000
0000
,
0001
1000
0010
1000
0100
0010
0001
0100
,
0001
1000
0001
0010
0100
0010
0001
1000
,
1000
0010
0100
0001
1000
0001
1000
0020
,
0100
0000
0100
0000
0100
0000
0130
0000
0001
0000
0010
0000
0100
0000
1000
0100
,
1000
0010
1000
0100
1000
0001
0100
0010
,
0100
1000
0100
0001
0010
0100
1000
0001
,
0010
1000
0010
0001
0100
0010
0100
0001
,
1000
0100
0010
0001
0010
0000
0001
0000
1000
0000
0010
0000
0100
0000
0001
0000
,
1000
0001
0100
0001
0010
0100
1000
0010
,
1000
0000
0001
0000
1000
0000
0010
0000
0100
0010
0100
0010
0100
0010
0100
0010
,
0200
0300
0001
0100
,
0010
0000
1000
0100
0000
0001
0100
0000
,
0010
0001
0010
0100
,
1000
0001
1000
0010
,
0120
0000
0000
0000
2030
0000
0000
0001
,
3002
0100
0100
0000
0023
0000
0000
0100
,
0130
1000
0001
0010
0000
0100
1000
0010
,
0200
0010
0010
0310
,
0101
1010
0110
0101
,
1010
0000
0110
0000
0001
0100
1000
0100
,
0001
0100
0001
0010
1000
0010
0001
0010
,
0011
1100
0110
0011
,
1100
0000
0000
0000
0110
0000
0000
0000
0001
0010
0100
0000
1000
0010
0100
0000
,
0001
1000
1001
0000
1100
0000
0011
0000
,
0001
0000
1000
0000
0001
0010
0100
1000
,
0001
1000
0000
0010
0000
0100
0000
0001
,
0000
1000
0001
0020
0000
0000
0000
0000
,
0000
0000
0000
0000
,
0030
0000
0000
0000
,
0000
0000
0000
0000
;
#NOTES:
     dance-double:
     :
     Easy:
     7:
     :
00000000
00000000
00000000
00000000
,
00000000
00000000
00000000
00000000
,
00000000
00000000
00000000
00000000
,
00000000
00000000
00000000
00000000
,
00000000
00000000
00000000
00000000
,
00000000
00000000
00000000
00000000
,
00000000
00000000
00000000
00000000
,
00010000
00010000
00010000
10000000
,
10000000
10000000
00100000
00100000
,
00100000
01000000
01000000
01000000
,
00010000
00010000
00010000
00001000
,
00001000
00001000
00000010
00000100
,
00000010
00001000
00000001
00000000
,
00001000
00000000
00000000
00000100
00000000
00000100
00000000
00000100
,
00000000
00010000
00000000
00000000
00001000
00000000
00100000
00000000
,
00010000
00000000
00000000
10000000
00000000
10000000
00000000
10000000
,
00000000
01000000
00000000
00000000
00100000
00000000
00010000
00000000
,
00100000
00000000
00001000
00000000
,
00010000
00000000
00000010
00000000
,
00001000
00000000
00000000
00000001
00000000
00000000
00001000
00000000
,
00000200
00000000
00000000
00000300
,
00010000
00000000
00001000
00000000
,
00000000
00000000
00001000
00000000
,
00000000
00000000
00001000
00000000
,
01000000
00000000
00000000
01000000
00000000
00000000
00000000
00000000
,
00010000
10000000
00010000
00000000
,
01000000
00100000
01000000
00000000
,
00001000
00010000
00001000
00000000
,
00011000
00000000
00000000
00000000
,
00001000
00000000
00010000
00000000
,
00000000
00000000
00010000
00000000
,
00000000
00000000
00010000
00000000
,
00000010
00000000
00000000
00000010
00000000
00000000
00000000
00000000
,
00001000
00000001
00001000
00000000
,
00000010
00000100
00000010
00000000
,
00010000
00001000
00010000
00000000
,
00011000
00000000
00001000
00000000
,
00001000
00000000
01000000
00000000
,
00010000
00000000
10000000
00000000
,
00010000
00000000
00100000
00000000
,
00001000
00000000
00010000
00000000
,
00001000
00010000
00000000
00000100
,
00000000
00001000
00000000
00000001
,
00000000
00001000
00000000
00000010
,
00000100
00000000
00000000
00000000
,
00000000
00000000
00000002
00000000
,
00000000
00000103
00000100
00002000
,
00000000
00000000
00013000
00010000
,
00200000
00000000
00000000
10300000
,
10000000
02000000
00000000
00000000
,
03010000
00000000
00010000
00000000
00001000
00000000
00000000
00010000
,
00000000
00000100
00000100
00010000
,
00000000
00001000
00000000
00001000
00000000
00000000
01000000
00000000
,
00000000
00001000
00000000
00001000
00000000
00001000
00000000
00010000
,
00000000
00000010
00000010
00000010
,
00000000
00010000
00000000
00000000
00000100
00000000
00000000
00000000
,
00001000
00000000
00000001
00000000
,
00000010
00000000
00000000
00001000
00000000
00000000
00010000
00000000
,
00000000
01000000
00000000
00000000
10000000
00000000
00010000
00000000
,
10000000
01000000
00100000
00010000
,
00002000
00000000
00000000
00000000
,
00000000
00000000
00003000
00000000
,
00000001
00000000
00000000
00000000
,
00001000
00000000
00000000
00000000
,
00000010
00000000
00010000
00000000
,
00001000
00001000
00000000
00000000
,
00100000
00010000
00100000
00010000
,
10000000
00000000
00100000
00000000
,
01000000
00001000
00010000
00001000
,
00010000
00000000
00000010
00000000
,
00001000
00000100
00001000
00000000
,
00000001
00000100
00000001
00000000
,
00001000
00000000
00000001
00000000
,
00001001
00000000
00000000
00000000
,
00001000
00000100
00001000
00000100
,
00010000
00000000
00001000
00000000
,
01000000
00010000
00100000
00010000
,
10000000
00000000
01000000
00010000
,
00001000
00000000
00010000
00000000
,
00000100
00001000
00000002
00000000
,
00002000
00003003
00000001
00000000
,
00000100
00000000
00001000
00000000
,
00000100
00000000
00001000
00000000
,
00010000
00000000
00100000
00000000
,
20000000
00000000
30000000
00000000
,
02000000
00000000
03000000
00000000
,
00010000
00000000
00001000
00000000
,
00020000
00000000
00000000
00030000
,
00000100
00000100
00000100
00001000
,
00001000
00001000
00000001
00000001
,
00000001
00000010
00000010
00000010
,
00000100
00000100
00000100
00001000
,
00001000
00001000
00010000
00100000
,
00010000
10000000
00010000
00000000
,
10010000
00000000
00000000
00000000
,
10000000
00000000
00000000
00100000
00000000
01000000
00000000
00010000
,
00000000
00100000
00001000
00020000
00000000
00000000
00000000
00000000
,
00000000
00000000
00000000
00000000
,
00030000
00000000
00000000
00000000
,
00000000
00000000
00000000
00000000
;
#NOTES:
     dance-double:
     :
     Medium:
     10:
     :
00000000
00000000
00000000
00000000
,
00000000
00000000
00000000
00000000
,
00000000
00000000
00000000
00000000
,
00000000
00000000
00000000
00000000
,
00000000
00000000
00000000
00000000
,
00000000
00000000
00000000
00000000
,
00000000
00000000
00000000
00000000
,
00000100
00010000
00001000
01000000
,
00001000
00010000
00001010
00001010
,
00001010
00011000
00011000
00011000
,
01000000
00001000
00010000
00000100
,
00010000
00001000
00110000
00110000
,
00110000
00001000
00010000
00000000
,
00000010
00000000
00001000
00000100
00000000
00001000
00000000
00000001
,
00000000
00000200
00000000
00001300
00010000
00000000
00001000
00000000
,
01000000
00000000
00010000
00100000
00000000
20000000
00000000
32000000
,
00000000
03010000
00000000
00001000
00010000
00000000
00000100
00000000
,
00001000
00000010
00000100
00000001
,
00000010
00001000
00010000
01000000
,
10000000
00010000
01000000
00001000
,
00022000
00000000
00000000
00033000
,
00010000
00001000
00001000
00001000
,
00001000
00001000
00001000
00001000
,
00001000
00001000
00001000
00001000
,
00010000
00000010
00000000
00001000
00000000
00000000
00000001
00000000
,
00000100
00000000
00000010
00000000
00001000
00000000
00000100
00010000
,
00000000
00010000
00001000
00000000
01000000
00000000
00010000
00000000
,
10000000
01000000
00100000
00010000
,
01000000
00001000
00000000
00010000
00001000
00000000
00010000
00000000
,
00001000
00010000
00010000
00010000
,
00010000
00010000
00010000
00010000
,
00010000
00010000
00010000
00010000
,
00001000
01000000
00000000
00010000
00000000
00000000
10000000
00000000
,
00100000
00000000
01000000
00000000
00010000
00000000
00100000
00001000
,
00000000
00001000
00010000
00000000
00000010
00000000
00001000
00000000
,
00000001
00000000
00000010
00000000
00000100
00000010
00000000
00000002
,
00000000
00000003
00001000
00000100
,
00000100
00010000
00011000
00000010
,
00011000
00100000
00011000
01000000
,
01010000
11000000
00010000
10000000
,
01000000
10000000
00010000
00100000
,
00001000
00011000
01000000
00011000
,
00000100
00011000
00000010
00001010
,
00000011
00001000
00000100
00000010
,
00001001
00000000
00000000
00000000
,
00000000
00000000
00000000
00000000
00000001
00000000
00000000
00000100
,
00000000
00001000
00010000
00001000
,
00000000
00010000
00000000
00000000
00100000
00000000
10000000
00000000
,
01000000
00000000
00000000
00100000
00000000
00000000
00010000
00000000
,
00001000
00000000
00000100
00000000
00000000
00000010
00000000
00000000
,
00000001
00000000
00001000
00000000
00000010
00000000
00001000
00000001
,
00000000
00000000
00000010
00000000
00001000
00000001
00001000
00000000
,
00000000
00000010
00000000
00000010
00000000
00001000
00000001
00000000
,
00000000
00000010
00000000
00000010
00000000
00001000
00000001
00001000
,
00000000
00000010
00000010
00000010
,
00001000
00000001
00000000
00000000
00000002
00000000
00000000
00000000
,
00000203
00000000
00002300
00000000
,
00013000
00000000
00000000
00100000
00000000
00000000
00100000
00000000
,
00000000
10000000
00000000
00000000
10000000
00000000
01000000
00000000
,
00100000
00010000
01000000
00001000
,
00020000
00000000
00000000
00000000
,
00000000
00000000
00000000
00030000
,
00000100
00000000
00001000
00000010
00000000
00000100
00000001
00000000
,
00000010
00000000
00000100
00001000
00000100
00000000
00010000
00000000
,
00001000
00010000
01000000
10000000
,
00010000
10000000
00010000
00000000
00000000
00000000
00000000
00000000
,
01000000
00100000
01000000
00010000
,
00100000
00000000
00001000
00000000
00010000
00001000
00010000
00000000
,
00000010
00000010
00001000
00001000
,
00000001
00000010
00000001
00000000
00000100
00000000
00000010
00000000
,
00001000
00000000
00000100
00010000
00000000
00001000
01000000
00000000
,
00010000
00000000
00100000
00000000
01000000
00000000
00000000
00100000
,
00000000
00010000
00100000
00000000
00001000
00000000
00010000
00001000
,
00000000
00011000
00010000
00000010
,
00001000
00000001
00000010
00001000
,
00010000
00000000
00001000
00000000
01000000
00010000
01000000
00000000
,
00100000
00100000
10000000
10000000
,
00010000
00100000
01000000
00000000
10000000
00000000
00010000
00000000
,
01000000
00000000
00010000
00100000
00000000
00001000
00010000
00000000
,
00001000
00000100
00000002
00000000
,
00002000
00003003
00000001
00000010
,
00001000
00010000
01000000
00000000
,
10010000
00000000
10000000
00100000
,
00010000
00001000
00000100
00000001
,
00002000
00000000
00003200
00000000
,
00020300
00000000
00032000
00000000
,
01003000
00000000
00000000
00010000
00000000
10000000
00010000
00000000
,
00200000
00000000
00000000
00300000
,
00100000
00001000
00010000
00000010
,
00010000
00001000
01010000
01010000
,
01010000
00011000
00011000
00011000
,
00000010
00010000
00001000
00100000
,
00001000
00010000
00001100
00001100
,
00001100
00000001
00001000
00000000
,
00000020
00000000
00000200
00000330
,
00000001
00000000
00000000
00000010
00000000
00001000
00000000
00010000
,
00000000
00001000
00010000
00002000
00000000
00000000
00000000
00000000
,
00000000
00000000
00000000
00000000
,
00003000
00000000
00000000
00000000
,
00000000
00000000
00000000
00000000
;
#NOTES:
     dance-double:
     :
     Hard:
     12:
     :
00000000
00000000
00000000
00000000
,
00000000
00000000
00000000
00000000
,
00000000
00000000
00000000
00000000
,
00000000
00000000
00000000
00000000
,
00000000
00000000
00000000
00000000
,
00000000
00000000
00000000
00000000
,
00000000
00000000
00000000
00000000
,
11000000
11000000
11000000
00110000
,
00110000
00110000
01010000
10010000
,
00110000
01010000
10010000
00110000
,
00011000
00011000
00011000
00001010
,
00001010
00001010
00001100
00001001
,
00001010
00000100
00000010
00000100
,
00000001
00000010
00000100
00000010
00000001
00001000
00000000
00000010
,
00000000
00020000
00000000
00031000
01000000
00010000
10000000
00010000
,
10000000
01000000
00100000
01000000
10000000
02000000
00000000
03020000
,
00000000
00031000
00010000
00000100
00001000
00000010
00000100
00000001
,
00000020
00000000
00000100
00000000
00000031
00001000
00000010
00000200
,
00000000
00000000
00000010
00000000
00000301
00000100
00001000
00000000
,
00010000
00000000
00000000
00100000
00000000
00000000
10000000
00010000
,
20020000
00000000
00000000
30030000
,
01100000
10000000
10000000
10000000
,
00100000
00100000
00010000
00010000
,
00001000
00001000
00000100
00000100
,
00000001
00001000
00000000
00000010
00000000
00000000
00000110
00000000
,
00000101
00000000
00001001
00000000
00001000
00000010
00010000
00001000
,
00000000
01000000
00010000
01000000
00010000
01000000
00100000
00000000
,
10100000
00000000
10010000
00000000
00010000
01000000
00001000
00010000
,
00000100
00001000
00000000
00000001
00000010
00000000
00000100
00000000
,
00001001
00000001
00000001
00000001
,
00000010
00000010
00001000
00001000
,
00010000
00010000
01000000
01000000
,
10000000
00010000
00000000
00100000
00000000
00000000
01100000
00000000
,
11000000
00000000
10010000
00000000
00010000
00100000
00001000
00010000
,
00000000
00010100
00001100
00001001
,
00000001
00000000
00000100
00000000
00000010
00001000
00000010
00020000
,
00000000
00030000
00001000
00001000
,
00100000
00000000
00010000
00000000
10010000
00000000
10000000
00100000
,
10000000
00000000
00010000
00100000
00010000
00000000
00100000
01000000
,
00100000
00000000
00001000
00000000
00010000
00000100
00010000
00000000
,
00000100
00001000
00001000
00000001
,
00000001
00000000
00000110
00000000
00001000
00000100
00001000
00000000
,
00000100
00010000
00000100
00000000
00010000
00001000
00010000
00000000
,
01001000
00000000
01000000
00010000
10000000
00000000
00100000
00000000
,
01000000
00000000
00000000
00000000
,
00000000
00000000
00000000
00000000
00010000
00100000
00010000
00100000
,
00001000
00010000
00001000
00000000
00011000
00000000
00010000
00000010
,
00010000
00000010
00001000
00000001
00001000
00000000
00001001
00000000
,
00001000
00000100
00001000
00000100
00010000
00001000
00010000
00000000
,
00011000
00000000
00001000
00100000
00001000
00100000
00010000
00100000
,
00010000
00000000
00110000
00000000
00010000
01000000
00100000
10000000
,
00000000
00000000
00010000
01000000
00100000
10000000
01000000
00000000
,
00000000
00010000
01000000
00100000
10000000
01000000
00100000
00000000
,
00000000
00010000
01000000
00100000
10000000
01000000
00100000
00001000
,
00000000
00000000
00010000
01000000
00100000
10000000
01000000
00100000
,
00001000
00010000
00000000
00000000
00002000
00000000
00000100
00000000
,
00003200
00000001
00000302
00001000
,
00000103
00000000
00000001
00000010
00000000
00000100
00001000
00000000
,
00010000
00100000
00000000
01000000
10000000
00000000
00100000
00000000
,
00010000
00001000
00000100
00000001
,
00002000
00000000
00000000
00000000
,
00000000
00000000
00000000
00003000
,
00000001
00000000
00000010
00000100
00000000
00000010
00000001
00001000
,
00000010
00010000
00001000
01000000
,
00010000
00100000
01000000
10000000
,
00010000
10000000
00010000
00000000
00000000
00000000
00000000
00000000
,
10000000
00000000
00010000
01000000
00000000
00001000
00010000
00001000
,
00000000
00010000
00000010
00000000
00000000
00001000
00000100
00000010
,
00000002
00000000
00002003
00000000
00003001
00000010
00000100
00001000
,
00000100
00010000
00001000
00000000
01000000
00000000
00010000
00100000
,
00010000
00000000
10000000
01000000
00000000
00100000
00010000
00100000
,
00001000
00000000
00010000
00000000
00001000
00000000
00000000
00010000
,
00000000
00001000
00000100
00000010
00000100
00000000
00000001
00001000
,
00000000
00000100
00000010
00000000
00000001
00000100
00000010
00001000
,
00000001
00000000
00001000
00000010
00000000
00010000
00001000
00010000
,
00000000
00001000
01000000
00000000
00000000
00010000
00100000
01000000
,
20000000
00000000
30020000
00000000
10030000
01000000
00100000
00010000
,
00100000
00001000
00010000
00000000
00000010
00000000
00001000
00000100
,
00001000
00000000
00000001
00000010
00000000
00000100
00001000
00000100
,
00010000
00001000
02000000
00000000
,
00200000
03300000
10000000
01000000
,
00010000
00000000
00001000
00010000
00000000
00001000
00000100
00000000
,
00000001
00001000
00000001
00000010
,
00001000
00010000
01000000
10000000
,
00020000
01030000
02000000
03001000
,
00002000
00013000
00020000
00030010
,
00000010
00001000
00000000
00000001
00000000
00001000
00000100
00000010
,
00000002
00001000
00001000
00001003
,
00001100
00001100
00001100
00000101
,
00000101
00000101
00001010
00001001
,
00000011
00001010
00001001
00000011
,
00000110
00000110
00000110
00001100
,
00001100
00001100
00010100
00011000
,
01001000
00010000
10000000
01000000
,
20000000
00000000
00020000
30030000
,
10000000
00100000
00000000
00010000
00000000
00001000
00000000
00000100
,
00000000
00000001
00001000
00000002
00000000
00000000
00000000
00000000
,
00000000
00000000
00000000
00000000
,
00000003
00000000
00000000
00000000
,
00000000
00000000
00000000
00000000
;
#NOTES:
     dance-double:
     :
     Challenge:
     16:
     :
00000000
00000000
00000000
00000000
,
00000000
00000000
00000000
00000000
,
00000000
00000000
00000000
00000000
,
00000000
00000000
00000000
00000000
,
00000000
00000000
00000000
00000000
,
00000000
00000000
00000000
00000000
,
00000000
00000000
00000000
00000000
,
00011000
00001010
00000110
00001100
,
00000011
00000000
00000110
00000000
00001000
00000010
00010000
00000010
,
00010000
00001000
00100000
00001000
01000000
00010000
01000000
00010000
,
01010000
10100000
01100000
01001000
,
00011000
00000000
00000000
00000000
00001010
00000000
00000000
00000000
00001000
00000001
00001000
00000000
00000001
00000100
00000001
00000000
,
00000010
00000100
00001000
00000000
00000100
00010000
00001000
00000000
,
00100000
00010000
00100000
01000000
00000000
10000000
00000000
00010000
,
00000000
00000000
02000000
00000000
00000000
00000000
03001000
00010000
00001000
00000000
00010000
00000000
00001000
00000000
00000100
00000000
,
00000001
00001000
00000010
00001000
00000000
00000002
00000000
00000203
,
00000000
00000000
00001300
00000000
00010000
00000000
00100000
00000000
10000000
00010000
01000000
00000000
00010000
00000000
00100000
00000000
,
00001000
00000000
00010000
00000010
00001000
00000100
00000010
00000002
,
00000000
00000000
00000103
00000000
00000010
00000000
00001000
00000000
00000100
00000000
00010000
00000000
00001000
00010000
00001000
00000000
,
01000000
00010000
01000000
00000000
00010000
10000000
00010000
00000000
10000000
00100000
10000000
00000000
00100000
01000000
00100000
00000000
,
10000000
01000000
00010000
00001000
00000100
00000000
00000000
00000000
,
00000001
00000100
00000001
00001000
00000010
00001000
00000100
00010000
,
00001000
00100000
00010000
01000000
00100000
10000000
01000000
00100000
,
00010000
01000000
00010000
01000000
00001000
00010000
00001000
00010000
,
00000100
00000000
00001000
00000000
00000000
00000000
00000001
00000000
00000000
00000000
00001000
00000100
00001000
00000100
00001000
00000000
,
00000100
00010000
00001000
00100000
00010000
01000000
00100000
01000000
,
00010000
10000000
01000000
00100000
00010000
00001000
00000100
00000010
,
00000001
00001000
00000010
00010000
00001000
01000000
00010000
10000000
,
00010000
00000000
01000000
00000000
00000000
00000000
00100000
00000000
10000000
00100000
10000000
00100000
10000000
00000000
00010000
00000000
,
10000000
00100000
10000000
00010000
01000000
00010000
00100000
00001000
,
00010000
00000100
00001000
00000010
00000100
00000001
00000010
00000100
,
00001000
00000010
00001000
00000010
00010000
00001000
00010000
00001000
,
00100000
00000000
00010000
00000000
00000000
00000000
10000000
00000000
00000000
00000000
00010000
00100000
00010000
00100000
00010000
00000000
,
00100000
00001000
00010000
00000100
00001000
00000010
00000100
00000010
,
00001000
00000001
00000010
00000100
00001000
00010000
00100000
01000000
,
10000000
00010000
01000000
00001000
00010000
00000010
00000000
00001010
,
00000000
00000000
00000001
00000010
00000100
00000010
00000100
00000000
00001000
00000000
00000000
00000000
00001000
00000000
00000000
00000000
,
00000001
00000100
00000001
00000100
00000000
00000000
00001000
00000000
00000000
00010000
00001000
00010000
,
00001000
00000000
00000000
01000000
00010000
01000000
00010000
00000000
00000000
10000000
00100000
10000000
,
00100000
00000000
00000000
00010000
00000000
00000000
00001000
00010000
00000100
00010000
00000000
00000000
,
00000100
00001000
00000001
00001000
00000000
00000000
00000001
00000000
00000000
00000010
00000100
00000010
,
00000001
00000000
00000000
00001000
00000000
00000000
00000001
00000010
00000100
00001000
00000000
00000000
,
00010000
00100000
01000000
10000000
00000000
00000000
00010000
01000000
00100000
10000000
00000000
00000000
,
01000000
00000000
00000000
00010000
00001000
00000010
00000001
00000000
00000000
00000100
00001000
00010000
,
00001000
00000000
00000000
00000000
00000000
00000000
00000000
00010000
,
00001000
00000000
00010000
00000000
00001000
00010000
00001000
00000000
00100000
00000000
00010000
00000000
01000000
00000000
10000000
00000000
,
01000000
00010000
10000000
00100000
00010000
00001000
00000100
00000010
,
00001000
00000100
00000001
00000100
00001000
00000001
00000010
00001000
,
00010000
00001000
00100000
00010000
00001000
00000100
00000010
00000100
,
00010000
00001000
00010000
00000100
00001000
00010000
00100000
01000000
,
00100000
00001000
00010000
00000010
00001000
00000001
00000100
00001000
,
00000000
00000000
00010000
00001000
00010000
01000000
00100000
00000000
,
00000000
00010000
01000000
00001000
00100000
01000000
00100000
00000000
,
00000000
00001000
00010000
00001000
00000100
00000001
00000100
00000010
,
00000000
00000000
00001000
00000010
00001000
00000001
00000100
00001000
,
00010000
00100000
00000000
00000000
10000000
01000000
10000000
01000000
,
00100000
00010000
00100000
00001000
00010000
00000100
00001000
00000001
,
00001000
00000100
00000010
00000100
00001000
00000100
00010000
00001000
00010000
00001000
01000000
00010000
,
01000000
00000000
00010000
00000000
10000000
00000000
01000000
00000000
00100000
00000000
01000000
00000000
10000000
00000000
00010000
00000000
01000000
00000000
00010000
00000000
00000000
10000000
00000000
00000000
,
00010000
00100000
00010000
00000000
00100000
00001000
00100000
00000000
00001000
00010000
00001000
00000000
00010000
00000100
00010000
00000000
,
00002000
00000000
00000000
00000000
,
00000000
00000000
00000000
00003000
,
00010000
00000010
00001000
00000100
00000000
00010000
00001000
01000000
,
00010000
00100000
01000000
10000000
00010000
01000000
00001000
00010000
,
00000010
00001000
00000010
00000000
00001000
00000100
00001000
00000000
00000100
00000010
00000100
00000000
00000010
00000001
00000010
00000000
,
00000001
00001000
00000001
00000000
00001000
00000010
00000100
00000001
,
00001000
00000100
00001000
00000010
00010000
00001000
00010000
00001000
,
01000000
00000000
00010000
10000000
01000000
00000000
10000000
00000000
00100000
00000000
01000000
00000000
00100000
00000000
10000000
00000000
,
01000000
00010000
00001000
00000010
00001000
00010000
00001000
00000100
,
00000010
00000100
00000010
00000000
00001000
00000000
00000001
00000000
00000010
00000000
00000100
00000000
00001000
00000000
00010000
00000000
,
00100000
01000000
00100000
00010000
10000000
01000000
00100000
01000000
,
10000000
00100000
00010000
00001000
00010000
00001000
00000100
00000001
,
00000001
00000100
00000010
00001000
00000100
00010000
00001000
00020000
,
00001000
00001000
00001000
00031000
00010000
00001000
00100000
00010000
,
10000000
00100000
10000000
00010000
01000000
00001000
00010000
00001000
,
00010000
00000010
00001000
00000001
00000100
00000010
00000100
00000001
,
00000010
00001000
00010000
01000000
00010000
00001000
00010000
00100000
,
01000000
00100000
01000000
00000000
00010000
00000000
10000000
00000000
01000000
00000000
00100000
00000000
00010000
00000000
00001000
00000000
,
00000100
00000010
00000100
00001000
00000001
00000010
00000100
00000010
,
00000001
00000000
00000100
00000000
00001000
00000000
00010000
00000000
00001000
00010000
00001000
00010000
00001000
00010000
00001000
00010000
,
00002000
00003000
00100000
00010000
,
10000000
00000000
00100000
00010000
00000000
00001000
00010000
00000000
,
00000010
00001000
00000001
00000010
,
00000100
00001000
00000001
00000100
,
00002000
00000000
00023000
00000000
,
02030000
00000000
23000000
00000000
,
30010000
00100000
01000000
10000000
00000000
00010000
00100000
00001000
,
00020000
00001000
00001000
00031000
,
00011000
01010000
01100000
00110000
,
11000000
00000000
01100000
00000000
00010000
01000000
00001000
01000000
,
00001000
00010000
00000100
00010000
00000010
00001000
00000010
00001000
,
00001010
00000101
00000110
00010010
,
00011000
00000000
00000000
00000000
01010000
00000000
00000000
00000000
00010000
10000000
00010000
00000000
10000000
00100000
10000000
00000000
,
00010000
00100000
00101000
00000000
00011000
00000000
00001010
00000000
,
00000001
00000000
00000010
00000000
00001000
00000010
00000001
00000010
,
00001000
00010000
00000000
01000000
00000000
10000000
00000000
00010000
,
00000000
10000000
01000000
00200000
00000000
00000000
00000000
00000000
,
00000000
00000000
00000000
00000000
,
00300000
00000000
00000000
00000000
,
00000000
00000000
00000000
00000000
;
