
//----- song ID: tnaw -----//
#TITLE:The Night Away (MK Remix);
#ARTIST:Starving Trancer feat. Mayumi Morinaga;
#BANNER:The Night Away (MK Remix).png;
#BACKGROUND:The Night Away (MK Remix)-bg.png;
#CDTITLE:./CDTitles/DDR A.png;
#MUSIC:The Night Away (MK Remix).ogg;
#SAMPLESTART:41.704;
#SAMPLELENGTH:15;
#DISPLAYBPM:160;
#BPMS:0=160,76=161.5,80=160,208=158,212=160;
#NOTES:
     dance-single:
     :
     Beginner:
     3:
     :
0000
0000
0000
0000
,
0000
0000
0000
0000
,
0000
0000
0000
0000
,
0000
0000
0000
0000
,
0000
0000
0000
0000
,
0000
0000
0000
0000
,
1000
0000
0000
0000
,
0001
0000
0000
0000
,
0100
0000
0000
0000
,
0001
0000
0000
0000
,
2000
0000
0000
0000
,
0000
0000
0000
3000
,
0001
0000
0000
0000
,
0000
0000
0000
0000
,
0100
0000
0000
0000
,
0000
0000
0000
0000
,
0010
0000
0000
0000
,
0000
0000
0000
0000
,
0001
0000
0000
0000
,
0000
0000
0000
0000
,
0100
0000
0000
0000
,
1000
0000
0000
0000
,
0010
0000
0000
0000
,
1000
0000
0000
0000
,
0001
0000
0000
0000
,
0010
0000
0000
0000
,
0001
0000
0000
0000
,
2000
0000
0000
0000
,
3000
0000
0000
0000
,
0001
0000
0000
0000
,
1000
0000
0000
0000
,
0001
0000
0010
0000
,
0001
0000
0000
0000
,
1000
0000
0000
0000
,
0001
0000
0010
0000
,
0001
0000
0000
0000
,
1000
0000
1000
0000
,
1000
0000
0000
0000
,
0001
0000
0001
0000
,
0001
0000
0000
0000
,
1000
0000
0001
0000
,
1000
0000
0000
0000
,
0001
0000
0010
0000
,
0001
0000
0000
0000
,
1000
0000
0000
0000
,
0001
0000
0000
0000
,
0100
0000
0000
0000
,
0010
0000
0000
0000
,
1000
0000
0001
0000
,
1000
0000
1000
0000
,
0001
0000
0001
0000
,
0002
0000
0000
0003
,
1000
0000
0001
0000
,
0100
0000
0000
0000
,
1000
0000
0010
0000
,
1000
0000
0000
0000
,
0001
0000
1000
0000
,
0010
0000
0000
0000
,
2000
0000
0000
0000
,
0000
0000
0000
0000
,
3000
0000
0010
0000
,
0001
0000
0000
0000
,
0010
0000
1000
0000
,
0010
0000
0000
0000
,
1000
0000
0001
0000
,
0010
0000
0000
0000
,
0002
0000
0000
0000
,
0003
0000
0000
0000
,
0000
0000
0100
0000
,
0000
0000
0100
0000
,
0000
0000
0001
0000
,
1000
0000
0001
0000
,
0000
0000
0010
0000
,
0000
0000
0010
0000
,
0000
0000
0000
0000
,
1000
0000
1000
0000
,
0001
0000
0000
0000
,
0000
0000
0000
0000
;
#NOTES:
     dance-single:
     :
     Easy:
     5:
     :
0000
0000
0000
0000
,
0000
0000
0000
0000
,
0000
0000
0000
0000
,
0000
0000
0000
0000
,
0000
0000
0000
0000
,
0000
0000
0000
0000
,
1000
0000
0100
0000
,
1000
0000
0001
0000
,
0100
0000
0001
0000
,
0100
0000
0010
0000
,
2000
0000
0000
0000
,
0000
0000
0000
3000
,
0001
0000
0000
0000
,
0010
0000
0000
0000
,
0100
0000
0000
0000
,
1000
0000
0000
0000
,
0010
0000
0000
0000
,
0100
0000
0000
0000
,
0001
0000
0000
0000
,
0010
0000
0000
0000
,
0100
0000
1000
0000
,
0001
0000
0100
0000
,
0010
0000
1000
0000
,
0001
0000
1000
0000
,
0001
0000
0100
0000
,
1000
0000
0100
0000
,
0001
0000
0000
0000
,
2000
0000
0000
0000
0000
0000
0000
0000
0000
0000
0000
0000
0000
0000
0000
0000
0000
0000
0000
0000
0000
0000
0000
0000
0000
0000
0000
0000
0000
0000
0000
0000
0000
0000
0000
0000
0000
0000
0000
0000
0000
0000
0000
0000
0000
0000
0000
0000
0000
0000
0000
0000
0000
0000
0000
0000
0000
0000
0000
0000
0000
0000
0000
0000
0000
0000
0000
0000
0000
0000
0000
0000
0000
0000
0000
0000
0000
0000
0000
0000
0000
0000
0000
0000
0000
0000
0000
0000
0000
0000
0000
0000
0000
0000
0000
0000
0000
0000
0000
0000
0000
0000
0000
0000
0000
0000
0000
0000
0000
0000
0000
0000
0000
0000
0000
0000
0000
0000
0000
0000
0000
0000
0000
0000
0000
0000
0000
0000
0000
0000
0000
0000
0000
0000
0000
0000
0000
0000
0000
0000
0000
0000
0000
0000
0000
0000
0000
0000
0000
0000
0000
0000
0000
0000
0000
0000
0000
0000
0000
0000
0000
0000
0000
0000
0000
0000
0000
0000
0000
0000
0000
0000
0000
0000
0000
0000
0000
0000
0000
0000
0000
0000
0000
0000
0000
0000
0000
0000
0000
0000
0000
3000
,
0001
0001
0010
0000
,
1000
1000
0010
0000
,
0001
0001
0010
0000
,
1000
1000
0010
0000
,
0001
0001
0100
0000
,
1000
1000
0100
0000
,
0001
0001
0100
0000
,
1000
1000
0100
0000
,
0001
1000
0001
0000
,
1000
0001
1000
0000
,
0001
1000
0001
0000
,
1000
0001
1000
0000
,
0001
1000
0010
0000
,
1000
0001
0010
0000
,
0001
1000
0010
0000
,
1000
0001
0010
0000
,
1001
0000
0100
0000
,
1001
0000
0100
0000
,
1001
0000
0010
0000
,
1001
0000
0010
0000
,
0010
0000
1000
0000
,
1000
0001
1000
0001
,
1000
0001
1000
0001
,
0002
0000
0000
0003
,
1000
0001
1000
0000
,
0001
0010
0001
0000
,
1000
0000
0010
0000
,
1000
0000
0001
0000
,
0001
1000
0001
0000
,
1000
0010
1000
0000
,
0001
0000
0100
0000
,
1000
0000
0100
0000
,
0001
1000
0100
0000
,
1000
0001
0100
0000
,
0010
0100
0001
0000
,
0010
0100
1000
0000
,
0001
0010
0001
0000
,
1000
0010
1000
0000
,
0002
0000
0000
0000
,
1003
0000
0110
0000
,
0001
1000
0100
0000
,
1000
0001
0100
0000
,
0001
0001
1000
1000
,
0001
1000
0001
0000
,
0001
1000
0010
0000
,
1000
0001
0010
0000
,
0001
0001
1000
1000
,
0001
0000
1000
0000
,
0010
0000
0000
0000
,
0000
0000
0000
0000
;
#NOTES:
     dance-single:
     :
     Medium:
     9:
     :
0000
0000
0000
0000
,
0000
0000
0000
0000
,
0000
0000
0000
0000
,
0000
0000
0000
0000
,
0000
0000
0000
0000
,
0000
0000
0000
0000
,
0100
0010
0100
1000
,
0001
0100
0010
0100
,
0001
1000
0100
0010
,
0100
1000
0001
0100
,
2000
0000
0000
0000
,
0000
0000
0000
0000
,
3200
0000
0000
0000
,
0302
0000
0000
0000
,
0203
0000
0000
0000
,
0320
0000
0000
0000
,
2030
0000
0000
0000
,
3020
0000
0000
0000
,
0230
0000
0000
0000
,
0302
0000
0000
0000
,
2003
0100
0000
0100
,
3200
0010
0000
0010
,
0320
0001
0000
0001
,
0031
0100
1000
0100
,
0002
0010
0000
0010
,
0023
0100
0000
0100
,
0230
1000
0000
1000
,
2300
0000
0000
0000
,
3001
0000
0100
0000
0010
1000
0010
0000
,
0100
0000
0001
0000
0010
0001
0010
0000
,
0001
0000
0100
0000
1000
0100
0001
0000
,
0001
0010
0100
1000
,
1000
0000
0100
0000
0010
0001
0010
0000
,
0100
0000
1000
0000
0010
1000
0010
0000
,
1000
0000
0100
0000
0001
0100
1000
0000
,
1000
0010
0100
0001
,
1000
0000
1000
0000
1000
0100
0001
0000
,
0001
0000
0001
0000
0001
0100
1000
0000
,
0001
0000
0100
0000
0001
0100
0010
0000
,
1000
0100
0010
0000
0001
0100
0010
0000
,
1000
0000
1100
0000
0001
0100
0010
0000
,
0010
0000
1010
0000
1000
0100
0010
0000
,
0100
0000
1000
0000
0100
1000
0100
0000
,
0001
0000
0100
0000
0001
0000
0100
1000
,
0100
0000
0010
0000
0100
0000
0010
0001
,
0100
0000
0010
0000
0100
0000
0010
1000
,
0100
0000
0001
0000
0100
0000
1000
0010
,
0100
0000
0001
0000
0100
1000
0100
0000
,
0001
0010
0001
0000
1000
0100
1000
0000
,
0010
0001
0010
0000
0001
1000
0001
0100
,
0001
0100
0010
0100
0002
0000
0000
0000
,
2000
0000
0000
3003
,
1001
0000
0100
0000
0000
0001
0010
0000
,
0001
0000
0100
0000
0000
0010
1000
0000
,
0001
0010
0001
0000
0100
0000
0001
0000
,
1000
0010
1000
0000
0100
0000
1000
0000
,
1001
0000
0010
0000
0000
1000
0100
0000
,
1000
0000
0010
0000
0000
0100
0001
0000
,
1000
0000
0001
0010
0200
0000
0000
0000
,
0001
0000
1300
0100
,
0100
0000
0110
0000
1000
0001
0100
0000
,
0100
0000
1100
0000
0010
0100
0001
0000
,
0001
0000
1000
0000
1000
0100
1000
0000
,
0010
0000
0100
0000
0100
0001
0100
0000
,
0010
0000
0110
0000
1000
0001
0010
0000
,
0010
0000
1010
0000
0100
0010
0001
0000
,
2000
0000
0000
0000
,
3200
0000
0020
0000
,
0330
0000
1000
0000
0100
0010
1000
0000
,
0010
0000
0001
0000
0100
0010
0001
0000
,
0010
0000
1000
0000
0100
1000
0001
1000
,
0100
0001
0100
1001
,
0110
0000
1000
0000
0010
0100
1000
0000
,
0100
0000
0001
0000
0010
0100
0001
0000
,
0100
1000
0010
0001
,
0100
0000
1000
0000
,
0100
0000
0000
0000
,
0000
0000
0000
0000
;
#NOTES:
     dance-single:
     :
     Hard:
     12:
     :
0000
0000
0000
0000
,
0000
0000
0000
0000
,
0000
0000
0000
0000
,
0000
0000
0000
0000
,
0000
0000
0000
0000
,
0000
0000
0000
0000
,
1000
0000
0100
0000
0001
0000
0100
0010
,
0001
0000
0100
0000
1000
0000
0100
0010
,
1000
0000
0100
0000
0001
0000
0100
0010
,
0001
0100
1000
0100
0010
1000
0001
0010
,
2000
0000
0000
0000
,
0000
0000
0000
0000
,
3002
0000
0203
0000
,
0320
0000
0032
0000
,
0203
0000
0320
0000
,
2030
0000
3002
0000
,
0023
0000
0032
0000
,
0203
0000
2300
0000
,
3200
0000
0302
0000
,
0023
0000
2030
0000
,
3010
0001
0100
0010
0000
1000
0010
0100
,
0000
0001
0100
0010
0000
1000
0010
0100
,
0000
0001
0100
0010
0000
1000
0100
0001
,
0000
0001
0100
1000
0000
0010
0001
0010
,
0000
1000
0100
1000
0000
0001
0100
0001
,
0000
0010
0001
0010
0000
1000
0010
1000
,
0000
0010
0001
0010
0000
0001
0100
0001
,
0000
0100
0010
0100
0001
0100
1000
0100
,
0001
0000
0011
0000
0100
0010
0001
0010
,
0100
0000
0011
0000
0100
0010
0001
0010
,
0100
1000
0010
0000
0100
0001
0010
0000
,
0001
1000
0010
0000
1000
0001
0010
0000
,
0001
0000
1010
0000
0100
0010
1000
0010
,
0100
0000
1010
0000
0100
0010
1000
0010
,
0100
0001
0010
0000
0100
1000
0010
0000
,
1000
0001
0010
0000
0001
1000
0010
0000
,
1001
0000
0101
0000
0010
0100
1000
0100
,
0001
0000
0011
0000
0010
0100
1000
0100
,
0001
0000
0110
0000
0100
0010
0001
0010
,
1000
1001
0101
1001
,
1001
0000
1100
0000
0010
0100
0001
0100
,
1000
0000
1010
0000
0010
0100
0001
0100
,
1000
0000
0110
0000
0100
0010
1000
0010
,
0001
1001
1100
1001
,
0101
0000
0101
0000
0110
0000
0001
0010
,
1010
0000
1010
0000
1100
0000
1000
0100
,
0110
0000
0110
0000
1001
0000
0010
1000
,
1001
0000
1001
0000
0010
0100
1000
0100
,
0001
0010
0100
1000
0001
0100
1000
0100
,
0001
0100
0010
0001
0100
0010
1000
0100
,
0001
0100
1000
0010
0001
0100
0001
0010
,
2000
0000
0000
0000
,
3001
0000
0110
0000
0001
0010
0100
0010
,
0001
0000
0110
0000
1000
0100
0010
0100
,
1000
0100
0001
0100
0001
0100
1000
0010
,
0100
1000
0100
0010
0001
0010
0100
1000
,
0100
0000
0110
0000
0001
0100
0010
0100
,
0001
0000
0011
0000
0010
0100
1000
0100
,
0010
0000
0001
0100
0002
0000
0000
0000
,
0010
0000
0000
0000
0000
0000
0000
0000
0000
0000
0000
0000
0000
0000
0000
0000
0000
0000
0000
0000
0000
0000
0000
0000
0000
0000
0000
0000
0000
0000
0000
0000
0000
0000
0000
0000
0000
0000
0000
0000
0000
0000
0000
0000
0000
0000
0000
0000
0000
0000
0000
0000
0000
0000
0000
0000
0000
0000
0000
0000
0000
0000
0000
0000
0000
0000
0000
0000
0000
0000
0000
0000
0000
0000
0000
0000
0000
0000
0000
0000
0000
0000
0000
0000
0000
0000
0000
0000
0000
0000
0000
0000
0000
0000
0000
0000
0100
0000
0000
0000
0000
0000
0000
0000
0000
0000
0000
0000
0000
0000
0000
0000
0000
0000
0000
0000
0000
0000
0000
0000
0000
0000
0000
0000
0000
0000
0000
0000
0000
0000
0000
0000
0000
0000
0000
0000
0000
0000
0000
0000
0000
0000
0000
0000
0000
0000
0000
0000
0000
0000
0000
0000
0000
0000
0000
0000
0000
0000
0000
0000
0000
0000
0000
0000
0000
0000
0000
0000
0000
0000
0000
0000
0000
0000
0000
0000
0000
0000
0000
0000
0000
0000
0000
0000
0000
0000
0000
0000
0000
0000
0000
0003
,
0010
0000
0110
0000
1000
0010
0100
0010
,
1000
0000
0110
0000
0001
0100
0010
0100
,
0001
0100
1000
0100
1000
0100
0001
0010
,
0100
0001
0100
0010
1000
0010
0100
0001
,
0100
0000
0110
0000
1000
0100
0010
0100
,
1000
0000
1010
0000
0010
0100
0001
0100
,
0020
0000
0000
0000
1030
0100
0001
0010
,
0001
0100
1000
0100
0010
0001
0010
0100
,
1000
0000
1001
0000
0100
0010
0001
0010
,
0100
0000
1001
0000
0100
0010
1000
0010
,
0100
0001
0100
0010
0001
0010
0100
0001
,
0010
0100
1000
0100
0001
0100
0010
0000
,
0110
0000
1001
0000
0100
0010
1000
0010
,
0100
0000
1001
0000
0100
0010
0001
0010
,
0100
1000
0010
0100
0001
0010
0100
0010
,
1000
0001
1000
0010
0100
1000
0010
0001
,
1000
0000
0000
0000
,
0000
0000
0000
0000
;
#NOTES:
     dance-double:
     :
     Easy:
     5:
     :
00000000
00000000
00000000
00000000
,
00000000
00000000
00000000
00000000
,
00000000
00000000
00000000
00000000
,
00000000
00000000
00000000
00000000
,
00000000
00000000
00000000
00000000
,
00000000
00000000
00000000
00000000
,
00010000
00000000
10000000
00000000
,
00010000
00000000
00001000
00000000
,
00010000
00000000
10000000
00000000
,
00010000
00000000
00001000
00000000
,
00020000
00000000
00000000
00000000
,
00000000
00000000
00000000
00030000
,
10000000
00000000
00000000
00000000
,
00010000
00000000
00000000
00000000
,
00001000
00000000
00000000
00000000
,
00000001
00000000
00000000
00000000
,
00000100
00000000
00000000
00000000
,
00001000
00000000
00000000
00000000
,
00010000
00000000
00000000
00000000
,
00100000
00000000
00000000
00000000
,
10000000
00000000
00010000
00000000
,
01000000
00000000
00010000
00000000
,
00100000
00000000
00001000
00000000
,
00010000
00000000
00001000
00000000
,
00010000
00000000
00000010
00000000
,
00001000
00000000
00000001
00000000
,
00000200
00000000
00000000
00000000
,
00000000
00000000
00000000
00000000
,
00000301
00000000
00000100
00000000
,
00000001
00000000
00001000
00000000
,
00000100
00000000
00010000
00000000
,
00100000
00000000
00010000
00000000
,
00001000
00000000
00010000
00000000
,
00001000
00000000
00000010
00000000
,
00001000
00000000
00010000
00000000
,
01000000
00000000
10000000
00000000
,
00010000
00010000
00100000
00000000
,
00001000
00001000
00010000
00000000
,
00000100
00000100
00001000
00000000
,
00000001
00000001
00000100
00000000
,
00000100
00000100
00000010
00000000
,
00001000
00001000
00000010
00000000
,
00010000
00010000
00001000
00000000
,
00100000
00100000
00010000
00000000
,
10010000
00000000
00001000
00000000
,
10010000
00000000
00001000
00000000
,
10010000
00000000
00001000
00000000
,
10010000
00000000
00001000
00000000
,
00001000
00000000
00000010
00000000
,
00000010
00000000
00000001
00001000
,
00000001
00001000
00000001
00000000
,
00002000
00000000
00000000
00003000
,
00000001
00001000
00000001
00000000
,
00001000
00000010
00001000
00000000
,
00010000
00000000
00001000
00000000
,
00010000
00000000
00100000
00000000
,
00010000
10000000
00010000
00000000
,
10000000
00100000
10000000
00000000
,
00010000
00000000
00001000
00000000
,
00000100
00000000
00000010
00000000
,
00000001
00001000
00000100
00000000
,
00001000
00000001
00000100
00000000
,
00000100
00001000
00010000
00000000
,
00010000
00001000
00000100
00000000
,
00001000
00010000
00001000
00000000
,
00010000
00100000
00010000
00000000
,
00200000
00000000
00000000
00000000
,
10300000
00000000
01100000
00000000
,
00010000
10000000
01000000
00000000
,
10000000
00010000
01000000
00000000
,
00001000
00010000
00001000
00000000
,
00001000
00001000
00000010
00000000
,
00000001
00001000
00000010
00000000
,
00001000
00000001
00000010
00000000
,
00000001
00001000
00000001
00000001
,
00000100
00000000
00001000
00000000
,
00010000
00000000
00000000
00000000
,
00000000
00000000
00000000
00000000
;
#NOTES:
     dance-double:
     :
     Medium:
     10:
     :
00000000
00000000
00000000
00000000
,
00000000
00000000
00000000
00000000
,
00000000
00000000
00000000
00000000
,
00000000
00000000
00000000
00000000
,
00000000
00000000
00000000
00000000
,
00000000
00000000
00000000
00000000
,
01000000
00100000
00010000
00100000
,
01000000
00100000
00010000
00100000
,
00001000
00010000
00100000
00010000
,
00001000
00010000
00100000
00010000
,
00002000
00000000
00000000
00000000
,
00000000
00000000
00000000
00000000
,
00023000
00000000
00000000
00000000
,
00032000
00000000
00000000
00000000
,
00003200
00000000
00000000
00000000
,
00000320
00000000
00000000
00000000
,
00000032
00000000
00000000
00000000
,
00000023
00000000
00000000
00000000
,
00000230
00000000
00000000
00000000
,
00002300
00000000
00000000
00000000
,
00023000
00001000
00000000
00001000
,
00032000
00010000
00000000
00010000
,
00023000
00100000
00000000
00100000
,
00130000
01000000
10000000
01000000
,
00020000
00100000
00000000
00100000
,
00230000
01000000
00000000
01000000
,
02300000
10000000
00000000
10000000
,
23000000
00000000
00000000
00000000
,
30010000
00000000
00100000
00000000
00010000
01000000
00010000
00000000
,
10000000
00000000
00100000
00000000
01000000
00010000
01000000
00000000
,
00010000
00000000
01000000
00000000
10000000
01000000
00010000
00000000
,
00100000
00010000
00001000
00000100
,
00001000
00000000
00000010
00000000
00001000
00000100
00001000
00000000
,
00000001
00000000
00000010
00000000
00000100
00001000
00000100
00000000
,
00001000
00000000
00000100
00000000
00000001
00000100
00001000
00000000
,
00000010
00001000
00010000
01000000
,
00010000
00000000
00010000
00000000
10000000
01000000
00010000
00000000
,
00010000
00000000
00001000
00000000
00001000
00000010
00000001
00000000
,
00000010
00000000
00000001
00000000
00000010
00000001
00000100
00000000
,
00000010
00001000
00000100
00000000
00000010
00000001
00000100
00000000
,
00000010
00000000
00001100
00000000
00000100
00010000
00001000
00000000
,
00100000
00000000
01010000
00000000
01000000
00001000
00010000
00000000
,
00001000
00000000
00000010
00000000
00000100
00000010
00000001
00000000
,
00000100
00000000
00001000
00000000
00000100
00000000
00001000
00010000
,
00001000
00000000
00100000
00000000
01000000
00000000
00100000
01000000
,
00010000
00000000
00001000
00000000
00000010
00000000
00000100
00000010
,
00001000
00000000
00010000
00000000
00100000
00000000
10000000
00100000
,
01000000
00000000
00010000
00000000
01000000
10000000
01000000
00000000
,
00010000
00100000
00010000
00000000
00001000
00000100
00001000
00000000
,
00000010
00000001
00000010
00000000
00000001
00001000
00000001
00000100
,
00000001
00000100
00000010
00000100
00000002
00000000
00000000
00000000
,
00002000
00000000
00000000
00003003
,
00001001
00000000
00000100
00000000
00000000
00000001
00000010
00000000
,
00000001
00000000
00000100
00000000
00000000
00000010
00001000
00000000
,
00010000
00100000
00010000
00000000
01000000
00000000
00010000
00000000
,
10000000
00100000
10000000
00000000
01000000
00000000
00010000
00000000
,
01100000
00000000
01000000
00000000
00000000
10000000
00100000
00000000
,
10000000
00000000
01000000
00000000
00000000
00100000
00010000
00000000
,
00001000
00000000
00000001
00000100
00000020
00000000
00000000
00000000
,
00000000
00000000
00000031
00001000
,
00000010
00000000
00000100
00000000
00001000
00010000
00001000
00000000
,
00001000
00000000
00010000
00000000
01000000
00100000
01000000
00000000
,
10000000
00000000
00010000
00000000
10000000
01000000
10000000
00000000
,
01000000
00000000
00100000
00000000
00100000
00010000
00100000
00000000
,
01000000
00000000
00010000
00000000
00001000
00010000
00001000
00000000
,
00001000
00000000
00010000
00000000
00000100
00000010
00000100
00000000
,
00000002
00000000
00000000
00000000
,
00000203
00000000
00000020
00000000
,
00000330
00000000
00001000
00000000
00000100
00000010
00001000
00000000
,
00100000
00000000
00010000
00000000
01000000
00100000
00010000
00000000
,
00001000
00000000
00010000
00000000
00000100
00001000
00000001
00001000
,
00000100
00001000
00010000
01100000
,
00110000
00000000
00010000
00000000
01000000
00100000
00010000
00000000
,
00000010
00000000
00001000
00000000
00000100
00000010
00001000
00000000
,
00010000
01000000
10000000
00100000
,
00010000
00000000
00001000
00000000
,
00000100
00000000
00000000
00000000
,
00000000
00000000
00000000
00000000
;
#NOTES:
     dance-double:
     :
     Hard:
     12:
     :
00000000
00000000
00000000
00000000
,
00000000
00000000
00000000
00000000
,
00000000
00000000
00000000
00000000
,
00000000
00000000
00000000
00000000
,
00000000
00000000
00000000
00000000
,
00000000
00000000
00000000
00000000
,
00000001
00000000
00000100
00000000
00001000
00000000
00000100
00000010
,
00001000
00000000
00000100
00000000
00000001
00000000
00000100
00000010
,
00000001
00000000
00000100
00000000
00001000
00000000
00010000
00100000
,
00010000
00001000
00010000
01000000
00100000
10000000
00010000
01000000
,
20000000
00000000
00000000
00000000
,
00000000
00000000
00000000
00000000
,
30020000
00000000
02030000
00000000
,
03200000
00000000
00320000
00000000
,
00032000
00000000
00023000
00000000
,
00032000
00000000
00003020
00000000
,
00002030
00000000
00003002
00000000
,
00000203
00000000
00002300
00000000
,
00003020
00000000
00002030
00000000
,
00023000
00000000
00230000
00000000
,
10300000
00010000
01000000
00100000
00000000
00001000
00010000
00001000
,
00000000
00000100
00000010
00001000
00000000
00000100
00000010
00000001
,
00000000
00000100
00001000
00010000
00000000
00100000
00010000
00001000
,
00000000
00000010
00001000
00010000
00000000
00100000
00010000
00100000
,
00000000
10000000
01000000
00010000
00000000
00010000
01000000
10000000
,
00000000
00100000
00010000
00001000
00000000
00001000
00000010
00001000
,
00000000
00000010
00000001
00000100
00000000
00001000
00000100
00000001
,
00000000
00001000
00000100
00010000
01000000
00010000
00001000
00010000
,
00000100
00000000
00000110
00000000
00001000
00000010
00000001
00000000
,
00000100
00000000
00000110
00000000
00000001
00000010
00001000
00000000
,
00010000
01000000
10000000
00000000
01000000
00010000
00100000
00000000
,
01000000
00010000
00001000
00010000
01000000
00100000
00010000
00000000
,
01000000
00000000
01100000
00000000
00010000
00100000
10000000
00000000
,
01000000
00000000
01100000
00000000
10000000
00100000
00010000
00000000
,
00001000
00000100
00000001
00000000
00000100
00001000
00000010
00000000
,
00000100
00001000
00010000
00001000
00000100
00000010
00001000
00000000
,
00001001
00000000
00000101
00000000
00000010
00000100
00001000
00000100
,
00000001
00000000
00000011
00000000
00000010
00000100
00001000
00000100
,
00000001
00000000
00000110
00000000
00000100
00000010
00000001
00000010
,
00001000
00011000
00101000
00011000
,
00100000
00000000
01010000
00000000
00100000
01000000
10000000
01000000
,
00010000
00000000
00110000
00000000
00100000
01000000
10000000
01000000
,
00010000
00000000
01100000
00000000
01000000
00100000
00010000
00100000
,
10000000
10010000
01010000
00011000
,
01010000
01010000
01100000
01010000
,
00110000
00110000
00011000
00110000
,
00011000
00001010
00000110
00001001
,
00000110
00000000
00000110
00000000
00000001
00001000
00000001
00001000
,
00000001
00000100
00001000
00010000
00001000
00100000
00010000
00100000
,
01000000
10000000
01000000
00010000
01000000
10000000
01000000
00100000
,
00010000
00001000
00000100
00000010
00000100
00000001
00000100
00001000
,
00000002
00000000
00000000
00000000
,
00001003
00000000
00001100
00000000
00000100
00000010
00000001
00000010
,
00000100
00000000
00001100
00000000
00000010
00000100
00000001
00000100
,
00001000
00000100
00000001
00000100
00000010
00000000
00001010
00000000
,
00001000
00010000
00100000
00010000
00001000
00000100
00001000
00010000
,
00100000
00000000
01100000
00000000
00010000
01000000
00100000
01000000
,
00010000
00000000
00110000
00000000
00100000
01000000
10000000
01000000
,
00100000
00000000
00010000
01000000
00020000
00000000
00000000
00000000
,
00100000
00000000
00000000
00000000
00000000
00000000
00000000
00000000
00000000
00000000
00000000
00000000
00000000
00000000
00000000
00000000
00000000
00000000
00000000
00000000
00000000
00000000
00000000
00000000
00000000
00000000
00000000
00000000
00000000
00000000
00000000
00000000
00000000
00000000
00000000
00000000
00000000
00000000
00000000
00000000
00000000
00000000
00000000
00000000
00000000
00000000
00000000
00000000
00000000
00000000
00000000
00000000
00000000
00000000
00000000
00000000
00000000
00000000
00000000
00000000
00000000
00000000
00000000
00000000
00000000
00000000
00000000
00000000
00000000
00000000
00000000
00000000
00000000
00000000
00000000
00000000
00000000
00000000
00000000
00000000
00000000
00000000
00000000
00000000
00000000
00000000
00000000
00000000
00000000
00000000
00000000
00000000
00000000
00000000
00000000
00000000
01000000
00000000
00000000
00000000
00000000
00000000
00000000
00000000
00000000
00000000
00000000
00000000
00000000
00000000
00000000
00000000
00000000
00000000
00000000
00000000
00000000
00000000
00000000
00000000
00000000
00000000
00000000
00000000
00000000
00000000
00000000
00000000
00000000
00000000
00000000
00000000
00000000
00000000
00000000
00000000
00000000
00000000
00000000
00000000
00000000
00000000
00000000
00000000
00000000
00000000
00000000
00000000
00000000
00000000
00000000
00000000
00000000
00000000
00000000
00000000
00000000
00000000
00000000
00000000
00000000
00000000
00000000
00000000
00000000
00000000
00000000
00000000
00000000
00000000
00000000
00000000
00000000
00000000
00000000
00000000
00000000
00000000
00000000
00000000
00000000
00000000
00000000
00000000
00000000
00000000
00000000
00000000
00000000
00000000
00000000
00030000
,
00100000
00000000
00011000
00000000
00000100
00001000
00000010
00001000
,
00000100
00000000
00000110
00000000
00000001
00000100
00000010
00000100
,
00000001
00000100
00001000
00010000
00001000
00000000
00011000
00000000
,
00010000
00001000
00000010
00001000
00010000
01000000
00010000
00001000
,
00000010
00000000
00000110
00000000
00000001
00000100
00000010
00000100
,
00000001
00000000
00000011
00000000
00000010
00000100
00001000
00000100
,
00000020
00000000
00000000
00000000
00000031
00000100
00001000
00010000
,
00001000
00000100
00000001
00000100
00000010
00001000
00000010
00000100
,
00000001
00000000
00001001
00000000
00000100
00010000
00001000
00100000
,
00010000
00000000
10010000
00000000
01000000
00001000
00010000
00000010
,
00000100
00001000
00000100
00000010
00001000
00010000
00001000
00000010
,
00001000
00000100
00010000
00001000
00100000
00001000
00010000
00000000
,
00100000
00000000
10010000
00000000
01000000
00001000
00010000
00000010
,
00001000
00000000
00001001
00000000
00000100
00010000
00001000
00100000
,
01000000
00010000
01000000
00100000
00010000
00001000
00010000
00100000
,
00010000
01000000
00001000
00010000
00100000
00010000
00001000
00000100
,
00000010
00000000
00000000
00000000
,
00000000
00000000
00000000
00000000
;
