#TITLE:星屑のキロク;
#ARTIST:小野秀幸;
#TITLETRANSLIT:Hoshikuzu no kiroku;
#ARTISTTRANSLIT:Hideyuki Ono;
#BANNER:Hoshikuzu no kiroku.png;
#BACKGROUND:Hoshikuzu no kiroku-bg.png;
#CDTITLE:./CDTITLES/DDR (2014).png;
#MUSIC:Hoshikuzu no kiroku.ogg;
#SAMPLESTART:47.44;
#SAMPLELENGTH:15;
#BPMS:0=182;
#NOTES:
     dance-single:
     :
     Beginner:
     3:
     :
0000
0000
0000
0000
,
0000
0000
0000
0000
,
0000
0000
0000
0000
,
0000
0000
0000
0000
,
0000
0000
0000
0000
,
0000
0000
0000
0000
,
0000
0000
0001
0000
,
0000
0000
0000
0000
0000
0000
0000
1000
,
0000
0000
0000
0000
,
0000
0010
0000
0000
,
0000
0000
0000
0000
0000
0100
0000
0000
,
0000
0000
0000
0000
,
0001
0000
0001
0000
,
0010
0000
0000
0000
,
1000
0000
1000
0000
,
0010
0000
0000
0000
,
0001
0000
0001
0000
,
0100
0000
0000
0000
,
1000
0000
1000
0000
,
0100
0000
0000
0000
,
0002
0000
0003
0000
,
0020
0000
0030
0000
,
2000
0000
3000
0000
,
0000
0000
0000
0000
,
2000
0000
3000
0000
,
0020
0000
0030
0000
,
0002
0000
0003
0000
,
2000
0000
3000
0000
,
0001
0000
0001
0000
,
0010
0000
0010
0000
,
0100
0000
0100
0000
,
1000
0000
0000
0000
,
1000
0000
1000
0000
,
0010
0000
0010
0000
,
0100
0000
0100
0000
,
0001
0000
1000
0000
,
0001
0000
0000
0000
,
0001
0001
0001
0000
,
0010
0000
0000
0000
,
0010
0010
0010
0000
,
1000
0000
0000
0000
,
1000
1000
1000
0000
,
0100
0000
0000
0000
,
0100
0100
0100
0000
,
0001
0000
0000
0000
,
1000
0000
1001
0000
,
0001
0000
0000
0000
,
0010
0010
0010
0000
,
1000
0000
0000
0000
,
0010
0010
0010
0000
,
0001
0000
0000
0000
,
0100
0100
0100
0000
,
1000
0000
0000
0000
,
0100
0100
0100
0000
,
0001
0000
0010
0000
,
0001
0000
0001
0000
,
1000
0000
0010
0000
,
1000
0000
1000
0000
,
0001
0000
0000
0000
,
1000
0000
0000
0000
,
0001
0000
1000
0000
,
1001
0000
0000
0000
,
0001
0000
1000
0000
,
1001
0000
0000
0000
,
0010
0000
0000
0000
,
0100
0000
0000
0000
,
0001
0000
0000
0000
,
0000
0000
0000
1000
0000
0000
0000
0000
,
0000
0000
0000
0010
,
0000
0000
0000
0000
,
0000
0100
0000
0000
0000
0000
0000
0000
,
0000
0000
0001
0000
,
0000
0000
0000
0000
0000
0000
0000
1000
,
0000
0000
0000
0000
,
0000
0010
0000
0000
,
0000
0000
0000
0000
0000
0100
0000
0000
,
0000
0000
0000
0000
,
0000
0000
0000
1001
,
0000
0000
0000
0000
;
#NOTES:
     dance-single:
     :
     Easy:
     6:
     :
0000
0000
0000
0000
,
0000
0000
0000
0000
,
0000
0000
0000
0000
,
0000
0000
0000
0000
,
0000
0000
0000
0000
,
0000
0000
0000
0000
,
0000
0000
0001
0010
,
0010
0000
0010
0000
0100
0000
0000
1000
,
0000
0010
0000
0010
0000
0010
0010
0000
,
0000
0001
0010
0010
,
0010
0000
0100
0000
0000
1000
0000
0010
,
0000
0010
0000
0010
0010
0000
0000
0000
,
0001
0100
0010
2000
,
0100
0001
0100
3001
,
0100
1000
0010
0001
,
0100
1000
0100
0000
,
1000
0100
0010
0002
,
0100
1000
0100
1003
,
0100
0001
0010
1000
,
0100
0001
0100
0000
,
1001
0010
0000
0010
,
1000
0010
0000
0010
,
0100
1000
0000
1000
,
0000
1000
0000
1000
,
1001
0010
0000
0010
,
0001
0010
0000
0010
,
0200
0300
2000
3000
,
0020
0030
0200
0300
,
0001
0010
0100
0000
,
0001
0100
1000
0100
,
0001
0100
1000
0000
,
0001
0010
1000
0000
,
1000
0100
0010
0000
,
0100
0010
1000
0010
,
0001
0000
1000
0000
,
0100
0000
1001
0000
,
1000
0010
0001
0000
,
0100
0010
1000
0100
,
1000
0001
1000
0000
,
0001
1000
0001
0000
,
0001
0010
1000
0000
,
0100
0010
0001
0100
,
0001
1000
0001
0000
,
1000
0001
1000
0000
,
0010
0100
1000
0010
,
0100
0001
1000
0000
,
0002
0000
0000
0003
,
0010
0001
0100
0010
,
1000
0001
2000
0000
,
0000
3000
0100
0100
,
0020
0000
0000
0030
,
0001
0010
0100
1000
,
0020
0000
0200
0000
,
0000
0000
0000
0330
,
0001
1000
0010
0000
,
1000
0001
0100
0010
,
1000
0100
0010
0000
,
0001
0100
0010
0000
,
2000
0000
0010
3010
,
0002
0000
0010
0013
,
1000
0000
0001
0000
,
0100
0000
0001
0001
,
1000
0000
0001
0000
,
0010
0000
0100
0100
,
2000
0000
0000
3000
,
0002
0000
0000
0003
,
0220
0000
0000
0330
,
2002
3003
0000
0220
0000
0000
0000
0330
,
0000
1000
0002
0000
0003
0000
0220
0000
,
0000
0000
0000
0000
0330
0000
2002
3003
,
0000
0220
0000
0000
0000
0330
0000
0001
,
2000
3000
0001
0010
,
0010
0000
0010
0000
0100
0000
0000
1000
,
0000
0010
0000
0010
0000
0010
0010
0000
,
0000
0001
0010
0010
,
0010
0000
0100
0000
0000
1000
0000
0010
,
0000
0010
0000
0010
0010
0000
0010
0000
,
0000
0000
0000
2002
,
0000
0000
0000
0000
,
0000
0000
0000
0000
,
0000
0000
3003
0000
,
0000
0000
0000
0000
;
#NOTES:
     dance-single:
     :
     Medium:
     9:
     :
0000
0000
0000
0000
,
0000
0000
0000
0000
,
0000
0000
0000
0000
,
0000
0000
0000
0000
,
0000
0000
0000
0000
,
0000
0000
0000
0000
,
0000
0000
0000
0000
1000
0000
0001
0010
,
0000
1000
0010
0000
0001
0000
0001
1000
,
0000
0001
0010
0000
1000
0010
0000
0001
,
0000
0001
1000
0000
0001
0100
0000
1000
,
0100
0000
0001
0000
0001
1000
0000
0001
,
0100
0000
1000
0100
0000
0001
0000
0001
,
1000
0010
0100
0001
,
0010
0001
0100
0000
0010
1000
0100
0000
,
0010
0001
0100
1000
,
0010
0100
0001
0000
0010
0100
1000
0000
,
0010
1000
0100
0001
,
0010
0001
1000
0000
0010
1000
0001
0000
,
0100
0001
0010
1000
,
0001
1000
0100
0000
1000
0000
0001
0000
,
1020
0100
0000
0130
,
0001
0100
0000
0010
0000
1000
0000
0100
,
0010
0000
0001
2000
0000
0000
0100
0000
,
0000
0100
0000
3100
,
0021
0100
0000
0130
,
1000
0100
0000
0010
0000
0001
0000
0100
,
0020
0000
0000
2030
0000
0000
3002
0000
,
0000
0023
0000
0000
0230
0000
0000
0000
,
1300
0100
0010
0001
,
1000
0100
0010
0000
0001
0100
0010
0000
,
1000
0010
0001
0100
,
1000
0000
0100
0000
0001
0100
1000
0000
,
0001
0010
0100
1000
,
0010
0001
0100
0000
0010
1000
0100
0000
,
1000
0000
0001
0100
0000
0100
0010
0000
,
0010
1000
0000
1000
0001
1000
0000
0000
,
0011
0100
1000
0010
,
0201
1000
0001
1300
,
0001
0000
1000
0100
0001
0000
1000
0000
,
0001
0000
1000
0100
0001
0000
1000
0000
,
1010
0100
0001
0010
,
1200
0001
1000
0301
,
1000
0000
0001
0100
1000
0000
0001
0000
,
1000
0000
0001
0100
1000
0000
0001
0000
,
0010
1001
0010
1001
,
1100
0000
0101
0000
1000
0001
0000
0000
,
2000
0000
0010
0000
0010
3000
0010
0200
,
0000
0302
0000
2003
0000
3200
0000
0320
,
0000
0032
0000
2000
0000
0000
0000
0000
,
0000
0000
3003
0000
0010
1000
0001
0010
,
0200
0000
0010
0000
0310
0000
0100
2000
,
0000
3200
0000
0320
0000
0032
0000
0203
,
0000
0000
0000
0020
0000
0000
0000
0000
,
0000
0000
0330
0001
,
1000
0100
1000
0000
0001
0100
0001
0000
,
0010
1000
0001
0010
,
0100
1000
0100
0000
0010
0001
0010
0000
,
0001
0100
1000
0010
,
2010
3001
0012
1003
,
0102
1003
2100
3001
,
0000
0100
0100
0000
0010
0010
0000
1000
,
2000
0000
0001
3001
,
0000
0010
0010
0000
0001
0001
0000
1000
,
2000
0000
0010
3010
,
0200
0010
0010
0310
,
2002
0000
0000
3003
,
0022
0000
0000
0033
,
0220
0330
0000
2200
0000
0000
0000
3300
,
0000
0002
2000
0000
3003
0000
2020
0000
,
0000
0000
0000
0000
3030
0000
0220
0330
,
0000
0202
0000
0000
0000
0303
0000
2000
,
0002
0000
3003
0000
0001
0000
1000
0100
,
0000
0001
0100
0000
1000
0000
1000
0001
,
0000
1000
0100
0000
0001
0100
0000
1000
,
0000
1000
0001
0000
1000
0010
0000
0001
,
0010
0000
1000
0000
1000
0001
0000
1000
,
0010
0000
0001
0010
0000
1000
0000
1000
,
0000
0000
0000
0220
,
0000
0000
0000
0000
,
0000
0000
0000
0000
,
0000
0000
0330
0000
,
0000
0000
0000
0000
;
#NOTES:
     dance-single:
     :
     Hard:
     11:
     :
0000
0000
0000
0000
,
0000
0000
0000
0000
,
0000
0000
0000
0000
,
0000
0000
0000
0000
,
0000
0000
0000
0000
,
0000
0000
0000
0000
,
0000
0000
0000
0000
0001
0010
0100
1000
,
0000
0001
0100
0010
1000
0010
0100
0001
,
0010
0100
1000
0000
0001
0100
0010
1000
,
0010
0100
0001
1000
0100
0010
0000
0001
,
1000
0010
0100
0010
1000
0001
1000
0100
,
0010
0000
0001
1000
0010
0100
0010
1000
,
0001
0010
0100
1000
,
0010
1000
0100
0000
0010
0001
0100
0000
,
0010
1000
0100
0001
,
0010
0100
1000
0000
0010
0100
0001
0000
,
0010
0001
0100
1000
,
0010
1000
0001
0000
0010
0001
1000
0000
,
0100
1000
0010
0001
,
1000
0001
0100
0000
0010
0100
0001
0000
,
0021
0100
0000
0130
,
1000
0200
0000
0320
0000
0032
0000
0103
,
0010
0000
1000
0002
0000
0000
0100
0000
,
0000
0100
0000
0103
,
1020
0100
0000
0130
,
0001
0200
0000
0320
0000
2030
0000
3100
,
0010
0000
0020
0001
0000
0032
1000
0000
,
2003
0010
0000
3020
0100
0000
0230
0000
,
0301
0100
1000
0000
0001
0100
1000
0000
,
0001
0100
0010
1000
0100
0010
0001
0000
,
1100
0000
0001
0100
0000
0010
0000
1000
,
0000
0100
0000
0010
0001
1000
0100
0000
,
1000
0100
0001
0000
1000
0100
0001
0000
,
1000
0100
0010
0001
0100
0010
1000
0000
,
0101
0000
2000
0100
0000
3200
0010
0000
,
0320
0001
0000
0031
1000
0001
0000
0000
,
1010
0000
0000
0010
0100
0000
0000
0100
0001
0000
0000
0001
0010
0000
0000
0000
,
1200
0001
1000
0301
,
1000
0010
0001
0100
1000
0100
0001
0000
,
1000
0100
0001
0010
1000
0010
0001
0000
,
0011
0000
0000
0010
0100
0000
0000
0100
1000
0000
0000
1000
0010
0000
0000
0000
,
0201
1000
0001
1300
,
0001
0010
1000
0100
0001
0100
1000
0000
,
0001
0100
1000
0010
0001
0010
1000
0000
,
0101
0100
0100
0000
1100
0100
0100
0000
,
0101
0000
1100
0000
0001
1000
0000
0000
,
0002
0000
0010
0000
0013
0001
0010
0200
,
0000
2300
0000
3002
0000
0203
0000
0320
,
0000
1000
0000
0200
0000
0000
0000
0000
,
0000
0000
0330
0000
0001
1000
0100
0010
,
0200
0000
0001
0000
0010
0000
1300
0002
,
0000
0203
0000
0320
0000
2030
0000
3200
,
0000
0000
0000
0020
0000
0000
0000
0000
,
0000
0000
0330
1000
,
0001
0100
0001
0100
0010
1000
0100
0000
,
0010
0001
0010
0001
1000
0100
0010
0000
,
0001
0100
1000
0000
0001
0100
1000
0000
,
1000
0100
0001
0000
1000
0100
0001
0000
,
0011
1000
1010
0001
,
1100
0001
0101
1000
,
0100
0010
0010
0000
1000
1000
0000
0100
,
0200
0000
0310
1001
,
0100
0010
0010
0000
0001
0001
0000
0100
,
0200
0000
0310
1001
,
0020
0000
0100
0100
0100
0100
0130
0000
,
2002
0000
0000
3003
,
2020
0000
0000
3030
,
0220
0330
0000
0202
0000
0000
0000
0303
,
0000
1000
2002
0000
3003
0000
0022
0000
,
0000
0000
0000
0000
0033
0000
0220
0330
,
0000
2200
0000
0000
0000
3300
0000
0001
,
2002
0000
3003
0000
1000
0010
0100
0001
,
0000
1000
0100
0010
0001
0010
0100
1000
,
0010
0100
0001
0000
1000
0100
0010
0001
,
0010
0100
1000
0001
0100
0010
0000
1000
,
0001
0010
0100
0010
0001
1000
0001
0100
,
0010
0000
1000
0001
0010
0100
0010
0001
,
0000
0000
0000
2002
,
0000
0000
0000
0000
,
0000
0000
0000
0000
,
0000
0000
3003
0000
,
0000
0000
0000
0000
;
#NOTES:
     dance-double:
     :
     Easy:
     6:
     :
00000000
00000000
00000000
00000000
,
00000000
00000000
00000000
00000000
,
00000000
00000000
00000000
00000000
,
00000000
00000000
00000000
00000000
,
00000000
00000000
00000000
00000000
,
00000000
00000000
00000000
00000000
,
00000000
00000000
00001000
00000010
,
00000010
00000000
00000010
00000000
00000100
00000000
00000000
00000001
,
00000000
00000010
00000000
00000010
00000000
00000010
00000010
00000000
,
00000000
00000100
00010000
00010000
,
00010000
00000000
00001000
00000000
00000000
01000000
00000000
00010000
,
00000000
00010000
00000000
00010000
00010000
00000000
00000000
00000000
,
10000000
00100000
01000000
00010000
,
10000000
10000000
00010000
00010000
,
00100000
00001000
00010000
00001000
,
00000100
00000001
00000100
00000000
,
00000001
00001000
00000100
00000010
,
00000001
00000001
00000100
00000100
,
00001000
00010000
00100000
01000000
,
00010000
10000000
01000000
00000000
,
10000000
00100000
00000000
00100000
,
01000000
00100000
00000000
00100000
,
01000000
00010000
00000000
00010000
,
00000000
00001000
00000000
00001000
,
00010000
00001000
00000000
00001000
,
00000010
00001000
00000000
00001000
,
00000010
00000000
00000001
00000000
,
00000100
00000000
00000010
00000000
,
00001000
00000010
00000100
00000000
,
00000010
00000100
00001000
00010000
,
01000000
10000000
00010000
00000000
,
00100000
00010000
10000000
00000000
,
00100000
01000000
00010000
00000000
,
10000000
01000000
00010000
00001000
,
00010000
00000000
00000100
00000000
,
00000010
00000000
00001001
00000000
,
00000001
00000010
00000100
00000000
,
00000010
00000010
00000001
00000001
,
00000100
00000010
00001000
00000000
,
00010000
00001000
00010000
00000000
,
01000000
00100000
00010000
00000000
,
10000000
10000000
00100000
00100000
,
01000000
00010000
00100000
00000000
,
01000000
10000000
00100000
00000000
,
10000000
01000000
00100000
01000000
,
00010000
00001000
00010000
00000000
,
00002000
00000000
00000000
00003000
,
00001000
00000100
00000001
00000010
,
00000100
00001000
00000002
00000000
,
00000000
00000003
00000100
00000100
,
00000020
00000000
00000000
00000030
,
00000100
00001000
00010000
01000000
,
20000000
00000000
00020000
00000000
,
00000000
00000000
00000000
30030000
,
00100000
00010000
10000000
00000000
,
00100000
10000000
01000000
00100000
,
00010000
10000000
00010000
00000000
,
01000000
00001000
00010000
00000000
,
00000010
00000000
00001000
00000000
,
00000100
00000000
00000001
00000000
,
00000001
00000000
00001000
00000000
,
00000100
00000000
00001000
00001000
,
00000001
00000000
00000100
00000000
,
00001000
00000000
00010000
00010000
,
00002000
00000000
00000000
00003000
,
00020000
00000000
00000000
00030000
,
02200000
00000000
00000000
03300000
,
20020000
30030000
00000000
02200000
00000000
00000000
00000000
03300000
,
00000000
10000000
00020000
00000000
00030000
00000000
02200000
00000000
,
00000000
00000000
00000000
00000000
03300000
00000000
20020000
30030000
,
00000000
02200000
00000000
00000000
00000000
03300000
00000000
00010000
,
20000000
30000000
00010000
00100000
,
00100000
00000000
00100000
00000000
01000000
00000000
00000000
10000000
,
00000000
00100000
00000000
00100000
00000000
00100000
00100000
00000000
,
00000000
01000000
00001000
00001000
,
00001000
00000000
00010000
00000000
00000000
00000100
00000000
00001000
,
00000000
00001000
00000000
00001000
00001000
00000000
00000010
00000000
,
00000000
00000000
00000000
00002002
,
00000000
00000000
00000000
00000000
,
00000000
00000000
00000000
00000000
,
00000000
00000000
00003003
00000000
,
00000000
00000000
00000000
00000000
;
#NOTES:
     dance-double:
     :
     Medium:
     10:
     :
00000000
00000000
00000000
00000000
,
00000000
00000000
00000000
00000000
,
00000000
00000000
00000000
00000000
,
00000000
00000000
00000000
00000000
,
00000000
00000000
00000000
00000000
,
00000000
00000000
00000000
00000000
,
00000000
00000000
00000000
00000000
00002000
00000000
00203000
00010000
,
00000000
00302000
00010000
00000000
00203000
00010000
00000000
00302000
,
00000000
02003000
00010000
00000000
03002000
00010000
00000000
01003000
,
00020000
00000000
00230000
00000000
00302000
00010000
00000000
00203000
,
00010000
00000000
00301000
00020000
00000000
00030020
00000000
00020030
,
00001000
00000000
00030020
00001000
00000000
00010030
00001000
00000000
,
00010000
01000000
10000000
00100000
,
10000000
00010000
01000000
00000000
00100000
10000000
01000000
00000000
,
00010000
00001000
00000010
00000001
,
00001000
00000010
00000100
00000000
00000001
00001000
00000100
00000000
,
00000010
00000001
00000010
00001000
,
00010000
00001000
00010000
00000000
01000000
10000000
00010000
00000000
,
01000000
00100000
10000000
01000000
,
00100000
00010000
01000000
00000000
00001000
00000000
00010000
00000000
,
00021000
00000010
00000000
00030010
,
00001000
00000010
00000000
00000100
00000000
00000001
00000000
00000010
,
00000100
00000000
00001000
00000200
00000000
00000000
00010000
00000000
,
00000000
00010000
00000000
00010300
,
00012000
00100000
00000000
00103000
,
00010000
00100000
00000000
01000000
00000000
10000000
00000000
00100000
,
20000000
00000000
00000000
32000000
00000000
00000000
03200000
00000000
,
00000000
00320000
00000000
00000000
00032000
00000000
00000000
00000000
,
00003100
00000010
00000001
00000100
,
00000010
00001000
00000001
00000000
00001000
00000001
00000100
00000000
,
00001000
00010000
01000000
10000000
,
00010000
00000000
01000000
00000000
00100000
01000000
00010000
00000000
,
10000000
00100000
01000000
00010000
,
10000000
01000000
00100000
00000000
00001000
00010000
00001000
00000000
,
00010000
00000000
00000010
00001000
00000000
00001000
00000100
00000000
,
00000100
00000010
00000000
00000010
00000001
00001000
00000000
00000000
,
00000010
00001000
00000100
00000010
,
00000101
00001100
00000101
00001100
,
00000001
00000100
00001000
00010000
,
00110000
10100000
00110000
10100000
,
10000000
01000000
00010000
00001000
,
00101000
00110000
00101000
00110000
,
00001000
00000100
00000001
00000010
,
00000110
00001001
00000110
00001001
,
00000010
00001000
00000010
00000000
00000100
00000001
00000100
00000000
,
00000001
00000000
00000010
00000000
00001000
00010000
00000000
00000000
,
00002000
00000000
01000000
00000000
01000000
00003000
01000000
00020000
,
00000000
20030000
00000000
30020000
00000000
00230000
00000000
02300000
,
00000000
23000000
00000000
00020000
00000000
00000000
00000000
00000000
,
00000000
00000000
30030000
00000000
01000000
00100000
10000000
01000000
,
00020000
00000000
00001000
00000000
00031000
00000000
00010000
00000020
,
00000000
00000230
00000000
00000320
00000000
00002030
00000000
00003200
,
00000000
00000000
00000000
00000020
00000000
00000000
00000000
00000000
,
00000000
00000000
00000330
00000001
,
00001000
00000100
00000010
00000000
00000001
00000100
00000010
00000000
,
00010000
00001000
00000100
00000010
,
00010000
00001000
00100000
00000000
00010000
10000000
00100000
00000000
,
10000000
01000000
00010000
00100000
,
00002000
00100000
00023000
00100000
,
00032000
00100000
00023000
00100000
,
00030000
00001000
00001000
00000000
00000100
00000100
00000000
00000001
,
00000002
00000000
00001000
00001003
,
00000000
00000010
00000010
00000000
00010000
00010000
00000000
00001000
,
00002000
00000000
01000000
01003000
,
00200000
01000000
01000000
01300000
,
20020000
00000000
00000000
30030000
,
20200000
00000000
00000000
30300000
,
02200000
03300000
00000000
02020000
00000000
00000000
00000000
03030000
,
00000000
00002000
00020000
00000000
00033000
00000000
00002200
00000000
,
00000000
00000000
00000000
00000000
00003300
00000000
00000220
00000330
,
00000000
00002002
00000000
00000000
00000000
00003003
00000000
00000020
,
00002000
00000000
00003030
00000000
00020000
00000000
00030020
00001000
,
00000000
00020030
00001000
00000000
00030020
00001000
00000000
00020030
,
00000000
00030200
00001000
00000000
00020300
00001000
00000000
00030100
,
00002000
00000000
00003020
00000000
00020030
00001000
00000000
00030020
,
00001000
00000000
00010030
00002000
00000000
00203000
00000000
00302000
,
00010000
00000000
00203000
00010000
00000000
00301000
00010000
00000000
,
00000000
00000000
00000000
00022000
,
00000000
00000000
00000000
00000000
,
00000000
00000000
00000000
00000000
,
00000000
00000000
00033000
00000000
,
00000000
00000000
00000000
00000000
;
#NOTES:
     dance-double:
     :
     Hard:
     12:
     :
00000000
00000000
00000000
00000000
,
00000000
00000000
00000000
00000000
,
00000000
00000000
00000000
00000000
,
00000000
00000000
00000000
00000000
,
00000000
00000000
00000000
00000000
,
00000000
00000000
00000000
00000000
,
00000000
00000000
00000000
00000000
00000001
00000100
00000010
00001000
,
00000000
00000100
00010000
00000010
00001000
00000010
00010000
00001000
,
00010000
01000000
10000000
00000000
00010000
01000000
00100000
10000000
,
01000000
00100000
00001000
00100000
01000000
00100000
00000000
00010000
,
01000000
00001000
00010000
00000100
00000010
00000001
00000100
00000010
,
00000100
00000000
00001000
00000100
00000001
00000010
00000100
00001000
,
00000001
00000100
00001000
00010000
,
00001000
00010000
01000000
00000000
00010000
01000000
10000000
00000000
,
10000000
00100000
00010000
00001000
,
00010000
00001000
00000010
00000000
00001000
00000010
00000001
00000000
,
00000010
00000001
00001000
00000100
,
00000010
00001000
00010000
00000000
00001000
00010000
01000000
00000000
,
00100000
10000000
00010000
01000000
,
00100000
00010000
00001000
00000000
00010000
00001000
00000100
00000000
,
00001020
00000100
00000000
00000130
,
00000001
00002000
00000000
00003200
00000000
00000320
00000000
00001030
,
00010000
00000000
00001000
02000000
00000000
00000000
00010000
00000000
,
00000000
00010000
00000000
03010000
,
00210000
01000000
00000000
01300000
,
10000000
00020000
00000000
02030000
00000000
03200000
00000000
00310000
,
00001000
00000000
00002000
00000100
00000000
00003200
00000001
00000000
,
00000302
00000010
00000000
00000023
00000100
00000000
00000230
00000000
,
00001300
00000100
00000010
00000000
00000001
00000100
00000010
00000000
,
00001000
00000010
00000100
00000010
00010000
00001000
01000000
00000000
,
01100000
00000000
10000000
01000000
00000000
00100000
00010000
01000000
,
00000000
00100000
10000000
01000000
00000000
00010000
00001000
00000000
,
00000010
00000100
00001000
00000000
00000010
00000100
00001000
00000000
,
00001000
00000100
00000001
00000100
00000010
00000001
00000100
00000000
,
00000010
00000000
00000020
00010000
00000000
00020030
00100000
00000000
,
00230000
10000000
00000000
10300000
00010000
10000000
00000000
00000000
,
10100000
00000000
00000000
00100000
01000000
00000000
00000000
01000000
00010000
00000000
00000000
00010000
00100000
00000000
00000000
00000000
,
00012000
00100000
00010000
00103000
,
00001000
00100000
01000000
00100000
00001000
00000000
00001000
01000000
,
00100000
01000000
00001000
00000000
00001000
00010000
00000010
00000000
,
00000011
00000000
00000000
00000010
00000100
00000000
00000000
00000100
00001000
00000000
00000000
00001000
00000010
00000000
00000000
00000000
,
00021000
00000010
00001000
00030010
,
00010000
00000010
00000100
00000010
00010000
00000000
00010000
00000100
,
00000010
00000100
00010000
00000000
00010000
00001000
00100000
00000000
,
00010000
00100000
01000000
00000000
10000000
00100000
01000000
00000000
,
01010000
00000000
11000000
00000000
00010000
10000000
00000000
00000000
,
00200000
00000000
10000000
00000000
10300000
00100000
01000000
00020000
,
00000000
00230000
00000000
00302000
00000000
00023000
00000000
00030020
,
00000000
00000230
00000000
00000002
00000000
00000000
00000000
00000000
,
00000000
00000000
00000303
00000000
00001000
00000001
00000010
00000100
,
00002000
00000000
00000010
00000000
00000001
00000000
00003100
00020000
,
00000000
02030000
00000000
23000000
00000000
30020000
00000000
02030000
,
00000000
00000000
00000000
00200000
00000000
00000000
00000000
00000000
,
00000000
00000000
03300000
10000000
,
01000000
00100000
00010000
00100000
00001000
00010000
00000100
00000000
,
00000010
00000001
00001000
00000010
00000100
00000001
00001000
00000000
,
00000100
00000010
00000001
00000000
00000100
00000010
00001000
00000000
,
00000001
00000100
00001000
00000000
00010000
00001000
00010000
00000000
,
00002010
00000001
00000100
00013000
,
00120000
10000000
01000000
00031000
,
00000010
00001000
00001000
00000000
00000001
00000001
00000000
00000100
,
00000200
00000000
00001300
00011000
,
00100000
00010000
00010000
00000000
10000000
10000000
00000000
01000000
,
02000000
00000000
03010000
00011000
,
00000010
00000000
00000100
00000010
00000100
00000010
00000100
00000000
,
00002002
00000000
00000000
00003003
,
00000022
00000000
00000000
00000033
,
00000220
00000330
00000000
00002200
00000000
00000000
00000000
00003300
,
00000000
00010000
00002000
00000000
00003000
00000000
02020000
00000000
,
00000000
00000000
00000000
00000000
03030000
00000000
02200000
03300000
,
00000000
20200000
00000000
00000000
00000000
30300000
00000000
00010000
,
20000000
00000000
30000000
00000000
10000000
01000000
00100000
00010000
,
00000000
01000000
00001000
00100000
00010000
00100000
00001000
00010000
,
00001000
00000100
00000001
00000000
00001000
00000100
00000010
00000001
,
00000100
00000010
00010000
00000010
00000100
00000010
00000000
00001000
,
00000100
00010000
00001000
01000000
00100000
10000000
01000000
00100000
,
01000000
00000000
00010000
01000000
10000000
00100000
01000000
00010000
,
00000000
00000000
00000000
00022000
,
00000000
00000000
00000000
00000000
,
00000000
00000000
00000000
00000000
,
00000000
00000000
00033000
00000000
,
00000000
00000000
00000000
00000000
;
