#TITLE:†渚の小悪魔ラヴリィ~レイディオ†;
#ARTIST:夏色ビキニのPrim;
#TITLETRANSLIT:Nagisa no koakuma lovely~radio;
#ARTISTTRANSLIT:Natsuiro Bikini no Prim;
#BANNER:Nagisa no koakuma lovely~radio.png;
#BACKGROUND:Nagisa no koakuma lovely~radio-bg.png;
#CDTITLE:./CDTitles/jubeat saucer.png;
#MUSIC:Nagisa no koakuma lovely~radio.ogg;
#SAMPLESTART:26.211;
#SAMPLELENGTH:15;
#BPMS:0=190;

//---------------dance-single - ----------------
#NOTES:
     dance-single:
     :
     Beginner:
     2:
     :
0000
0000
0000
0000
,
0000
0000
0000
0000
,
0000
0000
0000
0000
,
0000
0000
0000
0000
,
0000
0000
0000
0000
,
1000
0000
1000
0000
,
1000
0000
0000
0000
,
0001
0000
0001
0000
,
0001
0000
0000
0000
,
1000
0000
1000
0000
,
1000
0000
0000
0000
,
0001
0000
0001
0000
,
0001
0000
0000
0000
,
1000
0000
1000
0000
,
0001
0000
0001
0000
,
1000
0000
1000
0000
,
1000
0000
0000
0000
,
0001
0000
0001
0000
,
1000
0000
1000
0000
,
0001
0000
0001
0000
,
0001
0000
0000
0000
,
0100
0000
0000
0000
,
1000
0000
1000
0000
,
1000
0000
1000
0000
,
0100
0000
0000
0000
,
0001
0000
0001
0000
,
0001
0000
0001
0000
,
0100
0000
0000
0000
,
0010
0010
0010
0000
,
0001
0000
0001
0000
,
1000
0000
1000
0000
,
0001
0000
0001
0000
,
0001
0000
0000
0000
,
1000
0000
1000
0000
,
0001
0000
0001
0000
,
1000
0000
1000
0000
,
1000
0000
0000
0000
,
0100
0000
0000
0100
,
0000
0000
0000
0000
,
0010
0000
0000
0010
,
0000
0000
0000
0000
,
1000
0000
1000
0000
,
1000
0000
0000
0000
,
0001
0000
0001
0000
,
0001
0000
0000
0000
,
1000
0000
1000
0000
,
0001
0000
0001
0000
,
1000
0000
1000
0000
,
1000
0000
0000
0000
,
0100
0000
0000
0100
,
0000
0000
0000
0000
,
0010
0000
0000
0010
,
0000
0000
0000
0000
,
0001
0000
0000
0000
,
0100
0000
0000
0000
,
1000
0000
0000
0000
,
0100
0000
0000
0000
,
0001
0000
0000
0000
,
0010
0000
0000
0000
,
1000
0000
0000
0000
,
0010
0000
0000
0000
,
0001
0000
0000
0000
,
0010
0010
0010
0000
,
0100
0000
0000
0000
,
1000
0000
1000
0000
,
0001
0000
0001
0000
,
0100
0000
0000
0000
,
0001
0000
0001
0000
,
1000
0000
1000
0000
,
0100
0000
0000
0000
,
0010
0010
0010
0000
,
1000
0000
1000
0000
,
0100
0000
0100
0000
,
1000
0000
1000
0000
,
0001
0000
0000
0000
,
0001
0000
0001
0000
,
0100
0000
0100
0000
,
0001
0000
0001
0000
,
0100
0000
0000
0000
,
0010
0000
0000
0010
,
0000
0000
0000
0000
,
0100
0000
0000
0100
,
0000
0000
0000
0000
,
0010
0000
0000
0000
,
0100
0100
0000
0000
,
0000
0000
0000
0000
;

//---------------dance-single - ----------------
#NOTES:
     dance-single:
     :
     Easy:
     6:
     :
0000
0000
0000
0000
,
0000
0000
0000
0000
,
0000
0000
0000
0000
,
0000
0000
0000
0000
,
0000
0000
0000
0000
,
0001
0000
0100
0000
,
1000
0100
1000
0000
,
0010
0000
0100
0000
,
0001
0100
0010
1000
,
0200
0010
0310
0000
,
0001
1000
0100
0000
,
1000
0000
0001
0000
,
1000
1000
0010
1000
,
0002
0000
0103
0000
,
2000
0000
3100
0000
,
0020
0000
0130
0000
,
0001
0100
1000
0010
,
0100
1000
0001
0100
,
0010
0001
0100
0010
,
0001
0100
1000
0100
,
0001
0001
0220
0330
,
0020
0001
0001
0031
,
0002
0100
0100
0103
,
0010
1000
0100
0001
,
0020
0000
0100
0130
,
0001
0010
1000
0100
,
0010
1000
0001
0010
,
0200
0000
1000
1300
,
0010
1000
0001
0100
,
0010
1000
0001
0010
,
1000
0100
0010
1000
,
0100
0001
0010
0001
,
2000
0000
0001
3001
,
1000
0010
0001
0100
,
1000
0010
1000
0100
,
0020
0000
0100
0130
,
0001
0000
0000
0001
0000
0000
0001
0000
,
0100
0100
0000
1000
,
1000
0000
0000
0000
,
0110
0110
0000
1001
,
1001
0000
0000
0000
,
1000
0000
0100
0000
,
1000
1000
0001
0000
,
0100
0000
0010
0000
,
1000
0100
1000
0100
,
0010
0000
0001
0000
,
0100
0000
0010
0000
,
1000
0010
1000
0010
,
0100
0100
0100
0100
,
0001
0001
0000
0100
,
0100
0000
0000
0000
,
1001
1001
0000
0110
,
0110
0000
0000
0000
,
0002
0000
1003
0000
,
2000
0000
3001
0000
,
0002
0000
1003
0000
,
2000
0000
3001
0000
,
0020
0000
1030
0000
,
0020
0000
0031
0000
,
0200
0000
0010
0310
,
0200
0000
0301
0000
,
0010
0100
0010
0100
,
1000
1000
0100
1000
,
0002
0010
0010
0010
,
0100
0100
0100
0103
,
0010
1000
0001
0010
,
0200
0000
1000
1300
,
0001
0010
0100
0001
,
1000
0010
1000
0001
,
0020
0000
0100
0130
,
1000
0100
0001
0010
,
1000
1000
0100
0010
,
0001
0001
0010
0100
,
1000
0100
0001
0010
,
2000
0000
0001
3001
,
0010
0100
0010
0100
,
0001
1000
0010
0100
,
0002
0000
0100
0103
,
1000
0000
0000
1000
0000
0000
1000
0000
,
0001
0001
0000
1000
,
1000
0000
0000
0000
,
1001
1001
0000
0110
,
0110
0000
0000
0000
,
1001
1001
0000
0010
,
0110
1001
0000
0000
,
0000
0000
0000
0000
;

//---------------dance-single - ----------------
#NOTES:
     dance-single:
     :
     Medium:
     11:
     :
0000
0000
0000
0000
,
0000
0000
0000
0000
,
0000
0000
0000
0000
,
0000
0000
0000
0000
,
0000
0000
0000
0000
,
0101
0010
1000
0001
,
0100
0001
0100
0000
0001
0000
0010
0000
,
0100
0100
1000
0010
,
0100
0100
0010
0000
1000
1000
0100
0000
,
1100
0020
0001
0000
,
0130
1000
0001
1000
,
0010
0010
0100
0001
,
1000
0100
1000
0000
0010
0100
0010
0000
,
2000
0001
3200
0001
,
2300
0010
3200
0010
,
1300
0001
0100
0010
,
1000
0001
0100
0000
0100
0010
1000
0000
,
0002
0010
0203
0010
,
0302
1000
0203
1000
,
0301
1000
0001
0000
1000
0001
1000
0000
,
0010
0100
0010
0100
0001
0000
1000
0000
,
0012
1000
0203
0310
,
2010
0001
3200
0320
,
1000
0100
0001
0100
,
1030
0000
0010
0000
0100
0010
0100
0000
,
0010
0001
0010
0001
0000
1000
0100
1000
,
0000
0000
0001
0000
0100
0000
0001
0000
0100
0000
0000
0100
0000
0000
0100
0000
,
0001
0000
1001
0000
0001
0100
0010
0000
,
0101
1100
0101
1010
,
1200
0001
2300
3010
,
0201
1000
0302
0023
,
1000
0100
0001
0100
,
1030
0000
0010
0000
0001
1000
0001
0000
,
0100
0001
0100
0001
0000
1000
0010
1000
,
0000
0000
0001
0000
0010
0000
0001
0000
0010
0000
0000
0010
0000
0000
0010
0000
,
0100
1000
1100
0101
,
0010
1000
0010
1000
0001
0100
0001
0100
,
0010
0010
0100
0010
0000
0000
0100
0100
,
0010
0100
0000
0000
1000
0000
0001
0000
,
1000
1000
0100
1000
0000
0000
0001
0001
,
0100
0001
0000
0000
0000
0000
0000
0000
,
2000
3200
0301
0010
,
0002
0203
1300
0010
,
0200
0001
1300
0001
,
0020
0000
1000
0000
0031
1000
0001
0000
,
0100
0011
0200
1000
,
0310
1100
0020
0001
,
0130
0100
0100
0100
,
1000
0100
1000
0100
0010
0001
0010
0001
,
0100
0100
0001
0100
0000
0000
0010
0010
,
1000
0010
0000
0000
0000
0000
0000
0000
,
0001
0001
0010
0001
0000
0000
1000
1000
,
0010
1000
0000
0000
0000
0000
0000
0000
,
0100
0000
0000
0010
0100
0000
0000
0000
,
0100
0010
0000
0010
0100
0000
0000
0000
,
0100
0000
0000
0010
0100
0000
0000
0000
,
0100
0010
0000
0010
0100
0000
0000
0000
,
0010
0000
0000
0010
0010
0000
0001
0000
,
0100
0100
0000
0100
0100
0000
1000
0000
,
0010
0010
0100
0100
,
0001
0010
1000
0100
,
0001
1000
0001
1000
0010
0100
0010
0100
,
0001
1000
0010
0100
0001
1000
0001
0000
,
2002
0000
0000
3000
,
0203
0010
0302
0023
,
1000
0100
0001
0100
,
1030
0000
0010
0000
0001
1000
0001
0000
,
0100
0001
0100
0001
0000
1000
0010
1000
,
0000
0000
0001
0000
0100
0000
0001
0000
0100
0000
0000
0100
0000
0000
0100
0000
,
0001
0000
1001
0000
0100
0010
1000
0000
,
1010
0011
1010
0011
,
1020
0001
2030
3100
,
0021
1000
0032
0203
,
1000
0010
0001
0010
,
1300
0000
0100
0000
0001
1000
0001
0000
,
0010
0001
0010
0001
0000
1000
0100
1000
,
0000
0000
0001
0000
0100
0000
0001
0000
0100
0000
0000
0100
0000
0000
0100
0000
,
0010
1000
1010
0011
,
0100
1000
0100
1000
0001
0010
0001
0010
,
0100
0100
0010
0100
0000
0000
0010
0010
,
0100
0010
0000
0000
1000
0000
0001
0000
,
1000
1000
0010
1000
0000
0000
0001
0001
,
0010
0001
0000
0000
0000
0000
0000
0000
,
1000
1000
0100
0010
0000
0001
0001
0100
,
0010
0010
1000
0010
0000
0000
0000
0000
,
0000
0000
0000
0000
;

//---------------dance-single - ----------------
#NOTES:
     dance-single:
     :
     Hard:
     16:
     :
0000
0000
0000
0000
,
0000
0000
0000
0000
,
0000
0000
0000
0000
,
0000
0000
0000
0000
,
0000
0000
0000
0000
,
0110
1000
0010
0000
0010
1000
0001
1000
,
0100
0010
0100
0000
0110
1000
0001
0010
,
0001
0100
0001
0000
0001
0100
0010
1000
,
0100
0100
1100
0000
0010
0010
0011
0000
,
0100
0000
0100
0020
0000
1030
0100
0000
,
1000
1000
0100
0020
0000
0031
0100
0001
,
1000
0000
1000
0010
1000
0001
0010
0100
,
1000
0000
0001
0000
1000
0000
0001
0000
0100
0000
0010
1000
0001
0000
0000
0000
,
0001
0000
0010
0000
0100
0000
0010
0000
0100
1000
0100
1000
0100
0000
0010
0000
,
0001
0000
0100
0000
0010
0000
0100
0000
0010
1000
0010
1000
0010
0000
1000
0000
,
0100
0000
1000
0000
0010
0000
1000
0000
0001
1000
0001
1000
0001
0000
0100
0000
,
0010
1000
1001
0000
0010
0001
1001
0000
,
1000
0000
0100
0000
0010
0000
0001
0000
1000
0100
1000
0100
0010
0000
0001
0000
,
0100
0000
0001
0000
1000
0000
0010
0000
0100
0001
0100
0001
1000
0000
0010
0000
,
1000
0100
0001
0100
1000
0100
0001
0100
,
1000
1000
1000
1000
1200
0000
0310
0000
,
0011
0001
0100
1000
0100
0001
0010
1000
,
0010
0001
0010
0001
1000
0100
0001
0100
,
1000
0000
1010
0100
0010
1000
0100
0010
,
0001
0000
1000
0100
2000
0000
0001
0000
0000
0000
3001
0100
0002
0000
0000
0000
,
0013
0100
1000
0010
0100
1000
0100
0001
,
0010
0000
0100
0000
1000
0000
0010
0000
0110
0000
0000
0001
0000
0000
1000
0000
,
1002
0000
0010
0000
0100
0100
0103
0000
,
0010
0000
1000
0100
1000
0000
0100
0000
0010
0000
0001
0010
0001
0000
0000
0000
,
1100
1000
0010
0001
0010
1000
0100
0001
,
0100
1000
0100
1000
0001
0010
1000
0010
,
0001
0000
0101
0010
0100
0001
0010
0100
,
1200
0000
0310
0001
0201
0000
0310
1000
,
0100
0010
0001
0100
0010
0001
0010
1000
,
0100
0000
0010
0000
0001
0000
0100
0000
0110
0000
0000
1000
0000
0000
0001
0000
,
1001
0100
0010
0001
0100
0010
0100
0010
,
1000
0010
1000
0010
0100
0001
0100
0001
0010
0100
0010
0100
1000
0001
1000
0001
,
0100
0100
0100
0100
0000
0000
0010
0010
,
0010
0010
0000
0000
0002
0003
2000
3000
,
0001
0001
0011
0011
0000
0000
1000
1000
,
1100
1100
0000
0000
0000
0000
0000
0000
,
1000
0010
1000
0001
0100
1000
0100
0001
,
1000
0010
0100
0001
0010
0001
1000
0100
,
0001
0100
0010
0001
0100
0010
0001
0010
,
1000
0000
0100
0000
0010
0000
0100
0000
1000
0000
0001
1000
0001
0000
1000
0000
,
0010
1000
0100
0010
1000
0010
0001
0100
,
0010
0100
0001
0010
0100
0001
0100
1000
,
0001
0001
0010
0010
0100
0100
1000
1000
,
0001
0100
0001
0100
0010
1000
0010
1000
0001
0010
0001
0010
0100
1000
0100
1000
,
0001
0001
0001
0001
0000
0000
1000
1000
,
1000
1000
0000
0000
0000
0000
0000
0000
,
0100
0100
0101
0101
0000
0000
0010
0010
,
1010
1010
0000
0000
0000
0000
0000
0000
,
0002
0000
0000
0100
0103
0000
0101
0000
,
2000
0100
0000
0100
3100
0000
1100
0000
,
0020
0000
0000
0001
0031
0000
1001
0000
,
0020
1000
0000
1000
1030
0000
1001
0000
,
0200
0000
0000
0001
0301
0000
0011
0000
,
0200
1000
0000
1000
1300
0000
1010
0000
,
0001
0100
1000
0010
,
0100
0001
0010
1000
,
1000
1000
1000
1000
0001
0001
0001
0001
,
1000
0100
1000
0010
0100
0010
1000
0100
0010
0001
0100
0010
1000
0000
0000
0000
,
1002
1000
1000
1003
0100
1000
0010
0001
,
0010
1000
0010
1000
0001
0100
1000
0100
,
0001
0000
0011
0100
0010
0001
0100
0010
,
1000
0000
0001
0100
0002
0000
0010
0000
0000
0000
1003
0100
2000
0000
0000
0000
,
3010
0100
0001
0010
0100
0001
0100
1000
,
0010
0000
0100
0000
0001
0000
0010
0000
0110
0000
0000
1100
0000
0000
0011
0000
,
2001
0000
0010
0000
0100
0100
3100
0000
,
0010
0000
0001
0100
0001
0000
0010
0001
0100
0000
0010
1000
0010
0000
0000
0000
,
0100
0001
0010
1000
0010
0001
0100
1000
,
0100
0001
0100
0001
1000
0010
0001
0010
,
1000
0000
1100
0010
0100
1000
0010
0100
,
0201
0000
0310
1000
1200
0000
0310
0001
,
0100
0010
1000
0100
0010
1000
0010
0001
,
0100
0000
0010
0000
1000
0000
0100
0000
0110
0000
0000
0101
0000
0000
1100
0000
,
1001
0100
0010
1000
0100
0010
0001
1000
,
0001
1000
0010
0100
0001
1000
0100
0010
0001
1000
0001
0100
0010
1000
0001
0100
,
0010
0010
0010
0010
0000
0000
0100
0100
,
0100
0100
0000
0000
2000
3000
0002
0003
,
1000
1000
1010
1010
0000
0000
0001
0001
,
0101
0101
0000
0000
0000
0000
0000
0000
,
0100
0110
0110
0110
0000
1000
1100
1100
,
0010
0011
0011
1001
0000
0000
0000
0000
,
0000
0000
0000
0000
;

//---------------dance-single - ----------------
#NOTES:
     dance-single:
     :
     Challenge:
     9:
     :
0000
0000
0000
0000
,
0000
0000
0000
0000
,
0000
0000
0000
0000
,
0000
0000
0000
0000
,
0000
0000
0000
0000
,
0110
MMMM
1000
0001
,
0100
0100
0001
0010
,
0100
0100
1000
0010
,
1100
MMMM
0101
MMMM
,
1000
1000
0001
0000
,
0001
0001
1000
0000
,
0010
0010
0100
0001
,
0110
MMMM
0110
MMMM
,
2000
0001
0100
0001
,
0010
0001
3100
MMMM
,
0002
1000
0100
1000
,
0013
MMMM
0110
MMMM
,
0002
0023
0130
MMMM
,
2000
3020
0130
MMMM
,
1001
1001
1001
1001
,
0100
0010
0100
0000
0100
0000
MMMM
0000
,
2002
0000
0000
3003
,
0020
0000
0000
0230
0000
0000
0310
0000
,
1000
0100
0010
0001
,
0020
0000
0000
0030
,
0001
0000
0000
1000
0000
0000
0001
0000
,
0000
1000
0000
0000
0110
0000
0100
0000
,
0200
0000
0001
0301
,
MMMM
1001
MMMM
0110
,
2000
0010
3002
0010
,
2003
0100
3002
0100
,
1003
0100
0010
0001
,
0100
MMMM
0010
MMMM
,
0100
0100
0010
0010
,
1000
0000
0000
0000
0001
0000
0000
0000
0010
0000
0000
0010
0000
0000
0010
0000
,
0020
0000
0000
0030
,
1010
0000
0000
1001
0000
0000
0101
0000
,
0001
0100
0001
0100
0000
0000
1000
0100
,
1000
0100
0000
0000
MMMM
0000
MMMM
0000
,
1000
0010
1000
0010
0000
0000
0001
0010
,
0001
0010
0000
0000
0000
0000
0000
0000
,
MMMM
MMMM
MMMM
MMMM
,
MMMM
MMMM
MMMM
MMMM
,
MMMM
MMMM
MMMM
MMMM
,
MMMM
MMMM
MMMM
MMMM
,
MMMM
MMMM
MMMM
MMMM
,
MMMM
MMMM
MMMM
MMMM
,
MMMM
MMMM
MMMM
MMMM
,
MMMM
MMMM
MMMM
MMMM
,
0001
0001
0100
0001
0000
0000
1000
1000
,
0100
1000
0000
0000
0000
0000
0000
0000
,
MMMM
MMMM
MMMM
MMMM
0000
0000
MMMM
MMMM
,
MMMM
MMMM
0000
0000
0000
0000
0000
0000
,
0100
0000
0000
0100
0100
0000
MMMM
0000
,
0010
0100
0000
0010
0100
0000
MMMM
0000
,
0100
0000
0000
0100
0100
0000
MMMM
0000
,
0010
0100
0000
0010
0100
0000
MMMM
0000
,
0100
0000
0000
0100
0100
0000
MMMM
0000
,
0010
0100
0000
0010
0100
0000
MMMM
0000
,
0010
0010
0100
MMMM
,
0010
0010
0100
MMMM
,
0010
1000
0100
0001
,
0010
1000
0100
0001
,
2002
0000
0000
3003
,
0200
0000
0000
0320
0000
0000
0130
0000
,
1000
0010
0100
0001
,
0020
0000
0000
0030
,
0100
0000
0000
0010
0000
0000
0100
0000
,
0000
0000
0010
0000
0100
0000
0000
0000
1000
0000
0000
1000
0000
0000
1000
0000
,
0020
0000
0100
0130
,
MMMM
1001
MMMM
0110
,
0020
1000
0230
0001
,
0320
1000
0230
0001
,
0310
1000
0001
0100
,
0010
MMMM
0100
MMMM
,
0010
0010
0100
0100
,
1000
0000
0000
0000
0001
0000
0000
0000
0010
0000
0000
0010
0000
0000
0010
0000
,
0020
0000
0000
0030
,
1100
0000
0000
1001
0000
0000
0011
0000
,
0001
0010
0001
0010
0000
0000
1000
0010
,
1000
0010
0000
0000
MMMM
0000
MMMM
0000
,
1000
0100
1000
0100
0000
0000
0001
0100
,
0001
0100
0000
0000
MMMM
0000
MMMM
0000
,
0010
0100
0010
0100
0000
0010
0100
0010
,
1000
0001
1000
0001
0000
0000
0000
0000
,
0000
0000
0000
0000
;

//---------------dance-double - ----------------
#NOTES:
     dance-double:
     :
     Easy:
     6:
     :
00000000
00000000
00000000
00000000
,
00000000
00000000
00000000
00000000
,
00000000
00000000
00000000
00000000
,
00000000
00000000
00000000
00000000
,
00000000
00000000
00000000
00000000
,
00001000
00001000
00001000
00000000
,
00010000
00010000
00010000
00000000
,
01000000
01000000
01000000
00000000
,
00010000
10010000
10000000
10010000
,
00100000
00100000
00100000
00000000
,
00001000
00001000
00001000
00000000
,
00000100
00000100
00000100
00000000
,
00000010
00000110
00000100
00000110
,
00000002
00000000
00001003
00000000
,
00000200
00000000
00010300
00000000
,
00200000
00000000
00301000
00000000
,
10000000
10000000
10010000
00100000
,
02000000
00000000
03100000
00000000
,
00020000
00000000
00031000
00000000
,
00000020
00000000
00000130
00000000
,
00000001
00001000
00002002
00003003
,
00000010
00000010
00000001
00000100
,
00001000
00001000
00010000
00100000
,
10000000
10000000
00010000
10000000
,
02000000
00000000
00100000
03100000
,
00010000
00001000
00010000
00100000
,
00010000
00001000
00000010
00000001
,
00000200
00000000
00000010
00000310
,
00000001
00001001
00000100
00000110
,
00001000
00001000
00010000
00100000
,
10000000
10000000
01000000
00010000
,
00001000
00001000
00000100
00000001
,
00000020
00000000
00000100
00000130
,
00001000
00000010
00010000
00000010
,
00001000
00000010
00010000
00001000
,
00022000
00000000
00000000
00033000
,
00010000
00000000
00000000
00001000
00000000
00000000
00010000
00000000
,
00000100
00000100
00000000
00010000
,
00010000
00000000
00000000
00000000
,
00001000
00001000
00000000
00100000
,
00100000
00000000
00000000
00000000
,
02000000
00000000
00000000
03000000
,
10000000
10000000
00010000
00010000
,
00100000
00000000
00100000
00000000
,
00001000
00010000
00001000
00010000
,
00000100
00000100
00000100
00000000
,
00000010
00000010
00000010
00000000
,
00000001
00000001
00000001
00000000
,
00000100
00000100
00001000
00001000
,
00010000
00010000
00000000
01000000
,
01000000
00000000
00000000
00000000
,
00001000
00001000
00000000
00000100
,
00000100
00000000
00000000
00000000
,
00002000
00000000
00003010
00000000
,
00000002
00000000
00000103
00000000
,
00002000
00000000
00013000
00000000
,
02000000
00000000
13000000
00000000
,
00200000
00000000
00310000
00000000
,
00002000
00000000
00003100
00000000
,
00000002
00000000
00000013
00000000
,
00002000
00000000
00003010
00000000
,
00000001
00000010
00000100
00001000
,
00010000
00100000
01000000
10000000
,
20020000
00000000
00000000
30030000
,
01000000
01000000
00100000
00100000
,
10000000
10000000
01000000
00010000
,
00002000
00000000
00010000
00013000
,
00000100
00001000
00000100
00000010
,
00000001
00000001
00001000
00001001
,
00000020
00000000
00000100
00000130
,
00001000
00010000
00001000
00010000
,
00100000
00100000
10000000
00010000
,
01000000
01000000
00001000
00010000
,
00000100
00000100
00001000
00000001
,
00000020
00000000
00000100
00000130
,
00000010
00000001
00000100
00001000
,
00010000
00100000
10000000
01000000
,
00020000
00000000
00001000
00031000
,
00010000
00000000
00000000
00001000
00000000
00000000
00010000
00000000
,
00100000
00100000
00000000
01100000
,
01100000
00000000
00000000
00000000
,
00000010
00000010
00000000
00000110
,
00000110
00000000
00000000
00000000
,
00001001
00001001
00000000
00001000
,
00010000
00011000
00000000
00000000
,
00000000
00000000
00000000
00000000
;

//---------------dance-double - ----------------
#NOTES:
     dance-double:
     :
     Medium:
     12:
     :
00000000
00000000
00000000
00000000
,
00000000
00000000
00000000
00000000
,
00000000
00000000
00000000
00000000
,
00000000
00000000
00000000
00000000
,
00000000
00000000
00000000
00000000
,
00011000
01000000
10000000
01000000
,
00010000
00001000
00010000
00000000
00001000
00000000
00000100
00000000
,
00000001
00000100
00001000
00010000
,
00000010
00000100
00001000
00000000
00100000
01000000
00010000
00000000
,
00011000
02000000
00010000
13000000
,
00200000
00010000
00001000
00310000
,
00002000
00000010
00023000
01000000
,
00031000
00000100
00000001
00000100
00000001
00000100
00000001
00000000
,
00000200
00000001
00000320
00000001
,
00002030
00010000
00203000
00010000
,
20300000
01000000
30020000
01000000
,
00130000
00001000
00010000
00000100
00001000
00000000
00000010
00000000
,
00002000
00000100
00010000
00000100
,
00023000
01000000
00001000
01000000
,
00031000
00010000
00001000
00000000
00001000
00000100
00000010
00000000
,
00000001
00000100
00001000
00010000
00100000
00000000
01100000
00000000
,
02100000
10000000
03020000
00130000
,
12000000
00010000
03002000
00023000
,
00100000
10000000
01000000
10000000
,
00100000
00000000
00031000
00000000
00000100
00001000
00000010
00000000
,
00000100
00000001
00000100
00000001
00000000
00000100
00001000
00000100
,
00000000
00000000
00001000
00000000
00010000
00000000
00001000
00000000
00010000
00000000
00000000
00010000
00000000
00000000
00010000
00000000
,
01000000
00000000
10010000
00000000
10000000
01000000
00100000
00000000
,
00110000
00011000
00001100
00000110
,
00000012
00000100
00002003
00003010
,
00000201
00001000
00020300
00032000
,
00000010
00000001
00000100
00000001
,
00000010
00000000
00013000
00000000
01000000
00010000
00100000
00000000
,
01000000
10000000
01000000
10000000
00000000
01000000
00010000
01000000
,
00000000
00000000
00010000
00000000
00001000
00000000
00010000
00000000
00001000
00000000
00000000
00001000
00000000
00000000
00001000
00000000
,
00000100
00000000
00001001
00000000
00000001
00000100
00000010
00000000
,
00001000
00000100
00010000
00000100
00001000
00000100
00010000
00000000
,
00001000
00001000
00010000
00100000
00000000
00000000
00010000
00010000
,
00001000
00000100
00000000
00000000
00002000
00003000
00020000
00030000
,
01000000
01000000
00010000
00001000
00000000
00000000
00000100
00000100
,
00001000
00010000
00000000
00000000
00000000
00000000
00000000
00000000
,
00200000
02300000
13000000
00100000
,
00020000
00032000
00003010
00000001
,
00002000
00000100
00003001
00000010
,
00002000
00000000
00010000
00000000
00103000
00010000
00100000
00000000
,
01000000
10000000
00020000
01000000
,
10030000
00100000
00020000
00001000
,
01030000
10000000
01000000
00010000
,
00001000
00010000
00001000
00010000
00001000
00010000
00001000
00000000
,
00010000
00010000
00001000
01000000
00000000
00000000
00001000
00001000
,
00010000
00000100
00000000
00000000
00000000
00000000
00000000
00000000
,
00001000
00001000
00000100
00010000
00000000
00000000
00001000
00001000
,
01000000
00010000
00000000
00000000
00000000
00000000
00000000
00000000
,
00000100
00000000
00000000
00000100
00000001
00000000
00001000
00000000
,
00000001
00000100
00000000
00000001
00000100
00000000
00000010
00000000
,
00000100
00000000
00000000
00000100
00001000
00000000
00010000
00000000
,
00001000
00100000
00000000
00001000
00100000
00000000
00010000
00000000
,
00100000
00000000
00000000
01000000
01000000
00000000
10000000
00000000
,
01000000
00010000
00000000
00001000
00001000
00000000
00010000
00000000
,
00001000
00000100
00000010
00000001
,
00000010
00000100
00001000
00010000
,
00100000
01000000
00100000
00000000
10000000
01000000
10000000
00000000
,
01000000
00010000
00001000
00000100
00000010
00000000
00000100
00000000
,
00000220
00000000
00000000
00000330
,
00000021
00001000
00020030
00032000
,
00010000
00000010
00010000
01000000
,
00103000
00000000
00010000
00000000
00100000
00010000
01000000
00000000
,
00100000
10000000
00100000
10000000
00000000
00100000
00010000
00100000
,
00000000
00000000
00010000
00000000
00001000
00000000
00010000
00000000
00001000
00000000
00000000
00001000
00000000
00000000
00001000
00000000
,
00000010
00000000
00001001
00000000
00000001
00000010
00000100
00000000
,
00001100
00011000
00110000
01100000
,
21000000
00100000
30020000
00130000
,
10200000
00010000
00302000
00023000
,
00001000
00100000
00001000
00000100
,
00030010
00001001
00000100
00001001
,
00000010
00000001
00000010
00000001
00000000
00000010
00001000
00000010
,
00000000
00000000
00001000
00000000
00010000
00000000
00001000
00000000
00010000
00000000
00000000
00010000
00000000
00000000
00010000
00000000
,
00100000
00000000
10010000
00000000
10000000
00100000
01000000
00000000
,
00010000
00100000
00010000
00100000
00001000
00010000
00001000
00000000
,
00010000
00010000
00001000
00000100
00000000
00000000
00001000
00001000
,
00010000
00100000
00000000
00000000
00020000
00030000
00002000
00003000
,
00000010
00000010
00001000
00010000
00000000
00000000
00100000
00100000
,
00010000
00001000
00000000
00000000
00000000
00000000
00000000
00000000
,
00000100
00000100
00000010
00000100
00000000
00001000
00010000
00001000
,
00100000
00100000
01000000
00100000
00000000
00000000
00000000
00000000
,
00000000
00000000
00000000
00000000
;

//---------------dance-double - ----------------
#NOTES:
     dance-double:
     :
     Hard:
     16:
     :
00000000
00000000
00000000
00000000
,
00000000
00000000
00000000
00000000
,
00000000
00000000
00000000
00000000
,
00000000
00000000
00000000
00000000
,
00000000
00000000
00000000
00000000
,
01100000
00000000
00001000
00010000
00000010
00001000
00000100
00000010
,
00000001
00000100
00000010
00001000
00000010
00000100
00001000
00010000
,
00001000
00100000
00010000
01000000
10000000
01000000
00010000
10000000
,
01000000
00000000
10000000
00010000
10000000
00000000
00000000
00000000
01000000
00000000
00010000
00001000
00010000
00000000
00000000
00000000
,
00011000
00000000
00000100
00000002
00000000
00000103
00001000
00010000
,
00000100
00001000
00000100
00000002
00000000
00000103
00001000
00000010
,
00000100
00001000
00010000
00001000
00010000
01000000
00100000
01000000
,
10000000
00000000
00100000
00000000
01000000
00000000
00010000
00000000
00100000
00000000
00001000
00010000
00001000
00000000
00000000
00000000
,
00010000
00000000
00001000
00000000
00000100
00000000
00000001
00000000
00000100
00000010
00000100
00000010
00000100
00000000
00000001
00000000
,
00000100
00000000
00001000
00000000
00010000
00000000
01000000
00000000
00100000
01000000
00100000
01000000
00100000
00000000
01000000
00000000
,
10000000
00000000
01000000
00000000
00010000
00000000
00001000
00000000
00010000
00001000
00010000
00001000
00010000
00000000
00001000
00000000
,
00000100
00000010
00001010
00000000
00000001
00000010
00000011
00000000
,
00000010
00000000
00000001
00000000
00000100
00000000
00000010
00000000
00001000
00000100
00001000
00000100
00010000
00000000
00001000
00000000
,
01000000
00000000
00010000
00000000
10000000
00000000
00100000
00000000
01000000
00010000
01000000
00010000
10000000
00000000
00010000
00000000
,
10000000
01000000
00100000
00010000
00001000
00000100
00000010
00000001
,
00000100
00000100
00000100
00000100
00000021
00000000
00001030
00000000
,
00010100
00001000
00010000
00001000
00100000
00010000
01000000
00100000
,
00010000
00100000
10000000
01000000
00100000
00001000
00010000
00000100
,
00001000
00000001
00000100
00000010
00010000
00001000
00000100
00000001
,
00001000
00000000
00000010
00001000
00000020
00000000
00000100
00000000
00000000
00000000
00010030
00001000
00020000
00000000
00000000
00000000
,
00130000
01000000
10000000
00010000
00100000
01000000
00001000
00010000
,
00100000
00000000
00010000
00000000
00001000
00000000
00000100
00000000
00000001
00000000
00000000
00000001
00000000
00000000
00000001
00000000
,
00002001
00000000
00000010
00000000
00010000
00010000
00010000
00000000
,
00003010
00000000
00000100
00000010
00000100
00000000
00001000
00000000
00010000
00000000
01000000
00100000
01000000
00000000
00000000
00000000
,
21000000
00000000
30100000
00010000
00100000
10000000
01000000
00010000
,
00001000
00100000
00010000
00001000
00010000
00100000
00001000
00010000
,
00000100
00000010
00000001
00000100
00000010
00001000
00000100
00010000
,
00021000
00000000
00130000
00010000
00012000
00000000
00003010
00001000
,
00011000
00000000
00100000
00001000
00010000
00000010
00010000
00001000
,
00100000
00000000
00001000
00000000
00010000
00000000
01000000
00000000
01100000
00000000
00000000
00010000
00000000
00000000
00001000
00000000
,
00010000
00001000
00000100
00000010
00000001
00000010
00000100
00001000
,
00010000
00001000
00010000
00001000
00100000
00010000
00100000
00010000
01000000
00100000
01000000
00100000
10000000
01000000
10000000
00000000
,
00100000
00010000
00001000
00000010
00000000
00000000
00000100
00001000
,
00010000
01000000
00000000
00000000
20000000
30000000
00020000
00030000
,
10000000
00010000
00001000
00000001
00000000
00000000
00000001
00001000
,
00010000
00000000
10000000
00000000
00000000
00000000
00000000
00000000
10000000
00010000
10000000
00000000
00010000
10000000
00010000
00000000
,
10000000
01000000
10000000
01000000
00100000
00010000
10000000
01000000
,
00010000
00001000
00010000
00001000
00100000
01000000
00010000
00001000
,
00000100
00000001
00000100
00000001
00001000
00000010
00000100
00000001
,
00000010
00000000
00000100
00000000
00000010
00000000
00000100
00000000
00001000
00000000
00000001
00001000
00000001
00000000
00000010
00000000
,
00000100
00001000
00000100
00001000
00000001
00000010
00000100
00001000
,
00000010
00010000
00000010
00010000
00000100
00001000
00000010
00010000
,
00001000
00001000
00010000
00010000
00100000
00100000
10000000
10000000
,
01000000
10000000
01000000
10000000
00010000
00100000
00010000
00100000
00001000
00010000
00001000
00010000
00000100
00001000
00000100
00000000
,
00000010
00000001
00000100
00001000
00000000
00000000
00100000
10000000
,
01000000
00010000
00000000
00000000
00000000
00000000
00000000
00000000
,
00010000
00001000
00000100
00000110
00000000
00000000
00001000
00010000
,
00100000
01100000
00000000
00000000
00000000
00000000
00000000
00000000
,
20000000
00000000
00000000
01000000
31000000
00000000
00100000
00000000
,
01000000
00010000
00000000
00001000
00010000
00000000
00011000
00000000
,
00002000
00000000
00000000
00000100
00003100
00000000
00000010
00000000
,
00000100
00000001
00000000
00001000
00000010
00000000
00000110
00000000
,
00002000
00000000
00000000
00010000
00013000
00000000
00100000
00000000
,
10000000
01000000
00000000
00100000
00010000
00000000
10010000
00000000
,
10000000
01000000
00100000
00010000
,
00001000
00000100
00000010
00000001
,
00000100
00000100
00001000
00001000
00010000
00010000
00100000
00100000
,
10000000
00100000
01000000
00010000
00100000
00001000
00010000
00000100
00001000
00000010
00000100
00000001
00001000
00000000
00000010
00000000
,
00000120
00000100
00000100
00000100
00000100
00000100
00000100
00000130
,
00001000
00000100
00000001
00000010
00000100
00010000
00001000
00100000
,
00010000
10000000
00100000
01000000
00001000
00010000
00100000
10000000
,
00010000
00000000
01000000
00010000
02000000
00000000
00100000
00000000
00000000
00000000
03001000
00010000
00002000
00000000
00000000
00000000
,
00003100
00000010
00000001
00001000
00000100
00000010
00010000
00001000
,
00000100
00000000
00001000
00000000
00010000
00000000
00100000
00000000
10000000
00000000
00000000
11000000
00000000
00000000
00110000
00000000
,
10020000
00000000
00100000
00000000
00001000
00001000
00001000
00000000
,
00130000
00000000
01000000
00100000
01000000
00000000
00010000
00001000
00010000
00000000
00000100
00000010
00000100
00000000
00000001
00000000
,
00001002
00000000
00000103
00001000
00000100
00000001
00000010
00001000
,
00010000
00000010
00001000
00010000
00001000
00000010
00010000
00001000
,
00100000
01000000
10000000
00100000
01000000
00010000
00100000
00001000
,
00012000
00000000
00003010
00001000
00021000
00000000
00130000
00010000
,
00011000
00000000
00000100
00010000
00001000
01000000
00001000
00010000
,
00000100
00000000
00010000
00000000
00001000
00000000
00000010
00000000
00000011
00000000
00000000
00000101
00000000
00000000
00000110
00000000
,
00001000
00010000
00100000
10000000
01000000
00100000
00001000
00010000
,
00001000
00010000
00001000
00010000
00000010
00001000
00000010
00001000
00000001
00000100
00000001
00000100
00000010
00000100
00000010
00000000
,
00000100
00001000
00010000
00100000
00000000
00000000
01000000
00010000
,
00001000
00000010
00000000
00000000
00000002
00000003
00002000
00003000
,
00000001
00001000
00010000
10000000
00000000
00000000
10000000
00010000
,
00001000
00000000
00000001
00000000
00000000
00000000
00000000
00000000
00001000
00000001
00001000
00000000
00000001
00001000
00000001
00000000
,
00000100
00000100
00000110
00000110
00000000
00001000
00010000
01000000
,
01000000
11000000
11000000
10010000
00000000
00000000
00000000
00000000
,
00000000
00000000
00000000
00000000
;

//---------------dance-double - ----------------
#NOTES:
     dance-double:
     :
     Challenge:
     9:
     :
00000000
00000000
00000000
00000000
,
00000000
00000000
00000000
00000000
,
00000000
00000000
00000000
00000000
,
00000000
00000000
00000000
00000000
,
00000000
00000000
00000000
00000000
,
00011000
MMMMMMMM
00001000
00100000
,
00010000
01000000
00001000
00010000
,
00000010
00001000
00000100
00010000
,
00011000
MMMMMMMM
00011000
MMMMMMMM
,
00100000
00100000
01000000
00000000
,
00010000
00010000
00001000
00000000
,
00000010
00000010
00000100
00000000
,
00011000
MMMMMMMM
00011000
MMMMMMMM
,
00001000
00010000
01000000
10000000
,
00100000
10000000
01000000
00010000
,
00001000
00000100
00000001
00000010
,
00000001
00000100
00001000
MMMMMMMM
,
00002000
00023000
01030000
MMMMMMMM
,
00020000
00032000
00003100
MMMMMMMM
,
00000010
00000100
00001000
00010000
,
00001000
00011000
MMMMMMMM
MMMMMMMM
,
00022000
00000000
00000000
00033000
,
00200000
00000000
00000000
02300000
00000000
00000000
03100000
00000000
,
00010000
01000000
10000000
01000000
,
00200000
00000000
00000000
00300000
,
10000000
00000000
00000000
01000000
00000000
00000000
00010000
00000000
,
00000000
00001000
00000000
00000000
00022000
00000000
00033000
00000000
,
00000200
00000000
00000010
00000310
,
MMMMMMMM
00001001
MMMMMMMM
00001001
,
00002000
00000010
00003200
00000010
,
00020300
00000010
00032000
00000010
,
00013000
00001000
00100000
00010000
,
01000000
MMMMMMMM
00100000
MMMMMMMM
,
10000000
10000000
00010000
00010000
,
00100000
01000000
00010000
00001000
,
00022000
00000000
00000000
00033000
,
00101000
00000000
00000000
00011000
00000000
00000000
00010100
00000000
,
00001000
00000100
00001000
00000100
00000000
00000000
00000010
00000001
,
00000010
00000001
00000000
00000000
MMMMMMMM
00000000
MMMMMMMM
00000000
,
00010000
00100000
00010000
00100000
00000000
00000000
01000000
10000000
,
01000000
10000000
00000000
00000000
00000000
00000000
00000000
00000000
,
MMMMMMMM
MMMMMMMM
MMMMMMMM
MMMMMMMM
,
MMMMMMMM
MMMMMMMM
MMMMMMMM
MMMMMMMM
,
MMMMMMMM
MMMMMMMM
MMMMMMMM
MMMMMMMM
,
MMMMMMMM
MMMMMMMM
MMMMMMMM
MMMMMMMM
,
MMMMMMMM
MMMMMMMM
MMMMMMMM
MMMMMMMM
,
MMMMMMMM
MMMMMMMM
MMMMMMMM
MMMMMMMM
,
MMMMMMMM
MMMMMMMM
MMMMMMMM
MMMMMMMM
,
MMMMMMMM
MMMMMMMM
MMMMMMMM
MMMMMMMM
,
00001000
00001000
00010000
00001000
00000000
00000000
00010000
00010000
,
00001000
00010000
00000000
00000000
00000000
00000000
00000000
00000000
,
MMMMMMMM
MMMMMMMM
MMMMMMMM
MMMMMMMM
00000000
00000000
MMMMMMMM
MMMMMMMM
,
MMMMMMMM
MMMMMMMM
00000000
00000000
00000000
00000000
00000000
00000000
,
01000000
00000000
00000000
01000000
01000000
00000000
MMMMMMMM
00000000
,
00010000
00001000
00000000
00001000
00010000
00000000
MMMMMMMM
00000000
,
00000100
00000000
00000000
00000100
00000100
00000000
MMMMMMMM
00000000
,
00001000
00010000
00000000
00010000
00001000
00000000
MMMMMMMM
00000000
,
01000000
00000000
00000000
01000000
01000000
00000000
MMMMMMMM
00000000
,
00010000
00001000
00000000
00001000
00010000
00000000
MMMMMMMM
00000000
,
00000100
00000100
00001000
MMMMMMMM
,
01000000
01000000
00010000
MMMMMMMM
,
00000010
00000001
00000100
00001000
,
00010000
00100000
10000000
01000000
,
00022000
00000000
00000000
00033000
,
00000200
00000000
00000000
00000320
00000000
00000000
00000130
00000000
,
00001000
00000010
00000001
00000010
,
00000200
00000000
00000000
00000300
,
00000001
00000000
00000000
00000010
00000000
00000000
00001000
00000000
,
00000000
00010000
00000000
00000000
00011000
00000000
00011000
00000000
,
00200000
00000000
01000000
01300000
,
MMMMMMMM
01100000
MMMMMMMM
10010000
,
00020000
01000000
00230000
01000000
,
00302000
01000000
00023000
01000000
,
00031000
00010000
00000100
00001000
,
00000010
MMMMMMMM
00000100
MMMMMMMM
,
00000001
00000001
00001000
00001000
,
00000100
00000010
00001000
00010000
,
00022000
00000000
00000000
00033000
,
00010100
00000000
00000000
00011000
00000000
00000000
00101000
00000000
,
00010000
00100000
00010000
00100000
00000000
00000000
01000000
10000000
,
01000000
10000000
00000000
00000000
MMMMMMMM
00000000
MMMMMMMM
00000000
,
00001000
00000100
00001000
00000100
00000000
00000000
00000010
00000001
,
00000010
00000001
00000000
00000000
MMMMMMMM
00000000
MMMMMMMM
00000000
,
00000010
00000100
00000010
00000100
00000000
00001000
00010000
00001000
,
00100000
01000000
00100000
01000000
00000000
00000000
00000000
00000000
,
00000000
00000000
00000000
00000000
;
