#TITLE:めうめうぺったんたん!!;
#ARTIST:日向美ビタースイーツ♪;
#TITLETRANSLIT:Meumeupettantan!!;
#ARTISTTRANSLIT:Hinatabi Bittersweets♪;
#BANNER:Meumeupettantan!!.png;
#BACKGROUND:Meumeupettantan!!!!-bg.png;
#CDTITLE:./CDTitles/DDR (2013).png;
#MUSIC:Meumeupettantan!!.ogg;
#SAMPLESTART:72.64;
#SAMPLELENGTH:15;
#DISPLAYBPM:185;
#BPMS:0=184.3,4=185;

//---------------dance-single - ----------------
#NOTES:
     dance-single:
     :
     Beginner:
     3:
     :
0000
0000
0000
0000
,
0000
0000
0000
0000
,
0000
0000
0000
0000
,
0000
0000
0000
0000
,
0000
0000
0000
0000
,
0001
0000
0000
0000
,
1000
0000
0000
0000
,
0001
0000
0000
0000
,
1000
0000
0000
0000
,
0000
0000
0010
0010
,
0000
0000
0001
0001
,
0000
0000
0010
0010
,
0000
0000
1000
1000
,
0000
0000
0001
0001
,
0000
0000
0010
0010
,
0010
0000
0010
0000
,
1000
1000
0000
0000
,
1000
0000
0000
0000
,
1000
0000
0100
0000
,
1000
0000
0000
0000
,
0000
0010
0010
0000
,
0001
0000
0000
0000
,
0001
0000
0100
0000
,
0010
0000
0010
0000
,
2000
0000
3000
0000
,
0002
0000
0003
0000
,
0020
0000
0030
0000
,
0100
0000
0100
0000
,
1000
0000
0000
0000
,
0010
0000
0000
0000
,
0001
0000
0000
0000
,
0010
0010
0010
0000
,
1000
0000
1000
0000
,
0100
0000
0100
0000
,
0001
0000
0001
0000
,
0000
0000
0000
0000
,
0001
0000
0000
0000
,
0010
0000
0000
0000
,
1000
0000
0000
0000
,
0100
0100
0100
0000
,
0001
0000
0001
0000
,
0010
0000
0010
0000
,
0100
0000
0100
0000
,
1000
0000
0000
0000
,
0200
0000
0300
0000
,
2000
0000
3000
0000
,
0020
0000
0030
0000
,
0002
0000
0003
0000
,
0200
0000
0300
0000
,
0002
0000
0003
0000
,
0020
0000
0030
0000
,
2000
0000
3000
0000
,
0001
0000
0000
0000
,
1000
0000
0000
0000
,
0001
0000
0000
0000
,
0000
0000
0000
0000
,
0001
0001
0001
0000
,
1000
1000
1000
0000
,
0001
0000
0010
0000
,
0100
0000
1000
0000
,
1000
1000
1000
0000
,
0001
0001
0001
0000
,
1000
0000
0001
0000
,
1000
0000
0000
0000
,
0010
0010
0010
0000
,
0100
0100
0100
0000
,
0001
0000
0010
0000
,
0100
0000
1000
0000
,
0001
0000
0000
0000
,
1000
0000
0000
0000
,
0010
0000
0000
0000
,
0100
0000
0000
0000
,
0001
0001
0001
0000
,
1000
1000
1000
0000
,
0001
0000
1000
0000
,
0010
0010
0000
0000
,
0001
0000
0000
0000
,
0001
0000
0100
0000
,
0001
0000
0000
0000
,
0000
0010
0010
0000
,
1000
0000
0000
0000
,
1000
0000
0100
0000
,
0010
0000
0010
0000
,
0002
0000
0003
0000
,
2000
0000
3000
0000
,
0020
0000
0030
0000
,
0100
0100
0100
0200
,
0000
0000
0000
0000
,
0000
0000
0000
0000
,
0000
0000
0000
0300
,
0000
0000
1001
0000
,
0000
0000
0000
0000
;

//---------------dance-single - ----------------
#NOTES:
     dance-single:
     :
     Easy:
     6:
     :
0000
0000
0000
0000
,
0000
0000
0000
0000
,
0000
0000
0000
0000
,
0000
0000
0000
0000
,
0000
0000
0000
0000
,
1000
0000
0010
0010
,
0001
0000
0010
0010
,
1000
0000
0010
0010
,
0200
0000
0000
0300
,
1000
0000
0100
0100
,
0001
0000
0100
0100
,
0010
0000
0100
0100
,
0001
0000
0100
0100
,
1000
0000
0010
0010
,
0001
0000
0010
0010
,
0100
0000
0010
0000
,
0001
1000
0000
1001
,
0001
0000
0100
0000
,
0001
0100
0001
0100
,
0001
0000
1000
0000
,
0000
1001
1001
0000
,
1000
0000
0100
0000
,
1000
0100
1000
0100
,
0010
0000
0100
0000
,
0001
0000
0000
1001
,
1000
0000
0000
1001
,
0001
0000
0000
1001
,
1000
0000
0001
0000
,
0001
0100
0000
0100
,
0010
0100
0000
0100
,
1000
0100
0000
0100
,
0010
0001
0010
0000
,
0001
0010
0000
0100
,
0000
1000
0010
0100
,
0000
1000
0010
0002
,
0000
0000
0000
0003
,
1000
0100
0000
0100
,
0010
0100
0000
0100
,
0001
0100
0000
0100
,
0010
1000
0010
0000
,
1000
0010
0000
0100
,
0000
0001
0010
0100
,
0000
0001
0010
2000
,
0000
0000
0000
3000
,
0100
0000
0001
0000
,
0010
0000
1000
0000
,
0100
0000
0001
0000
,
0010
0000
1001
1001
,
0100
0000
1000
0000
,
0010
0000
0001
0000
,
0100
0000
1000
0000
,
0010
0000
0001
0000
,
0200
0000
0300
0010
,
2000
0000
3000
0001
,
0100
0000
0000
0100
,
0000
0000
0000
0000
,
1000
0010
0001
0000
,
1000
0100
0001
0000
,
1000
0100
1000
0100
,
1000
0001
1000
0000
,
0001
0010
1000
0000
,
0001
0100
1000
0000
,
0010
0100
0010
0100
,
0110
0000
0000
0000
,
0001
0010
1000
0000
,
0001
0100
1000
0000
,
0001
0100
0001
0100
,
0001
1000
0001
0000
,
1000
0000
0100
0000
,
0001
0000
0010
0000
,
0001
0001
0001
0000
,
1000
1000
1000
0000
,
0001
0010
0001
0000
,
1000
0010
1000
0000
,
1001
0000
1001
0000
,
0010
0100
0000
1001
,
1000
0000
0100
0000
,
1000
0100
1000
0100
,
1000
0000
0001
0000
,
0000
1001
1001
0000
,
0001
0000
0100
0000
,
0001
0100
0001
0100
,
0010
0000
0100
0000
,
1000
0000
0000
1001
,
0001
0000
0000
1001
,
1000
0000
0000
1001
,
0010
1000
0001
0220
,
0000
0000
0000
0000
,
0000
0000
0000
0000
,
0000
0000
0000
0000
,
0000
0330
2002
0000
,
0000
3003
0000
0000
,
0000
0000
0000
0000
;

//---------------dance-single - ----------------
#NOTES:
     dance-single:
     :
     Medium:
     9:
     :
0000
0000
0000
0000
,
0000
0000
0000
0000
,
0000
0000
0000
0000
,
0000
0000
0000
0000
,
0000
0000
0000
0000
,
0001
0000
1100
1100
,
0010
0000
0101
0101
,
0010
0000
1001
1001
,
0020
0000
0100
0130
,
0010
0001
1000
0000
0010
0000
0010
0000
,
1000
0001
0100
0000
0010
0000
0010
0000
,
1000
0001
0010
0000
0100
0000
0100
0000
,
1000
0001
0100
0000
0001
0000
0001
0000
,
0010
1000
0100
0000
1000
0000
0010
0000
,
0001
0100
0010
0000
0001
0000
0010
0000
,
1000
0001
0000
0000
0100
0010
0000
0000
,
1000
0001
1000
0001
0000
0000
0110
0000
,
1000
0100
0010
0001
,
0100
0010
0100
0000
0010
1000
0010
0000
,
1000
0001
0010
0001
,
0000
0110
1001
0000
,
0001
0100
0010
1000
,
0001
0100
0001
0000
1000
0100
1000
0000
,
0010
1001
0100
1001
,
0010
0100
0010
0100
0010
0000
0101
0000
,
0010
0100
0010
0100
0010
0000
1100
0000
,
0001
1000
0001
1000
0001
0000
0110
0000
,
0010
0010
0001
0000
0100
0100
1000
0000
,
1000
0000
0010
0000
0000
0100
0001
0000
,
1000
0000
0100
0000
0000
0010
0001
0000
,
1000
0000
0010
0000
0000
0100
0001
0000
,
0110
0000
1001
0000
0010
0100
0010
0000
,
1000
0100
0001
0010
,
0000
0001
0100
0010
,
1000
0000
0010
0000
0001
0000
0100
2000
,
0000
0000
0000
3000
,
0001
0000
0010
0000
0000
0100
1000
0000
,
0001
0000
0100
0000
0000
0010
1000
0000
,
0001
0000
0010
0000
0000
0100
1000
0000
,
0110
0000
1001
0000
0010
0100
0010
0000
,
0001
0100
1000
0010
,
0000
1000
0100
0010
,
0001
0000
0010
0000
1000
0000
0100
0002
,
0000
0000
0000
0003
,
0010
0010
1000
1000
,
0100
0100
0001
0001
,
0010
1000
0100
0001
,
0010
1000
0110
1001
,
0010
0010
0001
0001
,
0100
0100
1000
1000
,
0010
0001
0100
1000
,
0010
0001
0100
0000
,
0020
0000
1030
0100
,
0020
0000
0031
0100
,
0010
0000
0000
1000
0000
0000
0001
0010
,
0000
0000
0000
0000
,
0001
0000
1000
0100
0000
0010
0010
0000
,
0001
0000
0100
0010
0000
0000
0000
0000
,
0010
0101
0010
1100
,
0001
0000
1000
0100
0000
0000
1000
0000
,
0001
0000
1000
0010
0000
0100
0100
0000
,
0001
0000
0010
0100
0000
0000
0000
0000
,
0010
0001
0100
1000
,
0010
0100
0010
0100
0000
0000
0001
0000
,
1000
0000
0001
0100
0000
0010
0010
0000
,
1000
0000
0100
0010
0000
0000
0000
0000
,
0010
1100
0010
0101
,
1000
0000
0001
0100
0000
0000
0000
0000
,
0010
1000
0100
0001
,
0010
1000
0100
0000
,
1000
0001
0100
0100
,
0001
1000
0100
0100
,
0110
0000
1001
0000
0010
0100
0010
0000
,
1001
0000
0110
0000
1000
0001
1000
0000
,
0010
0100
0000
0000
0001
1000
0000
0000
,
0100
0010
0100
0010
0000
0000
1001
0000
,
0001
0100
0010
1000
,
0100
0010
0100
0000
0010
0001
0010
0000
,
0001
1000
0010
1000
,
0000
0110
1001
0000
,
1000
0100
0010
0001
,
1000
0100
1000
0000
0001
0100
0001
0000
,
0010
1001
0100
1001
,
0010
0100
0010
0100
0010
0000
1100
0000
,
0010
0100
0010
0100
0010
0000
0101
0000
,
1000
0001
1000
0001
1000
0000
0110
0000
,
0001
1000
0001
1000
0001
0000
0220
0000
,
0000
0000
0000
0000
,
0000
0000
0000
0000
,
0000
0000
0000
0000
,
0000
0330
2002
0000
,
0000
3003
0000
0000
,
0000
0000
0000
0000
;

//---------------dance-single - ----------------
#NOTES:
     dance-single:
     :
     Hard:
     12:
     :
0000
0000
0000
0000
,
0000
0000
0000
0000
,
0000
0000
0000
0000
,
0000
0000
0000
0000
,
0000
0000
0000
0000
0000
0000
0000
0010
,
1000
0010
0000
0000
0101
0000
0101
0000
,
0010
0001
0000
0000
1100
0000
1100
0000
,
0010
1000
0000
0000
0101
0000
0101
0000
,
0020
0000
0100
0130
,
0010
1000
0001
0000
0010
0000
0110
0000
,
1000
0001
0100
0000
0010
0000
0110
0000
,
1000
0001
0010
0000
0100
0000
1100
0000
,
0001
1000
0010
0000
0100
0000
0101
0000
,
0010
0001
0100
0000
0001
0000
0110
0000
,
0010
1000
0100
0000
1000
0000
0110
0000
,
0001
0100
0000
0001
1000
0100
0000
0010
,
0001
0100
0010
1000
0000
0001
1000
0000
,
0001
0000
0000
0100
0010
1000
0000
0100
,
0010
0001
0000
0100
0010
1000
0010
1000
,
0001
0000
0000
1000
0100
0010
0001
1000
,
0000
0110
1001
0000
,
1000
0000
0000
0100
0010
0001
0000
0100
,
0010
1000
0000
0100
0010
0001
0010
0001
,
1000
0001
1000
0001
1000
0000
0000
0000
0010
0100
0010
0100
0010
0000
0000
0000
,
1000
1000
0100
1000
0100
0000
0110
0000
,
0001
0001
0100
0001
0100
0000
0110
0000
,
1000
1000
0100
0010
0100
0000
1001
0000
,
0010
1000
0010
0000
0100
0001
0100
0000
,
0001
0000
0000
1000
0010
0000
0100
0000
0000
0000
0010
0000
1000
0000
0000
0000
,
0001
0000
0000
1000
0100
0000
0010
0000
0000
0000
0100
0000
1000
0000
0000
0000
,
0001
0000
0000
1000
0010
0000
0100
0000
0000
0000
0001
0000
1000
0000
0000
0000
,
0110
0000
1001
0000
0110
0001
1000
0000
,
0010
0000
0100
0000
0001
0000
0010
0001
,
0000
0100
0010
0000
1000
0001
1000
0000
,
0001
0000
0010
0100
1000
0010
0100
0002
,
0000
0000
0000
0003
,
1000
0000
0000
0001
0010
0000
0100
0000
0000
0000
0010
0000
0001
0000
0000
0000
,
1000
0000
0000
0001
0100
0000
0010
0000
0000
0000
0100
0000
0001
0000
0000
0000
,
1000
0000
0000
0001
0010
0000
0100
0000
0000
0000
1000
0000
0001
0000
0000
0000
,
0110
0000
1001
0000
0110
1000
0001
0000
,
0010
0000
0100
0000
1000
0000
0010
1000
,
0000
0100
0010
0000
0001
1000
0001
0000
,
1000
0000
0010
0100
0001
0010
0100
2000
,
0000
0000
0000
3000
,
0010
0001
0010
0000
0001
0100
0001
0000
,
0100
1000
0100
0000
1000
0010
1000
0000
,
0010
0001
0010
0000
0001
0100
0001
0000
,
0100
1000
0100
0000
0110
0000
1001
0000
,
0010
1000
0010
0000
1000
0100
1000
0000
,
0100
0001
0100
0000
0001
0010
0001
0000
,
0010
1000
0010
0000
1000
0100
1000
0000
,
0100
0001
0100
0001
1000
0000
0000
0000
,
0020
0000
0000
0001
0031
0000
0100
0000
,
0020
0000
0000
1000
1030
0000
0100
0000
,
0010
0000
0100
1000
0000
0001
0010
0100
,
0000
0000
0000
0000
,
1000
0100
0010
0100
0000
1000
1000
1000
,
0001
0100
0010
0100
0000
0000
0000
0000
,
1010
0011
0101
1100
,
0001
0010
0100
1000
0000
0001
0001
0001
,
1000
0100
0010
0100
0000
1000
1000
1000
,
0001
0100
0010
0100
0000
0000
0000
0000
,
0010
1000
0100
0001
,
0010
1000
0100
0001
0000
1000
1000
1000
,
0001
0100
0010
1000
0000
0001
0001
0001
,
1000
0100
0010
0001
0000
0000
0000
0000
,
0011
1010
1100
0101
,
1000
0010
0100
0001
0000
0000
0000
0000
,
0010
0001
0100
1000
,
0010
0000
0000
0100
0010
0000
0000
0100
,
0000
0000
0010
0000
1000
0100
0010
0001
,
0000
0000
0100
0000
0010
1000
0100
0000
,
0110
0000
1001
0000
0110
0001
1000
0000
,
0110
0000
1001
0000
0110
1000
0001
0000
,
0010
0100
0000
0001
1000
0100
0000
0010
,
0001
1000
0010
0100
0000
0001
0010
0000
,
1000
0000
0000
0100
0010
0001
0000
0100
,
0010
1000
0000
0100
0010
0001
0010
0001
,
1000
0000
0000
0001
0100
0010
1000
0001
,
0000
0110
1001
0000
,
0001
0000
0000
0100
0010
1000
0000
0100
,
0010
0001
0100
0010
1000
0010
0100
0010
,
1000
0001
1000
0001
1000
0000
0000
0000
0100
0010
0100
0010
0100
0000
0000
0000
,
0001
0001
0100
0001
0100
0000
0110
0000
,
1000
1000
0100
1000
0100
0000
0110
0000
,
0001
0001
0100
0010
0100
0000
1001
0000
,
0010
0001
0010
0100
0010
0000
2002
0000
,
0000
0000
0000
0000
,
0000
0000
0000
0000
,
0000
0000
0000
0000
,
0000
3003
0220
0000
,
0000
0330
0000
0000
,
0000
0000
0000
0000
;

//---------------dance-single - ----------------
#NOTES:
     dance-single:
     :
     Challenge:
     16:
     :
0000
0000
0000
0000
,
0000
0000
0000
0000
,
0000
0000
0000
0000
,
0000
0000
0000
0000
,
0000
0000
0000
0000
0000
0000
0000
0100
,
1000
0010
0000
0000
1000
0001
0100
0001
,
0010
0200
0000
0300
1000
0001
0100
0100
,
0001
0020
0000
0030
0001
1000
0100
0000
,
0010
0001
0010
0001
0010
0001
0010
0001
1000
0000
0001
0000
0100
0000
0000
0000
,
0001
1000
0001
1000
0100
0010
0100
0010
,
0001
0000
0100
0000
0010
0000
0100
0000
0010
1000
0100
0000
0010
0001
0100
0000
,
0001
1000
0001
1000
0010
0100
0010
0100
,
0001
0010
0100
0000
1000
0010
0100
0000
0001
0000
1000
0000
0100
0000
0000
0000
,
1000
0100
0001
0100
1000
0010
0010
0010
,
0001
0100
1000
0100
0001
0010
0010
0010
,
0100
0010
0000
0001
0100
0010
0000
1000
,
0001
1000
0001
0000
0100
0000
0010
0000
0000
0000
0100
0000
0220
0000
0330
0000
,
1000
1000
0100
0010
0001
0100
0010
0100
,
0001
0001
0010
0100
0010
0001
0010
0001
,
1000
1000
0010
0100
0001
0100
0010
0100
,
0001
0000
0000
0000
0100
0000
0000
0000
1010
0000
0000
0000
0010
0000
0010
1000
,
0001
0001
0100
0010
1000
0100
0010
0100
,
1000
1000
0100
0010
0001
0100
0010
1000
,
0001
0100
0001
0100
0001
0000
0000
0000
1000
0100
1000
0100
1000
0000
0000
0000
,
0010
0000
0010
0000
0100
0010
0100
0000
0020
0000
0030
0000
1010
0000
0000
0000
,
0100
0000
0100
0000
0010
0100
0010
0000
0200
0000
0300
0000
0101
0000
0000
0000
,
0010
0100
0010
0000
1000
0100
1000
0000
0200
0000
0300
0000
0011
0000
0000
0000
,
1000
0010
1000
0000
0001
0010
0001
0000
,
0100
0000
0000
1000
0010
0000
1000
0000
0001
0010
0100
0000
1000
0010
0100
0000
,
0100
0000
0000
0001
0010
0000
0001
0000
1000
0010
0100
0000
0001
0010
0100
0000
,
0100
0000
0000
1000
0010
0000
1000
0000
0001
0010
0100
0000
1000
0010
0100
0000
,
1001
0100
0110
0001
1001
0110
1001
0000
,
1000
0100
1000
0100
0010
0001
0010
0100
,
1000
0000
0010
0000
1000
0000
0100
0000
0010
0001
1000
0000
0010
1000
0100
0000
,
1000
0000
0010
1000
0010
1000
0001
0100
,
0000
0000
0001
0000
0100
0001
0000
0010
0001
0000
0010
0001
0000
0100
0001
0000
,
0200
0300
0000
0001
0010
0000
0001
0000
1000
0010
0100
0000
0001
0010
0100
0010
,
0200
0300
0000
1000
0010
0000
1000
0000
0001
0010
0100
0000
1000
0010
0100
0010
,
0200
0300
0000
0001
0010
0000
0001
0000
1000
0010
0100
0000
0001
0010
0100
0000
,
1001
0100
0110
1000
1001
0110
1001
0000
,
0001
0100
0001
0100
0010
1000
0010
0100
,
0001
0000
0010
0000
0001
0000
0100
0000
0010
1000
0001
0000
0010
0001
0100
0000
,
0001
0000
0010
0001
0010
0001
1000
0200
,
0300
0000
1000
0000
0100
1000
0000
0010
1000
0000
0010
1000
0000
0100
1000
0000
,
0001
0001
0100
0001
1000
1000
0100
1000
,
0100
0000
0010
0000
0001
0000
1000
0000
0010
0000
0100
0000
0010
1000
0100
0000
,
1000
1000
0100
1000
0001
0001
0100
0001
,
0100
0010
0100
0010
1010
0000
0101
0000
,
1000
0001
1000
0000
0100
0000
1000
0000
0001
1000
0001
0000
0100
0000
0001
0000
,
0100
0000
0010
0000
1000
0000
0001
0000
0010
0000
0100
0000
0010
0001
0100
0000
,
0001
0100
0001
0100
0010
1000
0010
1000
,
0001
0100
0001
0000
0100
0000
0010
0000
1000
0100
1000
0000
0100
0000
0010
0000
,
0200
0010
0010
0010
0001
0001
1000
1300
,
0020
0100
0100
0100
1000
1000
0001
0031
,
1000
0100
0010
0011
0100
0001
1001
0110
,
0000
0010
0010
0010
1000
0001
1000
0001
,
0010
0000
0001
0000
0100
0000
0001
0000
1000
0010
0100
0000
0001
0000
1000
0000
,
0100
0000
1000
0000
0010
0000
1000
0000
0100
1000
0010
0000
1000
0001
0010
0000
,
0011
0100
1010
0100
1001
0110
1100
0101
,
0010
1000
0100
2000
0000
0010
3001
1000
,
0010
0000
1000
0000
0100
0000
1000
0000
0001
0010
0100
0000
1000
0000
0001
0000
,
0100
0000
0001
0000
0010
0000
0001
0000
0100
0001
0010
0000
0001
1000
0010
0000
,
1000
0100
0100
0001
0100
0100
1000
0001
,
1000
0000
0010
0000
1000
0000
0010
0000
1000
0100
0010
0000
0001
1000
0100
0000
,
0010
0000
0001
0000
0100
0000
0001
0000
1000
0010
0100
0000
0001
0000
1000
0000
,
0100
0000
1000
0000
0010
0000
1000
0000
0100
1000
0010
0000
1000
0001
0100
0000
,
0010
1000
0010
0000
1000
0100
1000
0000
0001
0100
0001
0000
0010
0001
0010
0000
,
0010
0001
0100
0001
1000
0010
0001
0100
,
1000
0000
0000
0000
0002
0000
0000
0003
0200
0000
0000
0300
0020
0000
0000
0030
,
1000
0100
0010
0000
0001
0000
0100
0000
0010
1000
0001
0000
1000
0000
0020
0000
,
0000
0000
0000
0000
1030
0000
0000
0000
0010
1000
0001
0000
0100
0000
0020
0000
,
0000
0000
0000
0000
1030
0000
0000
0000
0010
1000
0001
0000
0010
0001
0100
0000
,
1001
0000
1001
0000
1001
0110
1001
0000
,
1001
0000
1001
0000
1001
0110
1001
0100
,
0001
0000
0020
0000
0000
0030
0001
0000
1000
0000
0020
0000
0000
0030
0100
0000
,
0010
1000
0001
0200
0300
0101
1010
0000
,
0001
0001
0100
0010
1000
0100
0001
0100
,
1000
1000
0010
0001
0010
1000
0010
1000
,
0001
0001
0010
0100
1000
0100
0001
0100
,
1000
0000
0000
0000
0100
0000
0000
0000
0011
0000
0000
0000
0010
0000
0010
0001
,
1000
1000
0100
0010
0001
0100
1000
0100
,
0001
0001
0100
1000
0010
1000
0010
0001
,
1000
0100
1000
0100
0002
0000
0003
0000
0001
0100
0001
0100
2000
0000
3000
0000
,
0010
0000
0010
0000
0100
0010
0100
0000
0020
0000
0030
0000
1010
0000
0000
0000
,
0100
0000
0100
0000
0010
0100
0010
0000
0200
0000
0300
0000
1100
0000
0000
0000
,
0010
0100
0010
0000
1000
0100
0001
0000
0200
0000
0300
0000
1010
0000
0000
0000
,
0100
1000
0100
0000
1000
0001
1000
0000
0010
0000
0000
0000
2020
0000
0000
0000
,
0000
0000
0000
3000
0000
0001
0000
0001
0000
0001
0000
1000
,
0000
0001
0000
2000
0000
0000
0000
0000
0000
0000
0000
0000
,
0000
0000
0000
0000
,
0000
3030
2002
0000
,
0000
3003
0001
1000
0100
0000
0000
0000
0000
0000
0000
0000
0000
0000
0000
0000
,
0000
0000
0000
0000
;

//---------------dance-double - ----------------
#NOTES:
     dance-double:
     :
     Easy:
     6:
     :
00000000
00000000
00000000
00000000
,
00000000
00000000
00000000
00000000
,
00000000
00000000
00000000
00000000
,
00000000
00000000
00000000
00000000
,
00000000
00000000
00000000
00000000
,
00010000
00000000
00100000
00100000
,
10000000
00000000
01000000
01000000
,
00010000
00000000
00001000
00001000
,
00020000
00000000
00000000
00030000
,
00001000
00000000
00000010
00000010
,
00001000
00000000
00010000
00010000
,
00100000
00000000
00010000
00010000
,
00001000
00000000
00000100
00000100
,
00000001
00000000
00001000
00001000
,
00000100
00000000
00000010
00000010
,
00000001
00000000
00001000
00000000
,
00010000
00001000
00000000
00011000
,
00100000
00000000
00010000
00000000
,
10000000
01000000
10000000
01000000
,
00010000
00000000
00001000
00000000
,
00000000
00011000
00011000
00000000
,
00000010
00000000
00001000
00000000
,
00000001
00000100
00000001
00000100
,
00000010
00000000
00001000
00000000
,
00010000
00000000
00000000
00011000
,
00100000
00000000
00000000
10010000
,
01000000
00000000
00000000
10010000
,
00100000
00000000
01000000
00000000
,
10000000
01000000
00000000
01000000
,
00010000
00100000
00000000
00100000
,
00010000
00001000
00000000
00001000
,
00010000
00001000
00000100
00000000
,
00000001
00001000
00000000
00000010
,
00000000
00000100
00000010
00001000
,
00000000
00010000
01000000
00200000
,
00000000
00000000
00000000
00300000
,
10000000
01000000
00000000
01000000
,
00100000
00010000
00000000
00010000
,
00001000
00000100
00000000
00000100
,
00000010
00000001
00000010
00000000
,
00000001
00001000
00000000
00000100
,
00000000
00000010
00000001
00000100
,
00000000
00001000
00010000
00002000
,
00000000
00000000
00000000
00003000
,
00010000
00000000
00100000
00000000
,
10000000
00000000
01000000
00000000
,
00010000
00000000
00001000
00000000
,
00000010
00000000
00001001
00001001
,
00000100
00000000
00001000
00000000
,
00010000
00000000
01000000
00000000
,
10000000
00000000
00100000
00000000
,
00010000
00000000
00001000
00000000
,
00020000
00000000
00030000
00001000
,
00002000
00000000
00003000
00010000
,
01000000
00000000
00000000
01000000
,
00000000
00000000
00000000
00000000
,
00100000
00010000
01000000
00000000
,
00100000
10000000
01000000
00000000
,
00100000
00001000
00010000
00000010
,
00000100
00000001
00001000
00000000
,
00000010
00001000
00000100
00000000
,
00000010
00000001
00000100
00000000
,
00000010
00001000
00010000
01000000
,
01100000
00000000
00000000
00000000
,
10000000
00010000
00100000
00000000
,
00010000
10000000
00100000
00000000
,
10000000
01000000
00010000
00001000
,
00000100
00000001
00001000
00000000
,
00000010
00000000
00000001
00000000
,
00001000
00000000
00000100
00000000
,
00010000
00010000
00010000
00000000
,
00001000
00001000
00001000
00000000
,
00100000
00010000
00100000
00000000
,
01000000
10000000
01000000
00000000
,
10010000
00000000
10010000
00000000
,
00100000
01000000
00000000
10010000
,
00100000
00000000
00010000
00000000
,
10000000
01000000
10000000
01000000
,
00010000
00000000
00001000
00000000
,
00000000
00011000
00011000
00000000
,
00000010
00000000
00001000
00000000
,
00000001
00000100
00000001
00000100
,
00000010
00000000
00001000
00000000
,
00010000
00000000
00000000
00011000
,
00100000
00000000
00000000
10010000
,
01000000
00000000
00000000
10010000
,
00100000
00010000
10000000
02200000
,
00000000
00000000
00000000
00000000
,
00000000
00000000
00000000
00000000
,
00000000
00000000
00000000
00000000
,
00000000
03300000
20020000
00000000
,
00000000
30030000
00000000
00000000
,
00000000
00000000
00000000
00000000
;

//---------------dance-double - ----------------
#NOTES:
     dance-double:
     :
     Medium:
     9:
     :
00000000
00000000
00000000
00000000
,
00000000
00000000
00000000
00000000
,
00000000
00000000
00000000
00000000
,
00000000
00000000
00000000
00000000
,
00000000
00000000
00000000
00000000
,
00000010
00000000
00000101
00000101
,
00000010
00000000
00001100
00001100
,
00010000
00000000
00011000
00011000
,
00200000
00000000
01000000
01300000
,
00100000
00010000
01000000
00000000
00100000
00000000
00100000
00000000
,
10000000
01000000
00100000
00000000
00010000
00000000
00010000
00000000
,
01000000
00001000
00010000
00000000
00000100
00000000
00000100
00000000
,
00000010
00000001
00001000
00000000
00000010
00000000
00000010
00000000
,
00000100
00000001
00000010
00000000
00000100
00000000
00000100
00000000
,
00000010
00001000
00010000
00000000
00001000
00000000
00001000
00000000
,
01000000
00010000
00000000
00000000
00100000
00010000
00000000
00000000
,
01000000
00100000
01000000
00100000
00000000
00000000
10010000
00000000
,
00100000
10000000
01000000
00010000
,
00001000
00010000
00001000
00000000
00000010
00000100
00000010
00000000
,
00000001
00000010
00000100
00001000
,
00000000
00000110
00001001
00000000
,
00000010
00000001
00000100
00001000
,
00010000
00001000
00010000
00000000
00100000
01000000
00100000
00000000
,
00010000
01100000
10000000
01100000
,
00010000
10000000
01000000
10000000
00010000
00000000
01100000
00000000
,
00010000
00001000
00010000
00001000
00010000
00000000
00001100
00000000
,
00000010
00000001
00001000
00000001
00000010
00000000
00000110
00000000
,
00000010
00000010
00000010
00000000
00000100
00000100
00000100
00000000
,
00000001
00000000
00000010
00000000
00000000
00000100
00001000
00000000
,
00000001
00000000
00000100
00000000
00000000
00001000
00010000
00000000
,
00100000
00000000
10000000
00000000
00000000
00010000
01000000
00000000
,
01100000
00000000
10010000
00000000
00100000
01000000
00100000
00000000
,
10000000
01000000
00010000
00001000
,
00000000
00000010
00000001
00000100
,
00000010
00000000
00001000
00000000
00000100
00000000
00001000
00000002
,
00000000
00000000
00000000
00000003
,
00000001
00000000
00000100
00000000
00000000
00000010
00001000
00000000
,
00000001
00000000
00000010
00000000
00000000
00001000
00010000
00000000
,
01000000
00000000
10000000
00000000
00000000
00010000
00100000
00000000
,
01100000
00000000
10010000
00000000
01000000
00100000
01000000
00000000
,
10000000
00100000
00010000
00001000
,
00000000
00000100
00000001
00000010
,
00000100
00000000
00001000
00000000
00000010
00000000
00001000
00000002
,
00000000
00000000
00000000
00000003
,
00000010
00000010
00000001
00000001
,
00000100
00000100
00001000
00001000
,
00010000
00010000
01000000
01000000
,
10000000
10000000
01100000
10010000
,
00100000
00100000
10000000
10000000
,
01000000
01000000
00010000
00010000
,
00001000
00000100
00000001
00000010
,
00000100
00000010
00000100
00000000
,
00000020
00000000
00000031
00000100
,
00000002
00000000
00000013
00001000
,
00010000
00000000
00001000
00100000
00000000
00000000
00010000
10000000
,
00000000
00000000
00000000
00000000
,
00100000
00000000
10000000
01000000
00000000
00100000
00100000
00000000
,
00010000
00000000
01000000
00100000
00000000
00000000
00000000
00000000
,
00001000
00011000
00000010
00000110
,
00001000
00000000
00000001
00000100
00000000
00000000
00000001
00000000
,
00001000
00000000
00000001
00000010
00000000
00000100
00000100
00000000
,
00001000
00000000
00000010
00000100
00000000
00000000
00000000
00000000
,
00001000
00010000
01000000
10000000
,
00100000
01000000
00100000
01000000
00000000
00000000
00010000
00000000
,
10000000
00000000
00100000
01000000
00000000
00010000
00010000
00000000
,
00100000
00000000
00001000
00010000
00000000
00000000
00000000
00000000
,
00000010
00000101
00000010
00001100
,
00000001
00000000
00001000
00000100
00000000
00000000
00000000
00000000
,
00000010
00000001
00000100
00001000
,
00010000
01000000
10000000
00000000
,
00100000
10000000
01000000
01000000
,
00100000
00010000
01000000
01000000
,
00110000
00000000
00011000
00000000
00000010
00000100
00000010
00000000
,
00001001
00000000
00000110
00000000
00000001
00001000
00000001
00000000
,
00000010
00000100
00000000
00000000
00001000
00010000
00000000
00000000
,
00100000
01000000
00100000
01000000
00000000
00000000
10010000
00000000
,
01000000
10000000
00100000
00010000
,
00001000
00010000
00001000
00000000
00000100
00000010
00000100
00000000
,
00000001
00000100
00000010
00001000
,
00000000
00000110
00001001
00000000
,
00000100
00000001
00000010
00001000
,
00010000
00001000
00010000
00000000
01000000
00100000
01000000
00000000
,
00010000
01100000
10000000
01100000
,
00010000
10000000
00100000
10000000
00010000
00000000
01100000
00000000
,
00010000
00001000
00010000
00001000
00010000
00000000
00001010
00000000
,
00000100
00000001
00001000
00000001
00000100
00000000
00000110
00000000
,
00001000
00000001
00001000
00000001
00001000
00000000
00000220
00000000
,
00000000
00000000
00000000
00000000
,
00000000
00000000
00000000
00000000
,
00000000
00000000
00000000
00000000
,
00000000
00000330
00002002
00000000
,
00000000
00003003
00000000
00000000
,
00000000
00000000
00000000
00000000
;

//---------------dance-double - ----------------
#NOTES:
     dance-double:
     :
     Hard:
     12:
     :
00000000
00000000
00000000
00000000
,
00000000
00000000
00000000
00000000
,
00000000
00000000
00000000
00000000
,
00000000
00000000
00000000
00000000
,
00000000
00000000
00000000
00000000
00000000
00000000
00000000
00100000
,
10000000
00100000
00000000
00000000
01010000
00000000
01010000
00000000
,
00001000
00010000
00000000
00000000
00001010
00000000
00001010
00000000
,
00000001
00000010
00000000
00000000
00001100
00000000
00001100
00000000
,
00020000
00000000
00001000
00031000
,
01000000
10000000
00010000
00000000
01000000
00000000
01100000
00000000
,
10000000
01000000
00100000
00000000
00010000
00000000
00011000
00000000
,
00000100
00000001
00001000
00000000
00000100
00000000
00000110
00000000
,
00000010
00000001
00000100
00000000
00000010
00000000
00010010
00000000
,
00001000
00010000
00100000
00000000
01000000
00000000
01100000
00000000
,
00100000
10000000
01000000
00000000
00010000
00000000
01100000
00000000
,
00010000
01000000
00000000
00001000
00010000
00000100
00000000
00001000
,
00000001
00000100
00000010
00001000
00000000
00000001
00000010
00000000
,
00001000
00000000
00000000
00010000
01000000
10000000
00000000
00010000
,
01000000
10000000
00000000
00010000
00100000
00010000
00001000
00000100
,
00000010
00000000
00000000
00001000
00000100
00000010
00000001
00000100
,
00000000
00001100
00011000
00000000
,
00100000
00000000
00000000
00010000
10000000
00100000
00000000
00010000
,
00100000
10000000
00000000
01000000
00010000
00001000
00000100
00000001
,
00001000
00000001
00001000
00000001
00001000
00000000
00000000
00000000
00000010
00000100
00000010
00000100
00000010
00000000
00000000
00000000
,
00000010
00010000
00001000
00100000
00010000
00000000
10010000
00000000
,
00100000
00001000
00010000
00000010
00001000
00000000
00000110
00000000
,
00000010
00010000
00001000
00100000
00010000
00000000
10010000
00000000
,
00100000
10000000
01000000
00000000
00100000
00010000
01000000
00000000
,
00001000
00000000
00000000
00010000
00000010
00000000
00001000
00000000
00000000
00000000
00000100
00000000
00000010
00000000
00000000
00000000
,
00000001
00000000
00000000
00000010
00000100
00000000
00001000
00000000
00000000
00000000
00000001
00000000
00000100
00000000
00000000
00000000
,
00001000
00000000
00000000
00010000
00100000
00000000
01000000
00000000
00000000
00000000
00010000
00000000
10000000
00000000
00000000
00000000
,
01100000
00000000
10010000
00000000
01100000
00010000
10000000
00000000
,
00100000
00000000
01000000
00000000
00010000
00000000
00100000
00010000
,
00000000
00001000
00000100
00000000
00000010
00000001
00000100
00000000
,
00000001
00000000
00000010
00001000
00010000
01000000
10000000
00020000
,
00000000
00000000
00000000
00030000
,
01000000
00000000
00000000
00001000
00100000
00000000
00010000
00000000
00000000
00000000
01000000
00000000
00100000
00000000
00000000
00000000
,
10000000
00000000
00000000
00100000
01000000
00000000
00010000
00000000
00000000
00000000
10000000
00000000
01000000
00000000
00000000
00000000
,
00010000
00000000
00000000
00001000
00000010
00000000
00000100
00000000
00000000
00000000
00001000
00000000
00000001
00000000
00000000
00000000
,
00000110
00000000
00001001
00000000
00000110
00001000
00000001
00000000
,
00000010
00000000
00000100
00000000
00001000
00000000
00000010
00001000
,
00000000
00010000
01000000
00000000
00100000
10000000
01000000
00000000
,
10000000
00000000
00100000
00010000
00001000
00000100
00000001
00002000
,
00000000
00000000
00000000
00003000
,
00000001
00000100
00001000
00000000
00001000
00010000
01000000
00000000
,
01000000
10000000
00100000
00000000
00100000
00010000
00001000
00000000
,
00001000
00000010
00000001
00000000
00000001
00000100
00001000
00000000
,
00001000
00010000
01000000
00000000
01100000
00000000
10010000
00000000
,
10000000
01000000
00010000
00000000
00010000
00001000
00000100
00000000
,
00000100
00000001
00000010
00000000
00000010
00001000
00010000
00000000
,
00010000
00100000
10000000
00000000
10000000
01000000
00010000
00000000
,
00010000
00001000
00000100
00001000
00010000
00000000
00000000
00000000
,
00000020
00000000
00000000
00001000
00001030
00000000
00000100
00000000
,
00000020
00000000
00000000
00000001
00000031
00000000
00000100
00000000
,
00000010
00000000
00010000
00001000
00000000
00100000
00010000
10000000
,
00000000
00000000
00000000
00000000
,
00010000
01000000
00100000
10000000
00000000
00010000
00010000
00010000
,
10000000
01000000
00100000
00010000
00000000
00000000
00000000
00000000
,
00110000
00011000
00001010
00000011
,
00001000
00000001
00000100
00000010
00000000
00001000
00001000
00001000
,
00000001
00000100
00001000
00010000
00000000
01000000
01000000
01000000
,
00010000
01000000
10000000
00100000
00000000
00000000
00000000
00000000
,
00010000
00100000
10000000
01000000
,
00010000
00001000
00000010
00000001
00000000
00000100
00000100
00000100
,
00001000
00000100
00000010
00000001
00000000
00001000
00001000
00001000
,
00000001
00000100
00000010
00001000
00000000
00000000
00000000
00000000
,
00001010
00011000
00110000
10100000
,
00010000
10000000
01000000
00100000
00000000
00000000
00000000
00000000
,
00010000
00001000
00000100
00000010
,
00000001
00000000
00000000
00000100
00000010
00000000
00000000
00010000
,
00000000
00000000
00001000
00000000
00100000
00010000
01000000
00001000
,
00000000
00000000
00010000
00000000
00000010
00001000
00000100
00000000
,
00000110
00000000
00001001
00000000
00000110
00001000
00000100
00000000
,
00011000
00000000
00110000
00000000
01100000
10000000
00010000
00000000
,
00100000
01000000
00000000
00010000
10000000
01000000
00000000
00010000
,
00001000
00000100
00000001
00000010
00000000
00000100
00000010
00000000
,
00000001
00000000
00000000
00001000
00000100
00000001
00000000
00001000
,
00000100
00000001
00000000
00001000
00000010
00001000
00010000
01000000
,
00100000
00000000
00000000
00010000
01000000
00100000
10000000
01000000
,
00000000
01010000
00011000
00000000
,
00000010
00000000
00000000
00000001
00001000
00000010
00000000
00001000
,
00000010
00000100
00000001
00000100
00001000
00010000
01000000
10000000
,
00010000
10000000
00010000
10000000
00010000
00000000
00000000
00000000
00100000
01000000
00100000
01000000
00100000
00000000
00000000
00000000
,
00100000
00001000
00010000
00000010
00001000
00000000
00001001
00000000
,
00000010
00010000
00001000
00100000
00010000
00000000
01100000
00000000
,
00100000
00001000
00010000
00000010
00001000
00000000
00001001
00000000
,
00000010
00010000
00001000
01000000
00010000
00000000
20020000
00000000
,
00000000
00000000
00000000
00000000
,
00000000
00000000
00000000
00000000
,
00000000
00000000
00000000
00000000
,
00000000
30030000
02200000
00000000
,
00000000
03300000
00000000
00000000
,
00000000
00000000
00000000
00000000
;

//---------------dance-double - ----------------
#NOTES:
     dance-double:
     :
     Challenge:
     15:
     :
00000000
00000000
00000000
00000000
,
00000000
00000000
00000000
00000000
,
00000000
00000000
00000000
00000000
,
00000000
00000000
00000000
00000000
,
00001000
00000001
00001000
00000000
00000100
00000010
00000100
00000000
00001000
00000000
00000001
00000000
00000100
00000000
00001000
00000000
,
00010000
00200000
00000000
00300000
10100000
10000000
01000000
00010000
,
00001000
00000020
00000000
00000030
00000011
00000001
00000100
00001000
,
00010000
00200000
00000000
00300000
10100000
10000000
01000000
00010000
,
00001000
00010000
00001000
00000000
00010000
00000010
00010000
00000010
00010000
00000000
00000000
00000000
00001000
00000000
00010000
00000000
,
01000000
00010000
01000000
00100000
01000000
10000000
01000000
00010000
,
00001000
00000000
00000100
00000000
00000001
00000000
00000010
00000000
00000100
00001000
00000010
00000000
00001000
00000100
00010000
00000000
,
00001000
00010000
01000000
10000000
00100000
01000000
00100000
01000000
,
00001000
00010000
00001000
00000000
00010000
00000000
00001000
00000000
00011000
00000000
00010100
00000000
00001100
00000000
00000000
00000000
,
00001000
00000100
00000001
00000100
00001000
00000010
00000100
00001000
,
00010000
01000000
10000000
01000000
00010000
01000000
10000000
01000000
,
00010000
00011000
00000000
00000010
00000100
00000010
00000000
00000001
,
00000010
00001000
00010000
00001000
00000000
00011000
00220000
00330000
,
10000000
10000000
01000000
00100000
00010000
00001000
00000100
00001000
,
00000001
00000010
00000001
00001000
00000001
00000100
00001000
00010000
,
00100000
10000000
00100000
01000000
00010000
01000000
00001000
00010000
,
00001000
00000000
00010100
00000000
00000110
00000000
00000010
00000100
,
00001000
00000100
00000010
00000100
00001000
00010000
01000000
00010000
,
10000000
00100000
10000000
00010000
10000000
01000000
00010000
00001000
,
00010000
00001000
00010000
00001000
00010000
00000000
00000000
00000000
00000010
00000100
00000010
00000100
00000010
00000000
00000000
00000000
,
00001000
00000000
00000010
00000000
00001000
00000010
00001000
00000000
00000020
00000000
00000030
00000000
00011000
00000000
00000000
00000000
,
00001000
00010000
00001000
00000000
00010000
00001000
00010000
00000000
02000000
00000000
03000000
00000000
01010000
00000000
00000000
00000000
,
00100000
01000000
00100000
00000000
10000000
01000000
10000000
00000000
02000000
00000000
03000000
00000000
11000000
00000000
00000000
10000000
,
01000000
00000000
00010000
00000000
00001000
00000000
00000000
00010000
00000010
00000000
00001000
00000000
00000010
00000000
00000000
00000000
,
00000100
00000000
00000000
00000001
00000010
00000000
00000001
00000000
00001000
00000000
00000100
00000000
00001000
00000100
00010000
00000000
,
00001000
00000000
00000000
00100000
00010000
00000000
00100000
00000000
00010000
00100000
00010000
00000000
10000000
00000000
00000000
00000000
,
00100000
00000000
00000000
00010000
00001000
00000000
00010000
00000000
00001000
00000000
00000100
00000000
00000010
00000100
00000010
00000000
,
00001100
00000000
00000110
00000000
00001001
00000110
00001001
00000000
,
00000001
00000100
00001000
00010000
00001000
00100000
00010000
01000000
,
10000000
00000000
01000000
00000000
00010000
00000000
01000000
00000000
00100000
10000000
00100000
00000000
10000000
01000000
10000000
00000000
,
01000000
00010000
00001000
00000010
00000001
00001000
00000001
00000100
,
00000000
00000000
00000001
00000000
00000100
00000001
00000000
00000010
00000001
00000000
00000010
00001000
00000000
00000010
00000001
00000000
,
00000100
00000000
00000000
00000001
00000010
00000000
00000001
00000000
00001000
00000000
00000100
00000000
00001000
00000100
00010000
00000000
,
00001000
00000000
00000000
00100000
00010000
00000000
00100000
00000000
00010000
00100000
00010000
00000000
10000000
00000000
00000000
00000000
,
01000000
00000000
00000000
00010000
00001000
00000000
00000100
00000000
00000001
00000000
00000010
00000000
00000100
00000010
00000100
00000000
,
00001001
00000000
00000110
00000000
00001001
00000110
00001001
00000000
,
00000001
00000100
00001000
00010000
00001000
00100000
00010000
01000000
,
10000000
00000000
01000000
00000000
00010000
00000000
01000000
00000000
00100000
10000000
00100000
00000000
10000000
01000000
10000000
00000000
,
01000000
00100000
00010000
00001000
00000010
00001000
00000001
00000200
,
00000300
00000000
00000001
00000000
00000100
00000001
00000000
00000010
00000001
00000000
00001000
00000001
00000000
00000100
00000001
00000000
,
00000100
00001000
00010000
01000000
10000000
00010000
01000000
10000000
,
01000000
00000000
00010000
00000000
00100000
00000000
00010000
00000000
00100000
00000000
00001000
00000000
00010000
00001000
00010000
00000000
,
00001000
00000100
00000001
00001000
00000001
00001000
00000100
00000001
,
00000100
00001000
00000010
00000001
00000011
00000000
00001010
00000000
,
00010000
00001000
00010000
00000000
00001000
00000000
00100000
00000000
00010000
10000000
00010000
00000000
01000000
00000000
00010000
00000000
,
01000000
00000000
10000000
00000000
01000000
00000000
00010000
00000000
00100000
00000000
00010000
00000000
00100000
00001000
00100000
00000000
,
00001000
00000100
00000001
00000100
00000010
00001000
00000010
00001000
,
00000001
00000100
00000001
00000000
00000100
00000000
00000000
00000000
00001000
00010000
00001000
00000000
00010000
00000000
00100000
00000000
,
02000000
00100000
00000000
00100000
00010000
00000000
10000000
03000000
,
00200000
01000000
00000000
01000000
10000000
00000000
00010000
00310000
,
00001000
00000100
00000010
00000110
00000100
00000010
00000100
00000110
,
00000000
00000010
00001000
00000010
00001000
00000001
00000100
00001000
,
00100000
00000000
00010000
00000000
01000000
00000000
00010000
00000000
00100000
00010000
01000000
00000000
00001000
00000000
00000000
00000000
,
01000000
00000000
00010000
00000000
00100000
00000000
00010000
00000000
01000000
00100000
10000000
00000000
01000000
00000000
00000000
00000000
,
00010000
00001000
00000100
00001000
00010000
00001000
00010000
01000000
,
00010000
00001000
00000010
00000001
00001000
00000001
00000100
00001000
,
00100000
00000000
00010000
00000000
01000000
00000000
00010000
00000000
00100000
00010000
01000000
00000000
00001000
00000000
00000000
00000000
,
01000000
00000000
00010000
00000000
00100000
00000000
00010000
00000000
01000000
00100000
10000000
00000000
01000000
00000000
00000000
00000000
,
10000000
01000000
00100000
00010000
00001000
00000010
00000100
00000010
,
00001000
00000010
00001000
00000001
00000100
00001000
00010000
01000000
,
00100000
00000000
00010000
00000000
01000000
00000000
00010000
00000000
00100000
00010000
01000000
00000000
00001000
00000000
00000000
00000000
,
01000000
00000000
00010000
00000000
00100000
00000000
00010000
00000000
01000000
00100000
10000000
00000000
01000000
00000000
00000000
00000000
,
00010000
00001000
00000100
00001000
00010000
00001000
00010000
01000000
,
00010000
00001000
00000010
00000000
00001100
00000000
00000011
00000000
,
00001100
00011000
00110000
10100000
,
10000000
01000000
10000000
00000000
01000000
00000000
10000000
00000000
01000000
00000000
00010000
00000000
00001000
00000000
00000200
00000000
,
00000000
00000000
00000000
00000000
00000310
00000000
00000000
00000000
00000100
00000010
00000100
00000000
00000001
00000000
00000020
00000000
,
00000000
00000000
00000000
00000000
00000031
00000000
00000000
00000000
00000010
00000001
00001000
00000000
00000010
00000100
00000001
00000000
,
00000110
00000000
00001100
00000000
00011000
00011000
00011000
00000000
,
00110000
00000000
01100000
00000000
11000000
11000000
11000000
01000000
,
00100000
00000000
00002000
00000000
00000000
00000000
00013000
00000000
00001000
00000000
00000020
00000000
00000000
00000030
00000100
00000000
,
00000010
00000001
00001000
00000200
00000300
00001100
00000011
00000000
,
00000001
00000100
00001000
00010000
00100000
01000000
00010000
01000000
,
10000000
01000000
00100000
10000000
00100000
10000000
01000000
00010000
,
00001000
00000100
00000010
00000100
00000001
00000100
00000001
00000100
,
00001000
00000000
00000000
00000000
00001100
00000000
00000000
00000000
00000011
00000000
00000000
00000000
00000010
00000000
00000001
00000010
,
00000001
00000100
00001000
00010000
00100000
01000000
10000000
00000000
,
01000000
00010000
10000000
01000000
00100000
00010000
00100000
00010000
,
00100000
00001000
00100000
00001000
00200000
00000000
00300000
00000000
00001000
00010000
00001000
00010000
00002000
00000000
00003000
00000000
,
00010000
00000000
00001000
00000000
00000100
00000010
00000100
00000000
00000020
00000000
00000030
00000000
00001001
00000000
00000000
00000000
,
00000001
00000000
00000100
00000000
00001000
00010000
00001000
00000000
00020000
00000000
00030000
00000000
01100000
00000000
00000000
00000000
,
00100000
01000000
00100000
00000000
00010000
01000000
00010000
00000000
02000000
00000000
03000000
00000000
00110000
00000000
00000000
00000000
,
00010000
00001000
00010000
00000000
00001000
00010000
00001000
00000000
00010000
00000000
00000000
00000000
00002000
00000000
00000000
00000000
,
00000000
00000000
00000000
00003000
00000000
00010000
00000000
00001000
00000000
00000100
00000000
00000001
,
00000000
00000000
00000100
00000000
00000000
00000000
00001000
00000000
00000000
00000000
00000000
00010000
00000000
00000000
00000000
00000000
00000000
00000000
00001000
00000000
00000000
00000000
00000000
00000000
,
00011000
00000000
00000000
00000000
,
00000000
00000000
20020000
00000000
,
00000000
30030000
00010000
10000000
01000000
00000000
00000000
00000000
00000000
00000000
00000000
00000000
00000000
00000000
00000000
00000000
,
00000000
00000000
00000000
00000000
;
