#TITLE:Heavenly Moon;
#SUBTITLE:;
#ARTIST:Tatsh;
#TITLETRANSLIT:;
#SUBTITLETRANSLIT:;
#ARTISTTRANSLIT:;
#CREDIT:;
#BANNER:Banner.JPG;
#BACKGROUND:bg1.jpg;
#LYRICSPATH:;
#CDTITLE:;AuthorTitle.png
#MUSIC:10. HEAVENLY MOON2.mp3;
#OFFSET:0.000;
#SAMPLESTART:11.500;
#SAMPLELENGTH:11.540;
#SELECTABLE:YES;
#BPMS:0.000=185.000,29.500=92.060,45.500=200.900,48.000=185.000;
#STOPS:8.500=0.640
,15.000=0.640
,21.000=0.640
,48.000=1.700
,78.750=0.020
,79.000=0.020
,79.250=0.020
,79.500=0.020
,110.000=0.020
,110.250=0.020
,110.500=0.020
,110.750=0.020
,111.000=0.020
,111.250=1.440
,179.000=1.360
,298.000=0.020
,298.250=0.020
,298.500=0.020
,298.750=0.020
,299.000=0.020
;
#BGCHANGES:0.000=bg1.jpg=1.000=0=0=1,
99999=-nosongbg-=1.000=0=0=0 // don't automatically add -songbackground-
;

//---------------dance-single - ----------------
#NOTES:
     dance-single:
     :
     Challenge:
     16:
     0.761,0.811,0.711,0.298,0.401: // measure 1
0000
0000
0000
0000
0000
0000
0100
0010
,  // measure 2
0100
1000
0100
0010
0100
0100
1000
0100
,  // measure 3
0100
0010
1000
0001
0100
0010
0001
0010
,  // measure 4
0001
0100
1000
0010
0001
0100
1000
0100
,  // measure 5
0010
0001
0100
0010
1000
0001
0100
0010
,  // measure 6
0100
0001
0010
0100
0001
0100
0000
1000
,  // measure 7
0000
0000
0100
0000
0010
0000
0001
0000
0110
0000
0000
1001
0000
0110
0000
0010
,  // measure 8
0100
1000
0100
0010
0001
0010
0100
0000
1001
0000
0101
0000
0011
0000
0022
0000
,  // measure 9
0000
0000
0003
0000
0000
0030
0000
1100
0000
0110
0000
0011
0000
1001
0000
0000
,  // measure 10
0000
2000
0000
3200
0000
0320
0000
0000
0000
0000
0030
0002
0000
0020
0003
0000
,  // measure 11
0000
0000
0000
0030
0000
0220
0000
0000
0000
0000
0330
1000
0100
0010
0000
0000
,  // measure 12
0000
0000
0000
0000
0000
2002
0000
0000
0000
0000
0000
0000
0000
0000
0000
0000
,  // measure 13
3003
1100
0000
0000
1100
0000
0010
0000
0011
0000
0000
0101
0000
0000
0010
0000
,  // measure 14
1100
0000
0000
0101
0000
0000
0010
0000
1001
0000
0000
0110
0000
0000
0100
0000
,  // measure 15
0000
0110
0000
0000
1001
0000
0010
0000
0000
0011
0000
0000
1001
0000
0010
0000
,  // measure 16
0110
0000
0000
1001
0000
0000
0100
0000
1100
0000
0000
0110
0000
0000
1000
0100
,  // measure 17
0010
0000
0000
1001
0000
0000
0100
0000
0000
0110
0000
0000
1001
0000
0010
0000
,  // measure 18
0000
0110
0000
0000
1100
0000
0010
0000
0110
0000
0000
0011
0000
0000
0100
0000
,  // measure 19
0000
1000
0000
0100
0000
0001
0000
0000
0000
0001
0000
0010
0000
0100
1000
0100
,  // measure 20
0010
0001
0000
0010
0000
0100
0000
0000
1001
0000
0000
1000
0100
0010
0001
0000
,  // measure 21
0000
1002
0000
0000
0003
0000
0120
0000
0000
0030
0000
0000
2002
0000
3003
0000
,  // measure 22
1002
0000
0000
0003
0000
0000
0120
0000
0000
0000
0000
0030
1200
0000
0300
0000
,  // measure 23
0120
0000
0000
0030
0000
0000
0011
0000
0000
0000
0000
0000
0011
0000
0000
0000
,  // measure 24
1000
0000
0001
0000
0010
0000
0000
0000
0100
0000
1000
0000
0010
0000
0001
0010
,  // measure 25
0200
0300
0000
0000
0000
0000
1001
0000
0000
0000
0000
0000
1100
0000
0000
0000
,  // measure 26
0011
0000
0000
1100
0000
0000
0110
0000
,  // measure 27
0220
0000
0000
0000
0000
0000
0000
0000
0000
0000
0000
0000
0000
0000
0000
0330
,  // measure 28
1000
0000
0000
0100
0000
0000
0010
0000
0000
0001
0000
0000
0010
0000
0000
0100
0000
0000
1000
0000
1001
0000
0000
0000
,  // measure 29
1100
0001
0010
0001
1000
0000
1010
0001
,  // measure 30
1000
0001
1000
0010
0100
0000
1001
0010
,  // measure 31
1000
0001
0100
0010
0100
0000
0110
0002
,  // measure 32
0023
0230
0302
0023
0230
0300
0110
0001
,  // measure 33
1000
0001
0100
0010
0100
0000
0110
0001
,  // measure 34
0010
0100
1000
0100
0010
0000
0110
0001
,  // measure 35
0020
0000
1030
0000
0200
0000
0301
0000
0010
0000
0000
0000
0100
0100
1000
0000
,  // measure 36
1000
0000
0100
0000
0100
0000
0010
0000
0000
0100
0000
0000
1100
0000
0000
0000
,  // measure 37
0000
1010
0000
0000
1001
0000
0000
0000
,  // measure 38
0000
0000
0000
0220
,  // measure 39
0000
0000
0000
0000
,  // measure 40
0000
0000
0330
0000
0000
0000
0100
1000
,  // measure 41
0100
0010
0010
0001
0010
0010
0100
1000
,  // measure 42
1000
0100
0010
0010
0001
0010
0010
0100
,  // measure 43
0010
0010
0100
1000
1000
0100
0010
0010
,  // measure 44
0001
0010
0010
0100
0100
1000
1000
0100
,  // measure 45
0100
0000
0010
0000
0010
0000
0001
0000
0001
0100
0010
0000
0100
0000
0010
0000
,  // measure 46
0100
0000
1000
0000
0100
0000
0000
0001
0000
0000
0010
0000
0100
0000
1000
0000
,  // measure 47
0100
0000
0010
0000
0001
0000
0000
0010
0100
1000
0100
0000
1000
0000
0100
0000
,  // measure 48
0100
0000
1000
0000
0100
0000
0000
0100
0000
0000
0010
0000
0001
0000
0010
0000
,  // measure 49
0001
0000
0010
0000
0010
0000
0000
0001
0010
0010
0100
1000
0100
0000
0010
0000
,  // measure 50
0001
0000
0010
0000
0100
0000
0000
1000
0000
0000
1000
0000
0100
0000
0100
0000
,  // measure 51
1000
0000
0100
0000
0100
0000
0000
0010
0000
0001
0010
0100
1000
0000
0100
0000
,  // measure 52
0010
0000
0001
0000
0010
0000
0000
0100
0000
0000
0000
0100
0010
0001
0010
0100
,  // measure 53
1000
0100
0010
0001
0010
0100
1000
0100
0010
0001
0010
0100
1000
0000
1000
0000
,  // measure 54
0100
0001
0010
0100
1000
0100
0001
0010
,  // measure 55
0001
0000
0100
0000
1001
0000
1001
0000
1001
0010
0100
0000
0110
0000
1000
0000
,  // measure 56
0100
0100
0010
0001
0001
0010
0100
0100
,  // measure 57
1000
0000
0100
0000
0100
0000
0010
0000
0001
0010
0100
1000
0100
0000
0010
0000
,  // measure 58
0010
0100
0100
0010
0010
0001
0001
0100
,  // measure 59
0100
0000
1000
0000
1000
0000
0100
0000
0100
0010
0010
0001
0010
0000
0000
0000
,  // measure 60
0000
0000
0000
0000
1000
0100
0010
0001
0010
0100
1000
0000
0100
1000
0100
0010
,  // measure 61
0001
0010
0100
1000
0100
0010
0001
0010
0100
1000
0100
0010
0001
0000
0000
0000
,  // measure 62
1001
1000
0100
0001
0010
0100
1000
0100
,  // measure 63
0010
0100
0010
0100
0010
1001
1001
0010
,  // measure 64
0100
0100
0010
0100
0100
0100
1000
0100
,  // measure 65
0100
0000
0010
0000
0010
0001
0010
1000
1000
0100
0000
0000
0000
0000
0000
0000
,  // measure 66
0100
0100
0100
0010
0010
0010
0100
0010
,  // measure 67
0001
0010
0100
1000
0100
0100
0100
0010
,  // measure 68
0010
0010
0100
1000
0100
1000
0100
0000
,  // measure 69
0000
0000
0000
0010
0100
0010
0100
0010
,  // measure 70
0010
0010
0010
0100
0100
1000
1000
0100
,  // measure 71
0100
0010
0010
0001
0001
0100
0100
1000
,  // measure 72
1000
0000
0100
0000
0100
0000
0010
0000
0010
0000
0001
0000
0001
0000
0100
1000
,  // measure 73
0100
0001
0010
0001
0010
0100
0010
0100
0010
0100
0010
0100
0010
0000
0000
0000
,  // measure 74
0000
1001
0000
0000
2002
0000
0000
0000
,  // measure 75
3003
0000
0000
1001
,  // measure 76
1001
0000
0000
2002
0000
0000
0000
0000
,  // measure 77
0000
0000
0000
0000
3003
1001
0000
1100
,  // measure 78
0000
1001
0000
0011
0000
1001
0000
1100
,  // measure 79
0000
0110
1001
1001
1001
0000
0000
0000
;

//---------------dance-single - ----------------
#NOTES:
     dance-single:
     :
     Hard:
     14:
     0.616,0.682,0.538,0.265,0.190:
0000
0000
0000
0100
,
0100
0100
0100
1000
,
0100
0010
1000
0000
0100
0000
0001
0000
,
0001
0000
1000
0000
0001
0100
1000
0000
,
0010
0100
1000
0100
,
0100
0001
0010
1000
0001
0100
0000
1000
,
0000
0000
0100
0000
0010
0000
0001
0000
0110
0000
0000
1001
0000
1001
0000
0000
,
0000
0000
0000
0110
1000
0001
0010
0020
,
0000
0000
0000
0000
0000
0030
0000
1000
0000
0100
0000
0010
0000
1001
0000
0000
,
0000
2000
0000
3200
0000
0320
0000
0000
0000
0000
0030
0002
0000
0020
0003
0000
,
0000
0000
0000
0030
0000
0220
0000
0000
0000
0000
0330
1000
0100
0010
0000
0000
,
0000
0000
0000
2002
0000
0000
0000
0000
,
3003
1100
0000
0000
1100
0000
0000
0000
0011
0000
0000
0101
0000
0000
0000
0000
,
1100
0000
0000
0101
0000
0000
0000
0000
1001
0000
0000
0110
0000
0000
0000
0000
,
0000
0110
0000
0000
1001
0000
0000
0000
0000
0011
0000
0000
1001
0000
0000
0000
,
0110
0000
0000
1001
0000
0000
0000
0000
1100
0000
0000
0110
0000
0000
0000
0100
,
0010
0000
0000
1001
0000
0000
0000
0000
0000
0110
0000
0000
1001
0000
0000
0000
,
0000
0110
0000
0000
1100
0000
0000
0000
0110
0000
0000
0011
0000
0000
0000
0000
,
0000
1000
0000
0100
0000
0001
0000
0000
0000
0001
0000
0010
0000
0100
0000
0000
,
0000
0001
0000
0010
0000
0100
0000
0000
1001
0000
0000
0000
0100
0000
0001
0000
,
0000
1002
0000
0000
0003
0000
0120
0000
0000
0030
0000
0000
2002
0000
3003
0000
,
1002
0000
0000
0003
0000
0000
0120
0000
0000
0000
0000
0030
1200
0000
0300
0000
,
0120
0000
0000
0030
0000
0000
0011
0000
0000
0000
0000
0000
0011
0000
0000
0000
,
1000
0001
0010
0000
0100
1000
0010
0001
,
0200
0300
0000
0000
0000
0000
1001
0000
0000
0000
0000
0000
1100
0000
0000
0000
,
0011
0000
0000
1100
0000
0000
0110
0000
,
0220
0000
0000
0000
0000
0000
0000
0000
0000
0000
0000
0000
0000
0000
0000
0330
,
1000
0000
0000
0100
0000
0000
0010
0000
0000
0001
0000
0000
0010
0000
0000
0100
0000
0000
1000
0000
1001
0000
0000
0000
,
1000
0001
0000
0001
1000
0000
1000
0000
,
1000
0001
0000
0010
0100
0000
1000
0010
,
1000
0000
0100
0010
0100
0000
0100
0002
,
0003
0200
0302
0003
0200
0300
0100
0000
,
1000
0001
0000
0010
0100
0000
0100
0000
,
0010
0100
0000
0100
0010
0000
0110
0000
,
0020
1030
0000
0001
0010
0000
0100
1000
,
1000
0000
0100
0000
0100
0000
0010
0000
0000
0100
0000
0000
1100
0000
0000
0000
,
0000
1010
0000
0000
1001
0000
0000
0000
,
0000
0000
0000
0220
,
0000
0000
0000
0000
,
0000
0000
0330
0000
0000
0000
0100
1000
,
0100
0010
0001
0100
0010
0001
0100
1000
,
0010
0100
0010
0100
0001
0100
0010
0100
,
0010
0001
0100
0010
1000
0100
0010
0100
,
0001
0010
0001
0100
0001
1000
0010
0100
,
1000
0010
0100
0001
0001
0010
0100
0010
,
0100
0000
1000
0000
0100
0000
0000
0001
0000
0000
0010
0000
0100
0000
1000
0000
,
0100
0000
0010
0000
0001
0000
0000
0010
0000
0000
0100
0000
1000
0000
0100
0000
,
0100
0000
1000
0000
0100
0000
0000
0100
0000
0000
0010
0000
0001
0000
0010
0000
,
0001
0000
0010
0000
0010
0000
0000
0001
0000
0000
0000
0000
0100
0000
0010
0000
,
0001
0000
0010
0000
0100
0000
0000
1000
0000
0000
1000
0000
0100
0000
0100
0000
,
1000
0000
0100
0000
0100
0000
0000
0010
0000
0000
0000
0000
1000
0000
0100
0000
,
0010
0000
0001
0000
0010
0000
0000
0100
0000
0000
0000
0000
0010
0000
0010
0000
,
1000
0010
0010
1000
0010
0010
1000
1000
,
0100
0001
0010
0100
1000
0100
0001
0010
,
0001
0100
1000
0001
1000
0100
0100
1000
,
0100
0100
0010
0001
0001
0010
0100
0100
,
1000
0100
0100
0010
0001
0100
0100
0010
,
0010
0100
0100
0010
0010
0001
0001
0100
,
0100
1000
1000
0100
0100
0010
0010
0000
,
0000
0000
1000
0010
0010
1000
0100
0100
,
0001
0100
0100
0001
0100
0100
0001
0000
,
1001
1000
0100
0001
0010
0100
1000
0100
,
0010
0100
0010
0100
0010
1000
1001
0010
,
0100
0100
0010
0100
0100
0100
1000
0100
,
0100
0010
0010
0010
1000
0000
0000
0000
,
0100
0100
0100
0010
0010
0010
0100
0010
,
0001
0010
0100
1000
0100
0100
0100
0010
,
0010
0010
0100
1000
0100
1000
0100
0000
,
0000
0000
0000
0010
0100
0010
0100
0001
,
0010
0010
0001
0100
0010
1000
0100
0100
,
1000
0010
0100
0001
0010
0100
0010
1000
,
0100
0100
0001
0010
1000
0001
0001
0100
,
0100
0010
0100
0010
0100
0010
0100
0000
,
0000
1001
0000
0000
2002
0000
0000
0000
,
3003
0000
0000
1001
,
1001
0000
0000
2002
0000
0000
0000
0000
,
0000
0000
0000
0000
3003
1001
0000
1100
,
0000
1001
0000
0011
0000
1001
0000
1100
,
0000
0100
1000
0001
1000
0000
0000
0000
;

//---------------dance-single - ----------------
#NOTES:
     dance-single:
     :
     Medium:
     9:
     0.339,0.325,0.083,0.124,0.141:
0000
0000
0000
0100
,
0100
0100
0100
1000
,
0100
1000
0100
0001
,
0001
1000
0001
1000
,
0010
0100
1000
0100
,
0100
0000
0010
0000
0001
0100
0000
1000
,
0000
0000
0100
0000
0000
0000
0001
0000
0000
0000
0000
1000
0000
0100
0000
0000
,
0000
0000
0000
0110
1000
0001
0001
0020
,
0000
0000
0000
0000
0000
0030
0000
1000
0000
0100
0000
0010
0000
1000
0000
0000
,
0000
1000
0000
0100
0000
0010
0000
0000
0000
0000
0000
0001
0000
0010
0000
0000
,
0000
0000
0000
0000
0000
0110
0000
0000
0000
0000
0000
1000
0000
0010
0000
0000
,
0000
0000
0000
2002
0000
0000
0000
0000
,
3003
1000
0000
0000
1000
0000
0000
0000
0001
0000
0000
0001
0000
0000
0000
0000
,
1000
0000
0000
0001
0000
0000
0000
0000
1000
0000
0000
0100
0000
0000
0000
0000
,
0000
0100
0000
0000
1000
0000
0000
0000
0000
0001
0000
0000
0001
0000
0000
0000
,
0100
0000
0000
1000
0000
0000
0000
0000
1000
0000
0000
0010
0000
0000
0000
0000
,
0010
0000
0000
1000
0000
0000
0000
0000
0000
0100
0000
0000
1000
0000
0000
0000
,
0000
0100
0000
0000
1000
0000
0000
0000
0010
0000
0000
0010
0000
0000
0000
0000
,
0000
1000
0000
0000
0000
0001
0000
0000
0000
0001
0000
0000
0000
0100
0000
0000
,
0000
0001
0000
0000
0000
0100
0000
0000
1001
0000
0000
0000
0000
0000
0000
0000
,
0000
1000
0000
0000
0000
0000
0100
0000
0000
0000
0000
0000
2000
0000
3000
0000
,
1000
0000
0000
0100
0000
0000
1000
0000
,
0100
0000
0000
0010
0000
0000
0010
0000
,
1000
0010
0100
0010
,
0200
0300
0000
0000
0000
0000
1000
0000
0000
0000
0000
0000
1000
0000
0000
0000
,
0010
0000
0000
1000
0000
0000
0100
0000
,
0020
0000
0000
0000
0000
0000
0000
0000
0000
0000
0000
0000
0000
0000
0000
0030
,
1000
0010
0010
0000
,
1000
0000
1000
1000
,
1000
0000
0100
1000
,
1000
0000
0100
0100
,
0000
0000
0002
0003
0200
0300
0100
0000
,
1000
0000
0100
0100
,
0010
0000
0010
0100
,
0020
0030
0000
0000
0010
0000
0100
0000
,
1000
0000
0000
0000
0100
0000
0000
0000
0000
0100
0000
0000
1000
0000
0000
0000
,
0000
1000
0000
0000
1000
0000
0000
0000
,
0000
0000
0000
0220
,
0000
0000
0000
0000
,
0000
0330
0000
0100
,
0100
0001
0010
0100
,
0010
0010
0001
0010
,
0010
0100
1000
0010
,
0001
0001
0001
0010
,
1000
0100
0001
0100
,
0100
0100
0000
0100
,
0100
0001
0000
1000
,
0100
0100
0000
0001
,
0001
0010
0000
0100
,
0001
0100
0000
0100
,
1000
0100
0000
1000
,
0010
0010
0000
0010
,
1000
0010
0010
1000
,
0100
0010
1000
0001
,
0001
1000
1000
0100
,
0100
0010
0001
0100
,
1000
0100
0001
0100
,
0010
0100
0010
0001
,
0100
1000
0100
0010
,
0000
1000
0010
0100
,
0001
0100
0100
0001
,
1001
0100
0010
1000
,
0010
0010
0010
1001
,
0100
0010
0100
1000
,
0100
0010
1000
0000
,
0100
0100
0010
0100
,
0001
0100
0100
0100
,
0010
0100
0100
0100
,
0000
0000
0100
0100
,
0010
0001
0010
0100
,
1000
0100
0010
0010
,
0100
0001
1000
0001
,
0100
0100
0100
0100
,
0000
1001
0000
0000
2002
0000
0000
0000
,
3003
0000
0000
1000
,
1000
0000
0000
2002
0000
0000
0000
0000
,
0000
0000
0000
0000
3003
1000
0000
1000
,
0000
1000
0000
0010
0000
1000
0000
1000
,
0000
0100
1000
0000
1000
0000
0000
0000
;

//---------------dance-single - ----------------
#NOTES:
     dance-single:
     :
     Easy:
     5:
     0.208,0.227,0.025,0.099,0.058:
0000
0000
0000
0100
,
0000
0100
0000
1000
,
0000
1000
0000
0001
,
0000
1000
0000
1000
,
0000
0100
0000
0100
,
0000
0000
0010
0000
0000
0100
0000
0000
,
0000
0000
0100
0000
0000
0000
0000
0000
0000
0000
0000
1000
0000
0000
0000
0000
,
0000
0000
0000
0000
1000
0001
0000
0020
,
0000
0000
0000
0000
0000
0030
0000
1000
0000
0000
0000
0010
0000
1000
0000
0000
,
0000
1000
0000
0000
0000
0010
0000
0000
0000
0000
0000
0001
0000
0000
0000
0000
,
0000
0000
0000
0000
0000
0100
0000
0000
0000
0000
0000
1000
0000
0000
0000
0000
,
0000
0000
0000
2002
0000
0000
0000
0000
,
3003
1000
0001
0000
,
1000
0000
1000
0000
,
0000
1000
0000
0001
,
0100
0000
1000
0000
,
0010
0000
0000
1000
,
0000
1000
0010
0000
,
0000
1000
0000
0000
0000
0000
0000
0000
0000
0001
0000
0000
0000
0000
0000
0000
,
0000
0001
0000
0000
0000
0000
0000
0000
1001
0000
0000
0000
0000
0000
0000
0000
,
0000
1000
0000
0000
0000
0000
0000
0000
0000
0000
0000
0000
2000
0000
3000
0000
,
1000
0000
0000
1000
,
0100
0000
0000
0010
,
1000
0010
0100
0010
,
0200
0300
0000
0000
0000
0000
0000
0000
0000
0000
0000
0000
1000
0000
0000
0000
,
0010
0000
0000
0100
,
0020
0000
0000
0000
0000
0000
0000
0000
0000
0000
0000
0000
0000
0000
0000
0030
,
1000
0010
0010
0000
,
1000
0000
1000
0000
,
1000
0000
0100
0000
,
1000
0000
0100
0100
,
0000
0000
0002
0003
0000
0000
0100
0000
,
1000
0000
0100
0000
,
0010
0000
0010
0000
,
0020
0030
0000
0000
0010
0000
0000
0000
,
1000
0000
0000
0000
0100
0000
0000
0000
0000
0100
0000
0000
1000
0000
0000
0000
,
0000
1000
0000
0000
1000
0000
0000
0000
,
0000
0000
0000
0220
,
0000
0000
0000
0000
,
0000
0330
0000
0100
,
0000
0001
0000
0100
,
0000
0010
0000
0010
,
0000
0100
0000
0010
,
0000
0001
0000
0010
,
0000
0100
0000
0100
,
0000
0100
0000
0100
,
0000
0001
0000
1000
,
0000
0100
0000
0000
,
0001
0000
0000
0100
,
0000
0100
0000
0100
,
0000
0100
0000
1000
,
0000
0010
0000
0010
,
0000
0010
0000
1000
,
0000
0010
0000
0001
,
0000
1000
0000
0100
,
0000
0010
0000
0100
,
0000
0100
0000
0100
,
0000
0100
0000
0001
,
0100
0000
0100
0000
,
0000
1000
0000
0100
,
0000
0100
0000
0001
,
1000
0000
0010
0000
,
0010
0000
0010
0000
,
0100
0000
0100
0000
,
0100
0000
1000
0000
,
0100
0000
0010
0000
,
0001
0000
0100
0000
,
0010
0100
0000
0100
,
0000
0000
0100
0000
,
0010
0000
0010
0000
,
1000
0000
0010
0000
,
0100
0001
0000
0001
,
0100
0000
0100
0000
,
0000
1000
0000
0000
2000
0000
0000
0000
,
3000
0000
0000
1000
,
1000
0000
0000
2000
0000
0000
0000
0000
,
0000
0000
0000
0000
3000
1000
0000
1000
,
0000
1000
0000
0010
0000
1000
0000
1000
,
0000
1000
1000
0000
;

//---------------dance-single - ----------------
#NOTES:
     dance-single:
     :
     Beginner:
     2:
     0.103,0.162,0.008,0.017,0.033:
0000
0000
0000
0100
,
0000
0000
0000
1000
,
0000
0000
0000
0001
,
0000
1000
0000
0000
,
0000
0100
0000
0000
,
0000
0010
0000
0000
,
0000
0100
0000
0000
0000
0000
0000
0000
,
0000
0000
0000
0000
1000
0000
0000
0020
,
0000
0000
0000
0000
0000
0030
0000
0000
0000
0000
0000
0010
0000
0000
0000
0000
,
0000
0000
0000
0000
0000
0010
0000
0000
0000
0000
0000
0000
0000
0000
0000
0000
,
0000
0000
0000
0000
0000
0100
0000
0000
0000
0000
0000
0000
0000
0000
0000
0000
,
0000
0000
0000
0000
,
0000
1000
0000
0000
,
1000
0000
1000
0000
,
0000
1000
0000
0000
,
0100
0000
0000
0000
,
0010
0000
0000
1000
,
0000
0000
0010
0000
,
0000
1000
0000
0000
0000
0000
0000
0000
0000
0001
0000
0000
0000
0000
0000
0000
,
0000
0001
0000
0000
0000
0000
0000
0000
1001
0000
0000
0000
0000
0000
0000
0000
,
0000
1000
0000
0000
0000
0000
0000
0000
0000
0000
0000
0000
0000
0000
0000
0000
,
1000
0000
0000
0000
,
0100
0000
0000
0010
,
0000
0010
0000
0010
,
0000
0000
0000
1000
,
0000
0000
0000
0100
,
0000
0000
0000
0000
,
1000
0010
0000
0000
,
1000
0000
0000
0000
,
1000
0000
0000
0000
,
1000
0000
0100
0000
,
0000
0000
0000
0100
,
0000
0000
0100
0000
,
0000
0000
0010
0000
,
0000
0000
0010
0000
,
1000
0000
0000
0000
0000
0000
0000
0000
0000
0100
0000
0000
0000
0000
0000
0000
,
0000
1000
0000
0000
0000
0000
0000
0000
,
0000
0000
0000
0000
,
0000
0000
0000
0000
,
0000
0000
0000
0100
,
0000
0000
0000
0100
,
0000
0000
0000
0010
,
0000
0000
0000
0010
,
0000
0000
0000
0010
,
0000
0000
0000
0100
,
0000
0000
0000
0100
,
0000
0000
0000
1000
,
0000
0000
0000
0000
,
0001
0000
0000
0100
,
0000
0000
0000
0100
,
0000
0000
0000
1000
,
0000
0000
0000
0010
,
0000
0000
0000
1000
,
0000
0000
0000
0001
,
0000
0000
0000
0100
,
0000
0000
0000
0100
,
0000
0000
0000
0100
,
0000
0000
0000
0001
,
0000
0000
0100
0000
,
0000
0000
0000
0100
,
0000
0000
0000
0001
,
0000
0000
0010
0000
,
0000
0000
0010
0000
,
0000
0000
0100
0000
,
0000
0000
1000
0000
,
0000
0000
0010
0000
,
0000
0000
0100
0000
,
0000
0000
0000
0100
,
0000
0000
0000
0000
,
0010
0000
0000
0000
,
1000
0000
0000
0000
,
0000
0000
0000
0001
,
0000
0000
0100
0000
,
0000
1000
0000
0000
0000
0000
0000
0000
,
0000
0000
0000
0000
,
0000
0000
0000
2000
0000
0000
0000
0000
,
0000
0000
3000
0000
,
0000
0000
0000
0000
0000
1000
0000
1000
,
0000
1000
1000
0000
;
