#TITLE:Mello;
#ARTIST:Alien#Six13;
#BANNER:Mello.png;
#BACKGROUND:Mello-bg.png;
#CDTITLE:./CDTITLES/DANCE DANCE REVOLUTION ULTRAMIX 2.PNG;
#MUSIC:Mello.ogg;
#SAMPLESTART:90.33;
#SAMPLELENGTH:15;
#DISPLAYBPM:97:194;
#BPMS:0=96.99,40=782.6,48=382.97,52=195.65,56=96.98,156=782.6,164=382.97,168=195.65,172=193.93;

//---------------dance-single - ----------------
#NOTES:
     dance-single:
     :
     Beginner:
     1:
     :
0000
0000
0000
0000
,
0000
0000
0000
0000
,
0000
0000
0000
0000
,
1000
0000
0010
0000
,
0010
0000
0001
0000
,
0001
0000
1000
0000
,
1000
0000
0001
0000
,
0001
0000
1000
0000
,
1000
0000
0001
0000
,
0001
0000
1000
0000
,
1001
0000
0000
0000
,
0000
0000
0000
0000
,
0000
0000
0000
0000
,
0000
0000
0000
0000
,
0010
0000
0000
1000
,
0000
0100
0000
0001
,
0000
0010
0000
1000
,
0000
0010
0000
0001
,
0000
0100
0000
1000
,
0000
0100
0000
0001
,
0000
0010
0000
1000
,
0000
0010
0000
0001
,
0000
0001
0000
0000
,
0001
0000
1000
0000
,
1000
0000
0001
0000
,
0001
0000
1000
0000
,
0010
0000
0100
0000
,
0100
0000
0010
0000
,
0010
0000
0100
0000
,
0010
0000
0010
0000
,
1000
0000
1000
0000
,
1000
0000
1000
0000
,
0010
0000
0010
0000
,
0100
0000
0100
0000
,
0100
0000
1000
0000
,
0010
0000
0100
0000
,
1000
0000
0100
0000
,
1000
0000
0010
0000
,
1000
0000
1000
0000
,
1000
0000
0000
0000
,
0000
0000
0000
0000
,
0000
0000
0000
0000
,
0000
0000
0100
0000
,
0100
0000
0000
0000
,
0001
0000
1000
0000
,
0010
0000
0000
0000
,
1000
0000
0100
0000
,
0010
0000
0000
0000
,
0001
0000
1000
0000
,
0100
0000
0000
0000
,
0001
0000
0001
0000
,
0010
0000
1000
0000
,
1000
0000
0100
0000
,
0010
0000
0001
0000
,
0001
0000
0010
0000
,
0100
0000
1000
0000
,
0001
0000
0100
0000
,
0010
0000
1000
0000
,
1000
0000
0110
0000
,
1001
0000
0000
0000
;

//---------------dance-single - ----------------
#NOTES:
     dance-single:
     :
     Easy:
     3:
     :
0000
0000
0000
0000
,
0000
0000
0000
0000
,
0000
0000
0000
0000
,
1000
0000
0010
1000
,
0010
0000
0001
0100
,
0001
0000
1000
0100
,
1000
0000
0001
0010
,
0001
0000
1000
0010
,
1000
0000
0001
0100
,
0001
0000
1000
0001
,
2002
0000
0000
0000
,
0000
0000
0000
0000
,
0000
0000
0000
0000
,
3003
0000
0000
0000
,
0010
0200
0300
1000
,
0010
0200
0300
0001
,
0100
0020
0030
1000
,
0100
0020
0030
0001
,
0010
0200
0300
1000
,
0010
0200
0300
0001
,
0100
0020
0030
1000
,
0100
0020
0030
0001
,
2000
0001
0001
3000
,
0002
1000
1000
0003
,
2000
0001
0001
3000
,
0002
1000
1000
0003
,
0020
0100
0100
0030
,
0200
0010
0010
0300
,
0020
0100
0100
0030
,
0010
0100
0010
0100
,
1000
0001
1000
0001
,
1000
0100
1000
0100
,
0010
0001
0010
0001
,
0100
0001
0100
0001
,
0100
0010
1000
0100
,
0010
0001
0100
0010
,
1000
0001
0100
0010
,
1000
0100
0010
0001
,
1000
0010
1000
0001
,
2000
0000
0000
0000
,
0000
0000
0000
0000
,
0000
0000
0000
3000
,
0000
0000
0100
0000
,
0200
0000
0300
0000
,
0001
0000
1000
0000
,
0020
0000
0030
0000
,
1000
0000
0100
0000
,
0020
0000
0030
0000
,
0001
0000
1000
0000
,
0200
0000
0300
0000
,
0001
0100
0001
0100
,
0020
0000
1030
0000
,
1000
0000
0100
0000
,
0020
0000
0031
0000
,
0001
0000
0010
0000
,
0200
0000
1300
0000
,
0001
0000
0100
0000
,
0020
0000
1000
0030
,
1000
0000
0110
0000
,
2002
0000
0000
3003
;

//---------------dance-single - ----------------
#NOTES:
     dance-single:
     :
     Medium:
     5:
     :
0000
0000
0000
0000
,
0000
0000
0000
0000
,
0000
0000
0000
0000
,
1000
0000
0100
1000
0010
0000
1000
0000
,
0010
0000
0100
0001
0010
0000
0100
0000
,
2000
0000
3000
0000
0001
0000
0100
0001
,
0020
0000
0031
0000
0010
0000
0100
1000
,
0020
0000
1030
0000
0001
0000
0100
0010
,
2000
0000
3000
0000
0001
0010
0100
0000
,
1000
0010
0100
0000
0001
0000
1000
0000
,
2002
0000
0000
0000
,
0000
0000
0000
0000
,
0000
0000
0000
0000
,
3003
0000
0000
0000
,
0010
1000
0200
0000
1000
0000
1300
0000
,
0010
0001
0200
0000
0001
0000
0301
0000
,
0100
0001
2000
0000
0010
0000
3010
0000
,
0100
1000
0002
0000
0010
0000
0013
0000
,
1000
0001
0200
0000
1000
0000
0301
0000
,
0001
1000
0200
0000
0001
0000
1300
0000
,
0100
0010
0002
0000
1000
0000
0103
0000
,
0100
0010
2000
0000
0001
0000
3100
0000
,
2000
0000
0001
0001
0001
0000
3000
0000
,
0002
0000
1000
1000
1000
0000
0003
0000
,
0200
0000
0010
0010
0010
0000
0300
0000
,
0020
0000
0100
0100
0100
0000
0030
0000
,
0200
0000
0001
0001
0001
0000
0300
0000
,
0002
0000
0010
0010
0010
0000
0003
0000
,
2000
0000
0100
0100
0100
0000
3000
0000
,
0010
0000
0100
0000
0010
0100
0010
0000
,
1000
0000
0001
0000
1000
0001
1000
0000
,
0100
0000
1000
0000
0100
1000
0100
0000
,
0010
0000
0001
0000
0010
0001
0010
0000
,
0001
0000
0100
0000
0001
0100
0001
0000
,
0100
0000
0010
0000
1000
0001
0100
0000
,
0010
0000
1000
0000
0001
0100
0010
0000
,
1000
0000
0100
0000
0010
0001
0100
0000
,
1000
0000
0100
0000
0010
1000
0001
0000
,
1000
0001
0010
0000
0001
0100
1000
0000
,
2000
0000
0000
0000
,
0000
0000
0000
0000
,
0000
0000
0000
3000
,
0000
0000
0000
0000
1000
0100
0000
0000
,
0002
0000
0000
0000
0003
0000
0000
1000
,
0001
0000
0000
0000
1000
0010
0000
0000
,
0200
0000
0000
0000
0300
0000
0001
0100
,
0000
0000
0000
0000
0010
1000
0000
0000
,
0200
0000
0000
0000
0300
0000
0000
0010
,
0001
0000
0000
0000
1000
0100
0000
0000
,
0020
0000
0030
0000
,
0001
1000
0001
1000
,
0020
0000
0000
0000
1030
0000
0001
0200
,
0000
0000
0300
0000
0010
1000
0000
0000
,
0200
0000
0000
0000
0310
0000
0001
2000
,
0000
0000
0000
0000
3001
0100
0000
0000
,
0020
0000
0000
0000
1030
0000
0001
2000
,
0000
0000
0000
0000
3100
0010
0000
0000
,
0020
0000
0000
0000
0031
0000
0100
0001
,
0010
0000
0100
1000
0010
0000
0110
0000
,
2002
0000
0000
3003
;

//---------------dance-single - ----------------
#NOTES:
     dance-single:
     :
     Hard:
     8:
     :
0000
0000
0000
0000
,
0000
0000
0000
0000
,
0000
0000
0000
0000
,
1000
0001
1000
0000
0001
0100
0000
0000
0000
0000
0010
0000
0000
0010
0000
0000
,
1000
0100
1000
0000
0001
0100
0000
0000
0000
0000
1000
0000
0000
0100
0000
0000
,
0001
1000
0001
0100
0000
0000
0000
0000
1000
0100
0000
1000
0100
0000
0000
0000
,
1000
0010
1000
0001
0000
0000
0010
0100
0000
0000
0010
0100
0000
0000
1001
0000
,
1000
0001
0000
0100
0010
0000
1000
0010
0000
1010
0000
0001
0100
0001
0100
0000
,
1000
0100
0000
0001
0100
0000
0010
0100
0000
0110
0000
1000
0100
1000
0100
0000
,
0101
1001
0100
0110
0000
0110
1100
0101
,
2002
0000
0000
0000
,
0000
0000
0000
0000
,
0000
0000
0000
0000
,
0000
3003
0000
0000
,
0001
0000
1000
0000
0001
0000
1000
0010
0000
0000
0000
0000
1000
0010
0000
1001
,
0000
0000
0010
0000
0100
0000
0001
0100
0000
0000
0000
0000
1000
0100
0000
0110
,
0000
0000
0010
0000
1000
0000
0010
0100
0000
0000
0000
0000
0100
0010
0000
0000
,
1000
0010
0001
0010
1000
0100
0001
0100
1000
0010
0001
0010
1000
0000
0000
0000
,
0001
0000
1000
0000
0100
0000
0010
0100
0000
0000
0000
0000
1000
0100
0000
0101
,
0000
0000
0010
0000
1000
0000
0001
0100
0000
0000
0000
0000
1000
0100
0000
1100
,
0000
0000
0001
0000
0010
0000
0001
1000
0000
0000
0000
0000
0001
1000
0000
1010
,
0000
0000
0010
0000
0100
0000
0010
1000
0000
0010
0100
0000
0010
0001
0000
0000
,
0101
0000
0000
0000
0000
0110
0000
0110
0000
1100
0000
0000
0000
0000
0000
0000
,
0011
0000
0000
0000
0000
1010
0000
1010
0000
0110
0000
0100
0001
0100
0001
0100
,
1001
0000
0000
0000
0000
0101
0000
1100
0000
0101
0000
0000
0000
0000
0000
0000
,
1000
0010
0100
0001
,
1100
0000
0000
0000
0000
0110
0000
0110
0000
0101
0000
0000
0000
0000
0000
0000
,
0011
0000
0000
0000
0000
1001
0000
1001
0000
1100
0000
0000
0000
0000
0000
0000
,
0110
0000
0000
0000
0000
0101
0000
1100
0000
1100
0000
0000
0000
0000
0000
0000
,
0001
0100
0010
0000
0110
0000
1001
0000
0000
0001
0100
0001
0000
1000
0100
0000
,
0001
0010
1000
0000
0001
0100
0000
0000
0000
0000
0101
0000
0000
1100
0000
0000
,
1000
0100
0001
0000
0001
1000
0000
0000
0000
0000
0110
0000
0000
0101
0000
0000
,
0010
0100
0010
0100
0000
0000
0000
1000
0000
0001
0000
0010
0100
0000
0001
0000
,
1000
0100
1000
0100
0000
0000
0001
0100
0000
0001
0100
0000
0110
0000
0000
0000
,
1000
0010
0001
0100
1000
0100
0001
0010
,
1000
0101
0010
1100
0001
0110
1000
0000
,
0001
0100
0000
0100
0001
0000
0001
1000
0000
0010
0000
0001
0100
0001
0100
0000
,
1000
0010
0000
0010
1000
0000
1000
0001
0000
0100
0000
0010
1000
0010
1000
0000
,
1000
0001
1000
0000
0001
0100
0000
1000
0000
0001
0000
0010
1000
0001
0200
0000
,
0000
0000
0000
0000
,
0000
0000
0000
0000
,
0000
0000
0000
0000
,
0000
0000
0000
0000
0000
0300
0000
0000
,
0001
0000
1000
0000
0001
0000
1000
0020
,
0000
0000
0030
0000
1000
0001
0000
0100
,
0000
0000
0010
0000
1000
0000
1000
0020
,
0000
0000
0030
0000
1000
0100
0000
1000
,
0000
0000
0001
0000
1000
0000
0001
0200
,
0000
0000
0000
0300
,
0001
1000
0001
0000
1000
0001
0000
0100
,
0000
0100
0000
0000
0001
1000
0000
0100
,
0000
0000
1000
0000
0010
0000
1000
0002
,
0000
0000
0003
0000
1000
0010
0000
0100
,
0000
0000
0001
0000
0100
0000
0001
2000
,
0000
0000
3000
0000
0010
1000
0000
1000
,
0000
0000
0001
0000
1000
0000
0100
0020
,
0000
0000
0030
0000
0001
0100
0000
0001
,
0000
0000
1000
0000
0001
0000
1000
0100
,
0000
0000
0100
0000
1000
0000
0000
0000
0010
0000
0000
0010
0000
0000
0000
0000
,
2002
0000
0000
3003
;

//---------------dance-double - ----------------
#NOTES:
     dance-double:
     :
     Beginner:
     1:
     :
00000000
00000000
00000000
00000000
,
00000000
00000000
00000000
00000000
,
00000000
00000000
00000000
00000000
,
00010000
00000000
01000000
00000000
,
01000000
00000000
10000000
00000000
,
10000000
00000000
00010000
00000000
,
10000000
00000000
01000000
00000000
,
00010000
00000000
00001000
00000000
,
00000100
00000000
00000001
00000000
,
00001000
00000000
00000001
00000000
,
00001001
00000000
00000000
00000000
,
00000000
00000000
00000000
00000000
,
00000000
00000000
00000000
00000000
,
00000000
00000000
00000000
00000000
,
00000100
00000000
00001000
00000000
,
00001000
00000000
00000100
00000000
,
00000010
00000000
00000001
00000000
,
00000001
00000000
00000010
00000000
,
00001000
00000000
00010000
00000000
,
00001000
00000000
00010000
00000000
,
00001000
00000000
00001000
00000000
,
00010000
00000000
00010000
00000000
,
00011000
00000000
00000000
00010000
,
00000000
00000000
00000000
01000000
,
00000000
00000000
00000000
00100000
,
00000000
10000000
00000000
10000000
,
00000000
00000000
00000000
00010000
,
00000000
00000000
00000000
00001000
,
00000000
00000000
00000000
00000100
,
00000000
00000100
00000000
00000100
,
00000000
00000000
00000001
00000000
,
00001000
00000000
00001000
00000000
,
00010000
00000000
00010000
00000000
,
10000000
00000000
10000000
00000000
,
00100000
00000000
00100000
00000000
,
01000000
00000000
01000000
00000000
,
00100000
00000000
00010000
00000000
,
00001000
00000000
00000010
00000000
,
00000100
00000000
00000100
00000000
,
00001001
00000000
00000000
00000000
,
00000000
00000000
00000000
00000000
,
00000000
00000000
00000000
00000000
,
00000000
00000000
00000000
00000000
,
00000001
00000000
00000100
00000000
,
00000001
00000000
00001000
00000000
,
00000100
00000000
00010000
00000000
,
00001000
00000000
01000000
00000000
,
00010000
00000000
10000000
00000000
,
00010000
00000000
00100000
00000000
,
00001000
00000000
00010000
00000000
,
00000010
00000000
00001000
00000000
,
00000001
00000000
00000010
00000000
,
00000100
00000000
00001000
00000000
,
00010000
00000000
00100000
00000000
,
01000000
00000000
10000000
00000000
,
00100000
00000000
01000000
00000000
,
00010000
00000000
00001000
00000000
,
00000010
00000000
00000100
00000000
,
00000001
00000000
00001000
00000000
,
00001001
00000000
00000000
00000000
;

//---------------dance-double - ----------------
#NOTES:
     dance-double:
     :
     Easy:
     3:
     :
00000000
00000000
00000000
00000000
,
00000000
00000000
00000000
00000000
,
00000000
00000000
00000000
00000000
,
00010000
00000000
01000000
00010000
,
01000000
00000000
10000000
00100000
,
10000000
00000000
00010000
00000000
,
10000000
00000000
01000000
00000000
,
00010000
00000000
00001000
00000000
,
00000100
00000000
00000001
00000000
,
00001000
00000000
00000001
00000000
,
00002002
00000000
00000000
00000000
,
00000000
00000000
00000000
00000000
,
00000000
00000000
00000000
00000000
,
00000000
00003003
00000000
00000000
,
00000100
00000000
00001000
00000000
,
00001000
00000000
00000100
00000000
,
00000010
00000000
00000001
00000000
,
00000001
00000000
00000010
00000000
,
00001000
00000000
00010000
00000000
,
00001000
00000000
00010000
00000000
,
00001000
00000000
00001000
00000000
,
00010000
00000000
00010000
00000000
,
00022000
00000000
00033000
00010000
,
20020000
00000000
30030000
01000000
,
02200000
00000000
03300000
00100000
,
00010000
10000000
00010000
10000000
,
20020000
00000000
30030000
00010000
,
00022000
00000000
00033000
00001000
,
00002002
00000000
00003003
00000100
,
00000010
00000100
00000010
00000100
,
00000001
00000000
00000001
00000000
,
00001000
00000000
00001000
00000000
,
00010000
00000000
00010000
00000000
,
10000000
00000000
10000000
00000000
,
00100000
00000000
00100000
00000000
,
01000000
00000000
01000000
00000000
,
00100000
00000000
00010000
00000000
,
00001000
00000000
00000010
00000000
,
00000100
00000000
00000100
00000000
,
00001001
00000000
00000000
00000000
,
00000000
00000000
00000000
00000000
,
00000000
00000000
00000000
00000000
,
00000000
00000000
00000000
00000000
,
00000001
00000000
00000100
00000000
,
00000001
00000000
00001000
00000000
,
00000100
00000000
00010000
00000000
,
00001000
00000000
01000000
00000000
,
00010000
00000000
10000000
00000000
,
00010000
00000000
00100000
00000000
,
00001000
00000000
00010000
00000000
,
00000010
00000000
00001000
00000000
,
00000001
00000000
00000010
00000000
,
00000100
00000000
00001000
00000000
,
00010000
00000000
00100000
00000000
,
01000000
00000000
10000000
00000000
,
00100000
00000000
01000000
00000000
,
00010000
00000000
00001000
00000000
,
00000010
00000000
00000100
00000000
,
00000001
00000000
00001000
00000000
,
00002002
00000000
00000000
00003003
;

//---------------dance-double - ----------------
#NOTES:
     dance-double:
     :
     Medium:
     6:
     :
00000000
00000000
00000000
00000000
,
00000000
00000000
00000000
00000000
,
00000000
00000000
00000000
00000000
,
00100000
00000000
10000000
00000000
01000000
00010000
01000000
00000000
,
00010000
00000000
00001000
00000000
00010000
00001000
00010000
00000000
,
00001000
00000000
00000100
00000000
00000001
00000100
00000001
00000000
,
00000010
00000000
00001000
00000000
00010000
00001000
00010000
00000000
,
00001000
00010000
00100000
00010000
,
00001000
00000010
00001000
00010000
,
00001000
00001000
00010000
00010000
,
00022000
00000000
00000000
00000000
,
00000000
00000000
00000000
00000000
,
00000000
00000000
00000000
00000000
,
00000000
00000000
00000000
00033000
,
00011000
00000000
00000100
00000000
00000100
00000001
00000100
00000000
,
00000001
00000000
00000010
00000000
00000010
00001000
00000010
00000000
,
00001000
00000000
00010000
00000000
00010000
00001000
00010000
00000000
,
00010000
00000000
00001000
00000000
00001000
00010000
00001000
00000000
,
00011000
00000000
01000000
00000000
01000000
10000000
01000000
00000000
,
10000000
00000000
00100000
00000000
00100000
00010000
00100000
00000000
,
00010000
00000000
00001000
00000000
00001000
00010000
00001000
00000000
,
00001000
00000000
00010000
00000000
00010000
00001000
00010000
00000000
,
00002020
00000000
00003030
00000000
00000100
00000100
00000100
00000000
,
00000022
00000000
00000033
00000000
00000100
00000100
00000100
00000000
,
00002002
00000000
00003003
00000000
00000010
00000010
00000010
00000000
,
00002002
00003003
00000220
00000330
,
00001000
00000000
00010000
00001000
00010000
00001000
00010000
00000000
,
00100000
00000000
01000000
00100000
01000000
00100000
01000000
00000000
,
10000000
00000000
00010000
10000000
00010000
10000000
00010000
00000000
,
02200000
03300000
20020000
30030000
,
11000000
00000000
01010000
00000000
00100000
00100000
00100000
00000000
,
10100000
00000000
11000000
00000000
00010000
00010000
00010000
00000000
,
00110000
00000000
01010000
00000000
00001000
00001000
00001000
00000000
,
00011000
00000000
00011000
00000000
00001000
00010000
00001000
00000000
,
00011000
00000000
00011000
00000000
00010000
00001000
00010000
00000000
,
00001010
00000000
00001100
00000000
00000001
00000001
00000001
00000000
,
00000011
00000000
00000101
00000000
00001000
00001000
00001000
00000000
,
00000101
00000000
00001100
00000000
00000010
00000010
00000010
00000000
,
00000001
00000010
00001000
00000100
,
00001001
00000000
00000000
00000000
,
00000000
00000000
00000000
00000000
,
00000000
00000000
00000000
00000000
,
00000000
00000000
00000000
00000000
,
01100000
00100000
10100000
00000000
,
10010000
00010000
01010000
00000000
,
10010000
00010000
00110000
00000000
,
01100000
01000000
11000000
00000000
,
10010000
00010000
01010000
00000000
,
01001000
00001000
00011000
00000000
,
00001100
00000100
00000110
00000000
,
00000011
00000001
00001001
00000000
,
00000001
00000100
00000001
00000100
,
00001000
00000100
00001000
00000000
,
00010000
00001000
00010000
01000000
,
00010000
01000000
10000000
00000000
,
00100000
00010000
00100000
00010000
,
00001000
00010000
00001000
00000000
,
00000010
00000001
00000010
00000001
,
00000100
00000001
00000100
00000000
,
00002002
00000000
00000000
00003003
;

//---------------dance-double - ----------------
#NOTES:
     dance-double:
     :
     Hard:
     7:
     :
00000000
00000000
00000000
00000000
,
00000000
00000000
00000000
00000000
,
00000000
00000000
00000000
00000000
,
10010000
00000000
01010000
11000000
,
10000000
00010000
01100000
10010000
,
00100000
00000000
00110000
00000000
10000000
01000000
11000000
00000000
,
00100000
10010000
01100000
10010000
,
10000000
01000000
00100000
00001000
00010000
01000000
10000000
00100000
,
01000000
00001000
00010000
01000000
10000000
01000000
00100000
00010000
,
00100000
01000000
00010000
00001000
00000100
00000010
00000100
00000001
,
00000101
00000000
00000000
00000000
,
00000000
00000000
00000000
00000000
,
00000000
00000000
00000000
00000000
,
00000000
00000000
00000000
00000000
00000000
00000000
00000000
00000000
00000000
00000000
00000000
00000000
00000000
00000000
00000000
10100000
,
00000000
00000000
10000000
00000000
00010000
00000000
00100000
00010000
00000000
00000000
00000000
00000000
10000000
01000000
00000000
00110000
,
00000000
00000000
00100000
00000000
00001000
00000000
00010000
00001000
00000000
00000000
00000000
00000000
00010000
00000100
00000000
00000011
,
00000000
00000000
00000001
00000000
00001000
00000000
00000010
00001000
00000000
00000000
00000000
00000000
00000010
00000100
00000000
00001001
,
00000000
00000000
00000100
00000000
00010000
00000000
00001000
00010000
00000000
00000000
00000000
00000000
00001000
01000000
00000000
10100000
,
00000000
00000000
10000000
00000000
01000000
00000000
00100000
01000000
00000000
00000000
00000000
00000000
10000000
01000000
00000000
00110000
,
00000000
00000000
00100000
00000000
00010000
00000000
10000000
00010000
00000000
00000000
00000000
00000000
00100000
01000000
00000000
10010000
,
00000000
00000000
10000000
00000000
00100000
00000000
01000000
00100000
00000000
00000000
00000000
00000000
10000000
00010000
00000000
01100000
,
00000000
00000000
01000000
00000000
00001000
00000000
00010000
00001000
00000000
00000000
00000000
00000000
00010000
00000000
00000000
00000000
,
00011000
00000000
00000000
00000000
00000000
00001100
00000000
00000110
00000000
00000011
00000000
00000000
00000000
00000000
00000000
00000000
,
00001001
00000000
00000000
00000000
00000000
00000101
00000000
00000110
00000000
00001010
00000000
00000000
00001000
00000000
00000000
00000000
,
00011000
00000000
00000000
00000000
00000000
01010000
00000000
01100000
00000000
10100000
00000000
00000000
00000000
00000000
00000000
00000000
,
10000000
00010000
10000000
00010000
,
10010000
00000000
00000000
00000000
00000000
10100000
00000000
01100000
00000000
01010000
00000000
00000000
00000000
00000000
00000000
00000000
,
00011000
00000000
00000000
00000000
00000000
00011000
00000000
00011000
00000000
00011000
00000000
00000000
00000000
00000000
00000000
00000000
,
00001001
00000000
00000000
00000000
00000000
00001010
00000000
00000110
00000000
00000101
00000000
00000000
00000000
00000000
00000000
00000000
,
00000100
00001001
00000110
00001001
,
00000001
00000000
00000100
00000000
00000010
00000000
00001000
00000000
00000100
00000010
00000100
00000000
00010000
00000000
00000000
00000000
,
00001000
00000000
01000000
00000000
00010000
00000000
00100000
00000000
00010000
10000000
00010000
00000000
01000000
00000000
00000000
00000000
,
00100000
00000000
10000000
00000000
00100000
00000000
01000000
00000000
00010000
10000000
00010000
00000000
01000000
00000000
00100000
00000000
,
01000000
00000000
00010000
00000000
10000000
00000000
01000000
00000000
10000000
00100000
10000000
00000000
01000000
00000000
00000000
00000000
,
00100000
00001000
00010000
01000000
10000000
01000000
00100000
00001000
,
00010000
00001000
00000010
00000001
00000100
00000010
00001000
00000000
,
00000001
00000100
00000001
00000000
00001000
00000000
00000000
00000000
00000010
00000000
00010000
00000000
00011000
00000000
00000000
00000000
,
00010000
00001000
00010000
00000000
00000010
00000000
00000000
00000000
00001000
00000000
00000001
00000000
00001001
00000000
00000000
00000000
,
00000010
00001000
00000010
00000000
00000100
00000000
00001000
00000000
00010000
00000000
01000000
00000000
10000000
00000000
11000000
00000000
,
00000000
00000000
00000000
00000000
,
00000000
00000000
00000000
00000000
,
00000000
00000000
00000000
00000000
,
00000000
00000000
00000000
00000000
,
00000011
00000000
00001000
00000000
00000001
00000000
00000100
00001000
,
00000000
00000000
00000000
00000000
00010000
00100000
00000000
10010000
,
00000000
00000000
01000000
00000000
00010000
00000000
00001000
00000100
,
00000000
00000000
00000000
00000000
00000001
00000010
00000000
00001001
,
00000000
00000000
00000100
00000000
00001000
00000000
00010000
00100000
,
00000000
00000000
00000000
00000000
10000000
01000000
00000000
10010000
,
00000000
00000000
00100000
00000000
00010000
00000000
00001000
00000010
,
00000000
00000000
00000000
00000000
00000001
00000100
00000000
00001001
,
00000000
00000000
00000010
00000000
00000001
00000000
00000100
00001000
,
00000000
00000000
00000000
00000000
00010000
01000000
00000000
10010000
,
00000000
00000000
00100000
00000000
01000000
00000000
10000000
00010000
,
00000000
00000000
00000000
00000000
10000000
00100000
00000000
01010000
,
00000000
00000000
01000000
00000000
10000000
00000000
00100000
00010000
,
00000000
00000000
00000000
00000000
00001000
00000010
00000000
00001001
,
00000000
00000000
00000001
00000000
00000100
00000000
00000010
00001000
,
00000000
00000000
00000001
00000000
00001000
00000001
00000000
00000000
,
00002002
00000000
00000000
00003003
;
