#TITLE:Istanbul Café;
#ARTIST:Jesper Kyd;
#BANNER:Istanbul Cafe.png;
#BACKGROUND:Istanbul Cafe-bg.png;
#MUSIC:Istanbul Cafe.ogg;
#SAMPLESTART:31.325;
#SAMPLELENGTH:15;
#DISPLAYBPM:180;
#BPMS:0=180,152=164.61,168=180.19;
#STOPS:92=0.668;
#BGCHANGES:6=Istanbul Cafe.avi=1=1=0=0,266.75=Istanbul Cafe-bg.png=1=0=0=1;

//---------------dance-single - ----------------
#NOTES:
     dance-single:
     :
     Beginner:
     2:
     :
0000
0000
0000
0000
,
0000
0000
0000
0000
,
0000
0000
0000
0000
,
0000
0000
0000
0000
,
0000
0000
0000
0000
,
0000
0000
0000
0000
,
0000
0000
0000
0000
,
0010
0000
0000
0000
,
0001
0000
0000
0000
,
1000
0000
0000
0000
,
0100
0000
0000
0000
,
0010
0000
0010
0000
,
0010
0000
1000
0000
,
0001
0000
0001
0000
,
0001
0000
1000
0000
,
0100
0000
0100
0000
,
0100
0000
0001
0000
,
1000
0000
1000
0000
,
1000
0000
0001
0000
,
1000
0000
1000
0000
,
0001
0000
0001
0000
,
0100
0000
1000
0000
,
0010
0000
0001
0000
,
1001
0000
0010
0000
,
0010
0000
0001
0000
,
1000
0000
1000
0000
,
0100
0000
0001
0000
,
0100
0000
0100
0000
,
0100
0100
0100
0000
,
0100
0000
0100
0000
,
0100
0100
0100
0000
,
0001
0000
0001
0000
,
0001
0001
0001
0000
,
0001
0000
0001
0000
,
0001
0001
0001
0000
,
1000
0000
1000
0000
,
1000
1000
1000
0000
,
0010
0000
0010
0000
,
0020
0000
0000
0000
,
0000
0000
0000
0000
,
0000
0000
0000
0000
,
0000
0000
0000
0030
,
0010
0000
2000
0000
,
0000
0000
3000
0000
,
1000
0000
0002
0000
,
0000
0000
0003
0000
,
0001
0000
0200
0000
,
0000
0000
0300
0000
,
1000
1000
1000
1000
,
1000
1000
1000
0000
,
0010
0010
0010
0010
,
0010
0010
0010
0000
,
0001
0001
0001
0001
,
0001
0001
0001
0000
,
2002
0000
0000
0000
,
0000
0000
3003
0000
,
0010
0000
0010
0000
,
0010
0000
0100
0000
,
1000
0000
1000
0000
,
1000
0000
0001
0000
,
0100
0000
0100
0000
,
0010
0000
1000
0000
,
0001
0000
0001
0000
,
1000
0000
0010
0000
,
1000
0000
1000
0000
,
0010
0000
0100
0000
,
2002
0000
0000
3003
;

//---------------dance-single - ----------------
#NOTES:
     dance-single:
     :
     Easy:
     3:
     :
0000
0000
0000
0000
,
0000
0000
0000
0000
,
0000
0000
0000
0000
,
0000
0000
0000
0000
,
0000
0000
0000
0000
,
0000
0000
0000
0000
,
0000
0000
0000
0000
,
0020
0000
0000
0000
,
2030
0000
0000
0000
,
3002
0000
0000
0000
,
0103
0000
0100
0000
,
1000
0100
0001
0100
,
1000
1000
0001
0001
,
1000
0000
1000
0000
,
0001
0000
0001
0000
,
0010
1000
0100
0100
,
0010
0001
0100
0100
,
1000
0001
0100
0100
,
1000
0001
0010
0010
,
1000
0000
1000
0000
,
0001
0000
0001
0000
,
0100
0010
0100
1000
,
0001
1000
0001
1000
,
2002
3003
0010
0000
,
0001
0000
1000
0000
,
0001
0000
0100
0000
,
1000
0000
0001
0001
,
0001
0000
1000
1000
,
1000
0000
0010
0001
,
0100
0001
0010
1000
,
0100
0010
0001
0100
,
1000
0000
0001
0000
,
1000
0000
0001
0000
,
0010
0000
0010
0000
,
1000
0000
0100
0000
,
1000
0010
0001
1000
,
0001
1100
1000
0101
,
0010
1001
0010
1001
,
2002
0000
0000
0000
,
0000
0000
0000
0000
,
0000
0000
0000
0000
,
0000
0000
0000
3003
,
1000
0100
0022
0000
,
0000
0000
0033
1000
,
0001
1000
0220
0000
,
0000
0000
0330
1000
,
0001
0100
2020
0000
,
0000
0000
3030
0001
,
1000
1000
1000
1000
,
0010
0001
0001
0001
,
0010
0010
0010
0010
,
1000
1000
1000
1000
,
0100
0100
0100
0100
,
1001
0000
1001
0000
,
0001
0100
1000
0100
,
0001
1000
0100
0001
,
0100
1000
0001
0001
,
1000
1000
0110
1001
,
1000
0010
0001
0100
,
1000
0100
0001
0010
,
0010
1000
0001
1000
,
0010
0010
0001
0001
,
0100
1000
0010
1000
,
0100
0001
1000
0010
,
0100
0020
0030
1000
,
0100
0001
0200
0300
,
2002
0000
0000
3003
;

//---------------dance-single - ----------------
#NOTES:
     dance-single:
     :
     Medium:
     5:
     :
0000
0000
0000
0000
,
0000
0000
0000
0000
,
0000
0000
0000
0000
,
0000
0000
0000
0000
,
0000
0000
0000
0000
,
0000
0000
0000
0000
,
0000
0000
0000
0000
,
2200
0000
0000
0000
,
0000
0000
0000
3300
,
0022
0000
0000
0033
,
0001
0010
0100
0000
,
1000
1000
0100
0000
0020
0000
0030
0000
,
0200
0300
0020
0030
,
0001
1000
0010
0010
,
1000
0100
1000
0100
0010
0001
0010
0000
,
0001
0001
0100
0000
0002
0000
0003
0000
,
2000
3000
0002
0003
,
1000
0010
0100
0010
,
1000
0010
1000
0010
1000
0001
0100
0000
,
0001
0100
0001
0000
1000
0000
0010
0000
,
0100
0100
0200
0300
,
0020
0030
1000
0001
,
0010
0001
0100
0010
,
0200
0000
0000
0300
,
2002
0000
0000
3003
,
1000
0000
0100
0010
,
0010
0010
0010
0000
1000
0000
0001
0000
,
0001
0100
0000
0100
0001
0000
1000
0000
,
0002
1003
0002
1003
,
0010
0100
0000
0100
0010
0000
0100
0000
,
0200
0310
0200
0310
,
1000
0001
0000
0001
1000
0000
0010
0000
,
0020
1030
0020
1030
,
1000
0010
0000
0010
1000
0000
0001
0000
,
2000
3001
2000
3001
,
1000
0100
1000
0000
0001
0000
1000
0000
,
0010
0010
0010
0000
,
1100
1100
0002
0003
,
0200
0000
0000
0000
,
0000
0000
0000
0000
,
0000
0000
0000
0000
,
0000
0000
0000
0300
,
0001
0100
0020
0000
,
0000
0000
0030
0100
,
0001
1000
0200
0000
,
0000
0000
0300
1000
,
0001
0010
0200
0000
,
0000
0000
0300
0010
,
0010
0100
1000
0010
,
0020
0000
0000
0030
,
0010
0100
0001
0100
,
0002
0000
0000
0003
,
0001
0010
0100
1000
,
2000
0000
0000
3000
,
0220
0330
0002
0103
,
2000
3100
0002
0103
,
0220
0330
1000
1010
,
0001
0000
0011
0000
0001
1000
0100
0000
,
1000
0000
0100
0100
0010
0000
0001
0100
,
0100
0000
0001
0100
0001
0000
1000
0100
,
2000
0000
3000
0001
,
1000
0001
1000
0001
2000
0000
3000
0000
,
0001
0000
0100
0100
0010
0000
1000
0100
,
0100
0000
1000
0100
1000
0000
0001
0100
,
0002
0000
0003
1000
,
0001
0010
0100
1000
0001
0000
0000
0000
,
2002
0000
0000
3003
;

//---------------dance-single - ----------------
#NOTES:
     dance-single:
     :
     Hard:
     8:
     :
0000
0000
0000
0000
,
0000
0000
0000
0000
,
0000
0000
0000
0000
,
0000
0000
0000
0000
,
0000
0000
0000
0000
,
0000
0000
0000
0000
,
0000
0000
0000
0000
,
0101
0000
0010
1000
,
0010
0100
0100
0000
,
1010
0000
0101
1001
,
1100
0110
0011
0000
,
1000
0100
1000
0000
0001
0100
0001
0000
,
1000
0010
1000
0000
0001
0010
0001
0000
,
1000
0001
0100
0010
1000
0010
1000
0010
,
0100
0001
0100
0001
0010
0100
1000
0000
,
0100
1000
0001
0000
0010
0001
1000
0000
,
0010
1000
0001
0000
0100
0001
1000
0000
,
1001
0000
1001
0000
0010
1000
0010
0100
,
0010
1000
0001
0100
0010
1000
0001
0000
,
0010
0001
0010
1000
0010
0001
0100
1000
,
0100
0001
0010
0100
1000
0001
0101
0000
,
1000
0100
1000
0100
1000
0001
0010
0001
,
0010
0100
1000
0001
0100
0010
0110
0000
,
0202
0000
0000
0303
,
2020
0000
0000
3030
,
0001
0000
0100
0010
,
0010
0100
0010
0100
0001
1000
0100
0000
,
1000
0100
0000
0100
1000
0000
0010
0000
,
0101
1100
0101
1100
,
1000
0010
1000
0001
1000
0100
0010
0001
,
1000
0001
0100
0010
1000
0001
0100
0000
,
0001
0100
0000
0100
0001
0000
0100
0000
,
1010
0011
1010
0011
,
0010
0010
0001
0001
0100
0100
0010
0010
,
1000
1000
0001
0100
0010
1000
0001
0000
,
0010
1000
0100
0000
1100
0000
0001
0000
,
0101
0010
0110
0000
,
0001
0010
0100
1000
0020
0000
0030
0000
,
0202
0000
0000
0000
,
0000
0000
0000
0000
,
0000
0000
0000
0000
,
0000
0000
0000
0303
,
1000
0010
0100
0000
0220
0000
0000
0000
,
0000
0000
0330
1100
,
0010
0001
0100
0000
0202
0000
0000
0000
,
0000
0000
0303
0101
,
1000
0001
0100
0000
2002
0000
0000
0000
,
0000
0000
3003
0010
,
0010
1000
0010
0000
0100
0000
0000
0000
0001
1000
0001
0000
0010
0000
0000
0000
,
0020
0000
0000
0030
,
0010
0001
0010
0000
0100
0000
0000
0000
1000
0100
1000
0000
0100
0000
0000
0000
,
2000
0000
0000
3000
,
1000
0001
1000
0000
0010
0000
0000
0000
0100
0001
0100
0000
0001
0000
0000
0000
,
0002
0000
0000
0003
,
0100
0100
0010
0000
0110
0000
1001
0000
,
0110
1001
0110
1001
,
0001
0010
0100
1000
0010
1000
0010
0000
,
0110
0000
0000
0000
0001
0010
0100
1000
,
0010
0000
0100
0001
0010
0000
0100
1000
,
0010
0000
0100
0001
0100
0000
0100
1000
,
0100
1100
0000
0101
,
0001
0100
0010
0100
0001
0000
0000
0000
,
1010
0000
0001
0001
0100
0000
0100
0100
,
0010
0000
0010
0010
1000
0000
1000
1000
,
0100
0000
0110
0000
0000
0000
0011
0100
,
1000
0001
0100
0010
0101
0000
0000
0000
,
2200
0000
0000
3300
;

//---------------dance-double - ----------------
#NOTES:
     dance-double:
     :
     Beginner:
     2:
     :
00000000
00000000
00000000
00000000
,
00000000
00000000
00000000
00000000
,
00000000
00000000
00000000
00000000
,
00000000
00000000
00000000
00000000
,
00000000
00000000
00000000
00000000
,
00000000
00000000
00000000
00000000
,
00000000
00000000
00000000
00000000
,
00100000
00000000
00100000
00000000
,
01000000
00000000
01000000
00000000
,
00100000
00000000
00100000
00000000
,
01000000
00000000
01000000
00000000
,
00000000
01000000
00000000
00010000
,
00000000
00001000
00000000
00000100
,
00000000
00000001
00000000
00001000
,
00000000
00001000
00000000
00000001
,
00000000
00000100
00000000
00001000
,
00000000
00010000
00000000
01000000
,
00000000
10000000
00000000
00010000
,
00000000
00010000
00000000
10000000
,
00000000
00000000
00000000
00000000
,
01000000
00000000
00001000
00000000
,
00001001
00000000
00000000
00000000
,
00000001
00000000
00001000
00000000
,
00011000
00000000
00000000
00000000
,
00011000
00000000
00000000
00000000
,
00001000
00000000
00000000
00000000
,
00010000
00000000
00000000
00000000
,
10000000
00000000
00010000
00000000
,
00000000
00100000
00000000
00100000
,
00000000
00010000
00000000
00001000
,
00000000
00000010
00000000
00000010
,
00000000
00000000
00001000
00000000
,
00000000
00000010
00000000
00000010
,
00000000
00001000
00000000
00010000
,
00000000
00100000
00000000
00100000
,
00000000
00000000
00010000
00000000
,
01000000
00000000
01000000
00000000
,
00100000
00000000
00100000
00000000
,
10010000
00000000
00000000
00000000
,
00000000
00000000
00000000
00000000
,
00000000
00000000
00000000
00000000
,
00000000
00000000
00000000
00000000
,
10000000
00000000
10010000
00000000
,
00000000
01000000
00000000
00000000
,
00010000
00000000
00011000
00000000
,
00000000
00000100
00000000
00000000
,
00001000
00000000
00001001
00000000
,
00000000
00000100
00000000
00000000
,
00000010
00000000
00000100
00000000
,
00001001
00000000
00000100
00000000
,
00001000
00000000
00010000
00000000
,
00011000
00000000
01000000
00000000
,
00100000
00000000
01000000
00000000
,
10010000
00000000
01000000
00000000
,
10000000
00000000
00010000
00000000
,
10000000
00000000
00010000
00000000
,
00100000
00000000
01000000
00000000
,
00000000
00000000
10000000
00000000
,
10000000
00000000
10000000
00000000
,
00010000
00000000
00010000
00000000
,
10000000
00000000
00000000
01000000
,
00000000
00010000
00000000
00001000
,
00000000
00000100
00000000
00000100
,
00000000
00000100
00000000
00000100
,
00000000
00000001
00000000
00000100
,
00000000
00000010
00000000
00000000
,
00001001
00000000
00000000
00000000
;

//---------------dance-double - ----------------
#NOTES:
     dance-double:
     :
     Easy:
     4:
     :
00000000
00000000
00000000
00000000
,
00000000
00000000
00000000
00000000
,
00000000
00000000
00000000
00000000
,
00000000
00000000
00000000
00000000
,
00000000
00000000
00000000
00000000
,
00000000
00000000
00000000
00000000
,
00000000
00000000
00000000
00000000
,
00100000
00100000
00100000
00000000
,
01000000
01000000
01000000
00000000
,
00100000
00000000
00100000
00000000
,
01000000
00000000
01000000
00000000
,
00000000
01000000
00000000
00010000
,
00000000
00001000
00000000
00000100
,
00000000
00000001
00001000
00001000
,
00000000
00001000
00000001
00000001
,
00000000
00000100
00000000
00001000
,
00000000
00010000
00000000
01000000
,
00000000
10000000
00010000
00010000
,
00000000
00010000
10000000
10000000
,
20020000
00000000
00000000
30030000
,
01000000
00010000
00001000
00000100
,
00002002
00000000
00000000
00003003
,
00000001
00000100
00001000
00010000
,
00022000
00033000
00000000
00000000
,
00022000
00033000
00000000
00000000
,
00001000
00000000
00000000
00000000
,
00010000
00000000
00000000
00000000
,
10000000
00000000
00010000
10010000
,
00000000
00100000
00000000
00100000
,
00000000
00010000
00000000
00001000
,
00000000
00000010
00000000
00000010
,
00000001
00000000
00001000
00001001
,
00000000
00000010
00000000
00000010
,
00000000
00001000
00000000
00010000
,
00000000
00100000
00000000
00100000
,
10000000
00000000
00010000
00000000
,
01000000
01000000
01000000
00000000
,
00100000
00100000
00100000
00000000
,
20020000
00000000
00000000
00000000
,
00000000
00000000
00000000
00000000
,
00000000
00000000
00000000
00000000
,
00000000
00000000
00000000
30030000
,
10000000
00010000
10010000
00000000
,
00000000
01000000
00000000
00000000
,
00010000
00001000
00011000
00000000
,
00000000
00000100
00000000
00000000
,
00001000
00000001
00001001
00000000
,
00000000
00000100
00000000
00000000
,
00000020
00000030
00000200
00000300
,
00001001
00000000
00000100
00000000
,
00002000
00003000
00020000
00030000
,
00011000
00000000
01000000
00000000
,
00200000
00300000
02000000
03000000
,
10010000
00000000
01000000
00000000
,
10000000
10000000
00010000
00010000
,
10000000
10000000
00010000
00010000
,
00100000
00000000
01000000
00000000
,
00000000
00000000
10000000
00010000
,
10000000
01000000
10000000
01000000
,
00010000
01000000
00010000
01000000
,
10000000
00010000
00000000
01000000
,
00001000
00010000
00000100
00001000
,
00000001
00000100
00000001
00000100
,
00001000
00000100
00001000
00000100
,
00001000
00000001
00000000
00000100
,
00000010
00000010
00000100
00000000
,
00002002
00000000
00000000
00003003
;

//---------------dance-double - ----------------
#NOTES:
     dance-double:
     :
     Medium:
     6:
     :
00000000
00000000
00000000
00000000
,
00000000
00000000
00000000
00000000
,
00000000
00000000
00000000
00000000
,
00000000
00000000
00000000
00000000
,
00000000
00000000
00000000
00000000
,
00000000
00000000
00000000
00000000
,
00000000
00000000
00000000
00000000
,
11000000
00000000
00100000
00010000
,
00100000
00010000
11000000
00000000
,
01010000
00000000
00100000
10000000
,
00100000
10000000
01010000
00000000
,
00100000
10000000
01000000
00010000
,
00001000
00000100
00000001
00000000
,
00000010
00000001
00000100
00001000
,
00010000
01000000
10000000
00000000
,
01000000
10000000
00100000
00010000
,
00001000
00000010
00000001
00000000
,
00000100
00000001
00000010
00001000
,
00010000
00100000
10000000
00000000
,
10000000
01000000
00010000
00001000
,
00000100
00000001
00000010
00000000
00000001
00000000
00000000
00000000
,
00000001
00000100
00001000
00010000
,
01000000
10000000
00100000
00000000
10000000
00000000
00000000
00000000
,
02000000
03000000
00000000
00000000
,
00200000
00300000
00000000
00000000
,
00110000
00000000
11000000
00000000
,
00010000
00001000
00000100
00000001
,
00001000
00000001
00000000
00000001
00001000
00000000
00000110
00000000
,
00000000
00000100
00001000
00010000
,
01000000
10000000
00000000
10000000
01000000
00000000
11000000
00000000
,
00000000
00100000
00010000
00100000
,
00010000
10000000
00000000
10000000
00010000
00000000
10010000
00000000
,
00000000
01000000
00010000
00001000
,
00000100
00000001
00000000
00000001
00000100
00000000
00000101
00000000
,
00000000
00000010
00001000
00000010
,
00000100
00000100
00000010
00000000
00000101
00000000
00001000
00000000
,
00001100
00000001
00000101
00000000
,
00001000
00000100
00000010
00000100
00001000
00000000
00000000
00000000
,
00002002
00000000
00000000
00000000
,
00000000
00000000
00000000
00000000
,
00000000
00000000
00000000
00000000
,
00000000
00000000
00000000
00003003
,
00000001
00000100
00001000
00000000
00022000
00000000
00000000
00000000
,
00000000
00000000
00033000
00011000
,
00010000
01000000
10000000
00000000
20020000
00000000
00000000
00000000
,
00000000
00000000
30030000
10010000
,
10000000
01000000
00010000
00000000
00022000
00000000
00000000
00000000
,
00000000
00000000
00033000
00011000
,
00010000
00001000
00010000
00000000
00001000
00010000
00001000
00000000
,
00022000
00000000
00000000
00033000
,
00001000
00010000
00001000
00000000
00010000
00001000
00010000
00000000
,
00022000
00000000
00000000
00033000
,
00001000
00000100
00000001
00000010
,
00002002
00000000
00000000
00003003
,
00000001
00001000
00000010
00000100
,
00000001
00000100
00000010
00001000
,
00000100
00010000
00001000
01000000
,
00100000
00000000
00000000
00000000
01000000
00010000
10000000
01000000
,
00100000
00000000
01000000
10000000
00100000
00000000
01000000
00010000
,
00100000
00000000
00001000
00010000
00001000
00000000
00010000
00001000
,
00010000
00001000
00000000
00000100
,
00000010
00001000
00000010
00001000
00000100
00000000
00000010
00000001
,
00000100
00000000
00000010
00001000
00000100
00000000
00001000
00000100
,
00001000
00000000
00000001
00000100
00000001
00000000
00000010
00000100
,
00001000
00000000
00000001
00000000
00000000
00000000
00001000
00000001
,
00001000
00000010
00001000
00000001
00000100
00000000
00000000
00000000
,
00000200
00000000
00000000
00000300
;

//---------------dance-double - ----------------
#NOTES:
     dance-double:
     :
     Hard:
     8:
     :
00000000
00000000
00000000
00000000
,
00000000
00000000
00000000
00000000
,
00000000
00000000
00000000
00000000
,
00000000
00000000
00000000
00000000
,
00000000
00000000
00000000
00000000
,
00000000
00000000
00000000
00000000
,
00000000
00000000
00000000
00000000
,
10010000
00000000
00100000
00100000
,
01000000
01000000
10010000
00000000
,
10010000
00000000
00100000
00100000
,
01000000
01000000
10010000
00000000
,
00100000
00010000
01000000
00000000
00100000
10000000
01000000
00000000
,
10000000
01000000
00010000
00000000
00001000
00000100
00000001
00000000
,
00001000
00000100
00000010
00000001
00000100
00000010
00001000
00000010
,
00000100
00000001
00000010
00000100
00001000
00000010
00000100
00000000
,
00000010
00001000
00000100
00000000
00000010
00000001
00000100
00000000
,
00000001
00000100
00001000
00000000
00010000
01000000
10000000
00000000
,
00010000
01000000
00100000
10000000
01000000
00100000
00010000
00100000
,
01000000
10000000
00100000
01000000
00010000
00100000
01000000
00000000
,
00100000
00001000
00010000
00001000
01000000
00001000
00010000
00000010
,
00010000
00001000
00010000
00000100
00010000
00001000
00011000
00000000
,
00000010
00010000
00001000
00010000
00000100
00010000
00001000
00100000
,
00001000
00010000
00001000
01000000
00001000
00010000
00001000
00010000
,
00022000
00033000
00000000
00000000
,
00022000
00033000
00000000
00000000
,
00110000
00000000
11000000
00000000
,
00100000
10000000
01000000
00010000
01000000
10000000
00100000
00000000
,
10000000
01000000
00000000
01000000
10000000
00000000
11000000
00000000
,
10000000
00010000
10000000
00010000
10000000
00010000
01000000
00000000
,
00100000
01000000
00100000
01000000
00100000
01000000
00001000
00000000
,
00010000
00001000
00010000
00001000
00010000
00001000
00000100
00000000
,
00000001
00000100
00000000
00000100
00000001
00000000
00000101
00000000
,
00000001
00001000
00000001
00001000
00000001
00001000
00000100
00000000
,
00000010
00000100
00000010
00000100
00000010
00000100
00010000
00000000
,
00001000
00010000
00001000
00010000
00001000
00010000
01000000
00000000
,
10000000
00100000
01000000
00000000
10010000
00000000
10000000
00000000
,
11000000
00010000
01010000
00000000
,
10000000
01000000
00100000
00010000
10000000
00000000
00000000
00000000
,
20020000
00000000
00000000
00000000
,
00000000
00000000
00000000
00000000
,
00000000
00000000
00000000
00000000
,
00000000
00000000
00000000
30030000
,
00100000
01000000
00010000
00000000
00022000
00000000
00000000
00000000
,
00000000
00000000
00033000
00001100
,
00000010
00000100
00001000
00000000
00022000
00000000
00000000
00000000
,
00000000
00000000
00033000
01010000
,
00001000
00010000
00001000
00000000
00022000
00000000
00000000
00000000
,
00000000
00000000
00033000
00011000
,
00100000
00100000
00100000
00000000
01000000
01000000
01000000
00000000
,
22000000
00000000
00000000
33000000
,
00100000
00100000
00100000
00000000
01000000
01000000
01000000
00000000
,
02020000
00000000
00000000
03030000
,
10000000
00100000
00010000
00000000
00001000
00000010
00000001
00000000
,
00002002
00000000
00000000
00003003
,
00000101
00001010
00010100
00101000
,
00010010
01001000
00110000
11000000
,
00010000
00100000
01000000
10000000
00100000
01000000
00010000
00000000
,
10010000
00000000
00000000
00000000
01000000
10000000
00010000
01000000
,
00100000
00000000
01000000
00010000
00100000
00000000
01000000
10000000
,
00100000
00000000
01000000
00001000
00010000
00000000
00001000
00010000
,
00000100
00001001
00000000
00000100
,
00000001
00001000
00000010
00001000
00000100
00000000
00000010
00000001
,
00000100
00000000
00000010
00001000
00000100
00000000
00001000
00000100
,
00010000
00000000
00001000
01000000
00010000
00000000
01000000
00100000
,
10000000
00000000
10010000
00000000
00000000
00000000
10000000
01000000
,
00100000
00010000
01000000
00100000
10000000
00000000
01100000
00000000
,
20020000
00000000
00000000
30030000
;
