#TITLE:Don't Stop;
#ARTIST:Freestylers;
#BANNER:Don't Stop.png;
#BACKGROUND:Don't Stop-bg.png;
#CDTITLE:./CDTITLES/DANCE DANCE REVOLUTION ULTRAMIX 2.PNG;
#MUSIC:Don't Stop.ogg;
#SAMPLESTART:15.54;
#SAMPLELENGTH:15;
#DISPLAYBPM:128;
#BPMS:0=127.88;

//---------------dance-single - ----------------
#NOTES:
     dance-single:
     :
     Beginner:
     1:
     :
0000
0000
0000
0000
,
0000
0000
0000
0000
,
0000
0000
0000
0000
,
0000
0000
0000
0000
,
0000
0000
0000
0000
,
1000
0000
0000
0000
,
0001
0000
0000
0000
,
0100
0000
1000
0000
,
1001
0000
0000
0000
,
1000
0000
0100
0000
,
0001
0000
0100
0000
,
0010
0000
1000
0000
,
0001
0000
0010
0000
,
0001
0000
0000
0000
,
1000
0000
0100
0000
,
0001
0000
0100
0000
,
1000
0000
0001
0000
,
1000
0000
0100
0000
,
0010
0000
0001
0000
,
1000
0000
0001
0000
,
1000
0000
0001
0000
,
0100
0000
0000
0000
,
1000
0000
0001
0000
,
0010
0000
1000
0000
,
1000
0000
0001
0000
,
0010
0000
0010
0000
,
0010
0000
0010
0000
,
0100
0000
0100
0000
,
0100
0000
0100
0000
,
1001
0000
0000
0000
,
0001
0000
0010
0000
,
1000
0000
0100
0000
,
0001
0000
0100
0000
,
1000
0000
0100
0000
,
0000
0001
0000
0001
,
0000
0010
0000
0100
,
0000
0010
0000
0010
,
0000
0001
0000
1000
,
0000
0001
0000
0001
,
0000
0001
0000
1000
,
0000
0010
0000
0010
,
0000
0100
0000
0010
,
0000
0001
0000
0001
,
0000
0010
0000
1000
,
0000
0010
0000
0010
,
0000
0001
0000
0100
,
0000
0100
0000
0100
,
0000
1000
0000
0001
,
0000
0000
1000
0000
,
0001
0000
0100
0000
,
0001
0000
0100
0000
,
0001
0000
0100
0000
,
0001
0000
0100
0000
,
1000
0000
0100
0000
,
1000
0000
0100
0000
,
1000
0000
0100
0000
,
1000
0000
1000
0000
,
1001
0000
0000
0000
;

//---------------dance-single - ----------------
#NOTES:
     dance-single:
     :
     Easy:
     4:
     :
0000
0000
0000
0000
,
0000
0000
0000
0000
,
0000
0000
0000
0000
,
0000
0000
0000
0000
,
0000
0000
0000
0000
,
2000
0000
0000
3000
,
0002
0000
0000
0003
,
0100
0100
1000
0001
,
1001
0000
0000
0000
,
1000
1000
0100
0000
,
0001
0001
0100
0000
,
0010
0010
1000
0000
,
0001
0100
0010
1000
,
0002
0000
0000
0003
,
1000
0100
0100
1000
,
0001
0100
0100
0001
,
1000
0010
0001
0010
,
1000
0100
0100
0000
,
0010
0001
0001
0000
,
1000
1000
0001
0000
,
1000
0000
0001
0000
,
0200
0000
0000
0300
,
1000
1000
0001
0001
,
0010
1000
1000
0001
,
1000
1000
0001
0001
,
0010
0000
0010
0000
,
0010
0000
0010
0000
,
0100
0000
0100
0000
,
0100
0000
0100
0000
,
1001
0000
0000
0000
,
0001
0010
0010
0001
,
1000
0100
0100
1000
,
0001
0100
0100
0000
,
1000
0010
0100
0100
,
0000
0001
0000
0001
,
1000
0010
0100
0100
,
0000
0010
0000
0010
,
0100
0001
1000
1000
,
0000
0001
0000
0001
,
0100
0001
1000
1000
,
0000
0010
0000
0010
,
1000
0100
0010
0010
,
0000
0001
0000
0001
,
0100
0010
1000
1000
,
0000
0010
0000
0010
,
1000
0001
0100
0100
,
0000
0100
0000
0100
,
0010
1000
0001
0001
,
1000
0000
1000
0000
,
0001
0010
0100
1000
,
0001
0010
0100
1000
,
0001
0010
0100
1000
,
0001
0010
0100
1000
,
1000
0010
0100
0001
,
1000
0010
0100
0001
,
1000
0010
0100
0001
,
1000
0001
1000
0001
,
1001
0000
0000
0000
;

//---------------dance-single - ----------------
#NOTES:
     dance-single:
     :
     Medium:
     5:
     :
0000
0000
0000
0000
,
0000
0000
0000
0000
,
0000
0000
0000
0000
,
0000
0000
0000
0000
,
0000
0000
0000
0000
,
1001
0000
0100
2000
0000
0000
3010
0000
,
1001
0000
0100
0002
0000
0000
0103
0000
,
1001
0000
0010
0200
0000
0000
0320
0000
,
2030
0000
0000
3000
,
0001
1001
1000
1001
,
0100
0110
0010
0110
,
0100
0010
0001
0000
0010
0001
1000
0000
,
0001
1000
0010
0000
1000
0010
0100
0000
,
1000
1001
0001
1001
,
0100
0110
0010
0110
,
0100
0010
1000
0000
0010
1000
0001
0000
,
1000
0001
0010
0000
0001
0010
0100
0000
,
1000
0000
0001
0000
0100
0001
0100
0000
,
0001
0000
1000
0000
1000
0100
1000
0000
,
0010
0000
0100
0000
0100
0010
0100
0000
,
0010
0000
0100
0000
0010
0100
0010
0000
,
1001
0000
0100
1000
0100
0000
1100
0000
,
0100
0001
0100
0000
0101
0000
0001
0010
,
0001
0000
0011
0000
0010
0100
0010
0000
,
0110
0000
0100
1000
0002
0000
0000
0000
,
1003
0010
0100
0000
1001
0000
0110
0000
,
0001
0010
0100
0000
1001
0000
0110
0000
,
0100
0001
0001
0010
,
0001
0100
0001
0000
1000
0100
1000
0000
,
1001
1000
0001
0100
,
0010
1000
0100
0000
2002
0000
0000
0000
,
3003
0000
0010
1000
0200
0000
0310
0000
,
0011
1100
2002
3003
,
0010
0100
1000
0000
0100
0010
0001
0000
,
0001
0100
1000
0000
1000
0100
0001
0000
,
0100
1000
0001
0001
,
0010
1000
0100
0000
0010
0001
0100
0000
,
0010
0100
0001
0000
0100
0010
1000
0000
,
1000
0100
0001
0000
0001
0100
1000
0000
,
0100
0001
1000
1000
,
0010
0001
0100
0000
0010
1000
0100
0000
,
1000
0100
0001
0000
0001
0100
1000
0000
,
1000
0001
1000
0000
0001
1000
0001
0000
,
0001
0100
1000
0000
1000
0100
0001
0000
,
0001
1000
0001
0000
1000
0001
1000
0000
,
0010
1000
0100
0000
0100
1000
0010
0000
,
1000
0100
1000
0000
0100
1000
0100
0000
,
0010
0001
0100
0000
0100
0001
0010
0000
,
0001
0100
0001
0000
0100
0001
0100
0000
,
0100
0001
0010
0000
0100
0001
0010
0000
,
0010
0001
0100
0000
0010
0001
0100
0000
,
1000
0100
1000
0000
0010
1000
0010
0000
,
0001
0010
0001
0000
0100
0001
0100
0000
,
1000
1000
0100
0000
0001
0001
0100
0000
,
1000
1000
0010
0000
0001
0001
0010
0000
,
1000
0100
1100
0000
0001
0100
0101
0000
,
0101
1100
1010
0011
,
1001
0000
0000
0000
;

//---------------dance-single - ----------------
#NOTES:
     dance-single:
     :
     Hard:
     8:
     :
0000
0000
0000
0000
,
0000
0000
0000
0000
,
0000
0000
0000
0000
,
0000
0000
0000
0000
,
0000
0000
0000
0000
,
1001
0000
0100
1100
0000
0000
0010
0000
,
0110
0000
0000
0000
0001
0000
0011
0000
0000
0000
0100
0000
1000
0100
0000
0000
,
1001
0000
0010
0110
0000
1000
1001
0000
,
0110
0000
0000
0010
0001
0100
1000
0100
,
0001
0000
0000
0010
0000
0000
1001
0000
0000
0000
1000
0000
0100
0000
0001
0000
,
0100
0000
0000
1000
0000
0000
1100
0000
0000
0000
0010
0000
0100
0000
1000
0000
,
0100
0000
0000
0010
0000
0000
0110
0000
0000
0000
1000
0000
0001
0000
0100
0000
,
0001
0000
0000
1000
0000
0000
1001
0000
0000
0000
0010
0000
0100
0000
0010
0000
,
0100
0000
0000
0001
0000
0000
0101
0000
0000
0000
0100
0000
1000
0000
0100
0000
,
0001
0000
0000
1000
0000
0000
1100
0000
0000
0000
0001
0000
0100
0000
0010
0000
,
1000
0000
0000
0100
0000
0000
0110
0000
0000
0000
1000
0000
0001
0000
0100
0000
,
0010
0000
0000
0100
0000
0000
1001
0000
0000
0000
0010
0000
0011
0000
0000
0000
,
1010
0000
0000
1001
0000
0000
1001
0000
0000
0000
0001
0000
0100
0000
0000
0000
,
0011
0000
0000
0101
0000
0000
0101
0000
0000
0000
1000
0000
0001
0000
0000
0000
,
0110
0000
0000
1100
0000
0000
1100
0000
0000
0000
0010
0000
0100
0000
0000
0000
,
1001
0000
0000
1100
0000
0000
0101
0000
0000
0000
0001
0000
0100
0000
0000
0000
,
1001
0000
0100
1000
0100
0000
1100
0000
,
0100
0001
0100
0000
0101
0000
0000
0000
,
0000
0000
0010
0100
0010
0000
2000
0000
,
0010
3100
0002
0000
,
1003
0000
0000
0010
0100
0000
1001
0000
0000
0000
0100
0000
0001
1000
0001
0000
,
0010
0000
0000
0100
1000
0000
1100
0000
0000
1000
0100
1000
0000
0001
0100
0000
,
0100
0000
0000
0100
0001
0000
1000
0000
0000
0000
0010
0000
0100
0001
0100
0000
,
0010
0000
0000
1000
0100
0000
0010
0000
0000
0100
0010
0100
0000
0010
0100
0000
,
1000
0000
0010
1000
0100
0000
1001
0000
,
0010
0001
0100
0000
2002
0000
0000
0000
,
3003
0000
0100
1000
0001
0000
1001
0000
,
0110
0101
1100
0000
,
0010
0000
0100
0000
1000
0000
0100
0000
0010
0000
0100
0010
0000
0000
0100
0000
,
0001
0000
0100
1000
0000
0000
1000
0000
0100
0000
0001
0100
0000
0000
0010
0000
,
1000
0000
0001
0000
0001
0000
1000
0000
0001
0000
0100
0001
0000
0000
0100
0000
,
1000
0000
0100
1000
0000
0000
0100
0000
0001
0000
0100
0001
0000
0000
0010
0000
,
0001
0000
0100
0000
1000
0000
0100
0000
0001
0000
0010
0100
0000
0000
1000
0000
,
0001
0000
1000
0001
0000
0000
1000
0000
1000
0000
0001
1000
0000
0000
0010
0000
,
1000
0000
0100
0000
0001
0000
0100
0000
1000
0000
0100
1000
0000
0000
0100
0000
,
0010
0000
0100
0010
0000
0000
0100
0000
0010
0000
0100
0010
0000
0000
0001
0000
,
0010
0000
0001
0000
0001
0000
0010
0000
0100
0000
1000
0100
0000
0000
1000
0000
,
1000
0000
0100
0010
0000
0000
0001
0000
0001
0000
0010
0100
0000
0000
1000
0000
,
0100
0000
0001
0000
0100
0000
0010
0000
0100
0000
1000
0100
0000
0000
0010
0000
,
0001
0000
1000
0001
0000
0000
0100
0000
0001
0000
0001
0100
0000
0000
0001
0100
,
0001
0000
1000
0000
1000
0000
0001
0000
0010
0000
0001
1000
0000
0000
0001
1000
,
0001
1000
0001
1000
0000
0000
0010
0100
0010
0100
0010
0100
0000
0000
0100
0001
,
0100
0000
0010
0000
1000
0000
1000
0000
0100
0000
0010
0100
0000
0000
1000
0100
,
1000
0100
1000
0100
0000
0000
0010
0001
0010
0001
0010
0001
0000
0000
0010
0100
,
0010
0100
1000
0100
0001
0100
1000
0100
,
1000
0100
0010
0001
0100
0001
0010
0001
,
0100
0000
0001
0000
1000
0000
0100
0000
0001
0000
0100
1000
0000
0000
1000
0100
,
1000
0100
0010
0100
1000
0100
0010
0001
,
1000
0001
0010
0100
1000
0100
0010
0001
,
1000
0001
1000
0100
0001
0100
1000
0100
,
0010
0000
0100
0000
1000
0000
0001
0000
0100
0000
0001
0100
0000
0000
0010
0000
,
0100
0000
0000
0000
0010
0000
0000
0000
1000
0000
0000
0000
1000
0100
1000
0100
,
2000
0000
0000
3000
;

//---------------dance-double - ----------------
#NOTES:
     dance-double:
     :
     Beginner:
     2:
     :
00000000
00000000
00000000
00000000
,
00000000
00000000
00000000
00000000
,
00000000
00000000
00000000
00000000
,
00000000
00000000
00000000
00000000
,
00000000
00000000
00000000
00000000
,
00000010
00000000
00000000
00000010
,
00000000
00001000
00000000
00000100
,
00000000
00010000
00000000
00001000
,
00000000
00000000
00000000
00000000
,
00100000
00000000
00000000
01100000
,
00000000
01000000
00000000
01100000
,
00000000
00010000
00000000
00011000
,
00000000
00001000
00000000
00000110
,
00000000
00000100
00000000
00000110
,
00000000
00000001
00000000
00001001
,
00000000
00000010
00000000
00001001
,
00000000
00001000
00000000
00011000
,
00000000
01000000
00000000
00100000
,
00000000
01000000
00000000
00100000
,
00000000
00100000
00000000
00001000
,
00000000
00000100
00000000
00000010
,
00000000
00000001
00000000
00000110
,
00000000
00000100
00000000
00001001
,
00000000
00010000
00000000
01100000
,
00000000
01000000
00000000
10010000
,
00000000
00000000
00000000
00000000
,
00010000
00000000
00000000
00000000
,
00001000
00000000
00000000
00000000
,
00000100
00000000
00000000
00000000
,
00001001
00000000
00000000
00000000
,
00000110
00000000
00000000
00000000
,
00011000
00000000
00000000
00000000
,
00001000
00000000
00001000
00000000
,
00010000
00000000
00010000
00000000
,
00010000
00000000
00100000
00000000
,
10000000
00000000
10000000
00000000
,
10000000
00000000
01000000
00000000
,
00100000
00000000
00100000
00000000
,
00010000
00000000
00010000
00000000
,
00001000
00000000
00001000
00000000
,
00001000
00000000
00000010
00000000
,
00000010
00000000
00000010
00000000
,
00000001
00000000
00000001
00000000
,
00000001
00000000
00000010
00000000
,
00001000
00000000
00001000
00000000
,
00010000
00000000
00000000
00001000
,
00000000
01000000
00000000
00001000
,
00000000
00000010
00000000
00010000
,
00000000
00000100
00000000
00010000
,
00000000
00000000
10010000
00000000
,
01000000
00000000
10010000
00000000
,
10000000
00000000
01100000
00000000
,
00010000
00000000
01100000
00000000
,
00010000
00000000
00011000
00000000
,
00001000
00000000
00000110
00000000
,
00000010
00000000
00001001
00000000
,
00001000
00000000
00001000
00000000
,
00011000
00000000
00000000
00000000
;

//---------------dance-double - ----------------
#NOTES:
     dance-double:
     :
     Easy:
     3:
     :
00000000
00000000
00000000
00000000
,
00000000
00000000
00000000
00000000
,
00000000
00000000
00000000
00000000
,
00000000
00000000
00000000
00000000
,
00000000
00000000
00000000
00000000
,
00000010
00000200
00000000
00000310
,
00000100
00002000
00000000
00003100
,
00001000
00020000
00000000
00031000
,
00022000
00000000
00000000
00033000
,
00100000
10000000
00000000
11000000
,
10000000
01000000
00000000
01010000
,
01000000
00010000
00000000
00011000
,
00010000
00001000
00000000
00001100
,
00001000
00000100
00000000
00000101
,
00000100
00000001
00000000
00000011
,
00000001
00000010
00000000
00001010
,
00000010
00001000
00000000
00011000
,
00010000
01000000
00000000
00100000
,
10000000
01000000
00000000
00100000
,
01000000
00100000
00000000
00001000
,
00010000
00000100
00000000
00000010
,
00000000
00000001
00000000
00001100
,
00000000
00000100
00000000
00001010
,
00000000
00010000
00000000
11000000
,
00000000
01000000
00000000
10100000
,
00200000
00000000
00000000
00300000
,
00020000
00000000
00000000
00030000
,
00002000
00000000
00000000
00003000
,
00000200
00000000
00000000
00000300
,
00001001
00000000
00000000
00000000
,
00000110
00000000
00000000
00000000
,
00011000
00000000
00000000
00000000
,
00001000
00010000
00001000
00010000
,
00010000
00100000
00010000
00000000
,
00010000
10000000
00100000
00000000
,
10000000
00100000
10000000
00000000
,
10000000
00010000
01000000
00000000
,
00100000
01000000
00100000
00000000
,
00010000
01000000
00010000
00000000
,
00001000
00010000
00001000
00000000
,
00001000
00010000
00000010
00000000
,
00000010
00000100
00000010
00000000
,
00000001
00000100
00000001
00000000
,
00000001
00001000
00000010
00000000
,
00001000
00010000
00001000
00000000
,
00010000
00100000
00000000
00001000
,
00010000
01000000
00000000
00001000
,
00001000
00000010
00000000
00010000
,
00001000
00000100
00000000
00010000
,
00100000
00000000
10010000
00000000
,
01000000
00000000
10010000
00000000
,
10000000
00000000
01100000
00000000
,
00010000
00000000
01100000
00000000
,
00010000
00000000
00011000
00000000
,
00001000
00000000
00000110
00000000
,
00000010
00000000
00001001
00000000
,
00001000
00010000
00001000
00010000
,
00011000
00000000
00000000
00000000
;

//---------------dance-double - ----------------
#NOTES:
     dance-double:
     :
     Medium:
     5:
     :
00000000
00000000
00000000
00000000
,
00000000
00000000
00000000
00000000
,
00000000
00000000
00000000
00000000
,
00000000
00000000
00000000
00000000
,
00000000
00000000
00000000
00000000
,
00000001
00000000
00000100
00000001
00000000
00001000
00000100
00000000
,
00001000
00000000
00000100
00001000
00000000
00000001
00000100
00000000
,
00001000
00000000
00010000
00001000
00000000
00001000
00010000
00000000
,
00022000
00000000
00000000
00033000
,
00011000
00010000
00100000
10000000
,
00010000
01000000
10000000
01000000
,
00010000
00100000
10000000
00010000
,
01000000
10000000
01000000
00010000
,
00011000
00001000
00000010
00000001
,
00001000
00000100
00000001
00000100
,
00001000
00000010
00000001
00001000
,
00000100
00000001
00000100
00001000
,
00010000
00000000
00001000
00000000
00000010
00001000
00010000
00000000
,
00001000
00000000
00010000
00000000
00100000
00010000
00001000
00000000
,
00010000
00000000
00001000
00000000
00000100
00001000
00010000
00000000
,
00001000
00000000
00010000
00000000
01000000
00010000
00001000
00000000
,
00000010
00000101
00000010
00001100
,
00000010
00001000
00010000
01000000
,
00100000
11000000
00100000
01010000
,
00100000
00010000
00001000
00000100
,
00000020
00001000
00000100
00001030
,
00002000
00000010
00000100
00003010
,
00000200
00000001
00000010
00000301
,
00000002
00000100
00000010
00000103
,
00000010
00001100
00001000
00011000
,
00010000
00011000
00100000
11000000
,
00100000
01010000
00010000
00011000
,
00001000
00011000
00000010
00000101
,
00000001
00000100
00001000
00000000
00000001
00000100
00001000
00000000
,
00001000
00000001
00001000
00000000
00000010
00000100
00000010
00000000
,
00000010
00001000
00000100
00000000
00000010
00001000
00000100
00000000
,
00000100
00000010
00000100
00000000
00000010
00000100
00000010
00000000
,
00000010
00001000
00010000
00000000
00000010
00001000
00010000
00000000
,
00010000
00001000
00010000
00000000
00001000
00010000
00001000
00000000
,
00001000
00010000
00100000
00000000
00001000
00010000
00100000
00000000
,
00100000
01000000
00100000
00000000
10000000
00010000
10000000
00000000
,
00010000
01000000
10000000
00000000
00010000
01000000
10000000
00000000
,
10000000
00010000
10000000
00000000
01000000
00100000
01000000
00000000
,
01000000
00010000
00100000
00000000
01000000
00010000
00100000
00000000
,
01000000
00100000
01000000
00000000
00010000
10000000
00010000
00000000
,
00010000
00001000
00010000
00000000
00001000
00010000
00001000
00000000
,
00010000
00001000
00010000
00000000
00001000
00010000
00001000
00000000
,
00001000
00000010
00000001
00000000
00001000
00000010
00000001
00000000
,
00001000
00000001
00001000
00000000
00000010
00000100
00000010
00000000
,
00000001
00000010
00001000
00000000
00000001
00000010
00001000
00000000
,
00001000
00000010
00000001
00000000
00001000
00000010
00000001
00000000
,
00000001
00000100
00001000
00000000
00000001
00000100
00001000
00000000
,
00001000
00010000
00001000
00010000
,
00001000
00010000
00001000
00000000
00010000
00001000
00010000
00000000
,
00001000
00001000
00010000
00000000
00010000
00010000
00001000
00000000
,
00010000
00010000
00001000
00000000
00001000
00001000
00010000
00000000
,
00010000
00001000
00011000
00022000
,
00033000
00000000
00000000
00000000
;

//---------------dance-double - ----------------
#NOTES:
     dance-double:
     :
     Hard:
     7:
     :
00000000
00000000
00000000
00000000
,
00000000
00000000
00000000
00000000
,
00000000
00000000
00000000
00000000
,
00000000
00000000
00000000
00000000
,
00000000
00000000
00000000
00000000
,
10010000
00000000
10000000
00100000
00000000
00200000
00310000
00000000
,
00110000
00000000
00010000
00001000
00000000
00002000
00003010
00000000
,
00001010
00000000
00010000
00001000
00000000
00020000
00031000
00000000
,
00022000
00000000
00000000
00033000
,
00010000
00000000
00010000
10000000
00000000
20000000
30010000
00000000
,
00100000
00000000
00100000
01000000
00000000
02000000
03100000
00000000
,
00010000
00000000
00001000
00010000
00000000
00020000
00031000
00000000
,
00001000
00000000
00000010
00001000
00000000
00002000
00003010
00000000
,
00001000
00000000
00001000
00000001
00000000
00000002
00001003
00000000
,
00000010
00000000
00000010
00000100
00000000
00000200
00000310
00000000
,
00001000
00000000
00010000
00001000
00000000
00002000
00013000
00000000
,
00010000
00000000
00100000
00010000
00000000
00020000
00130000
00000000
,
00100000
10000000
01000000
00100000
00010000
01000000
10000000
00000000
,
10000000
01000000
00010000
01000000
10000000
01000000
00100000
00000000
,
00100000
10000000
01000000
00100000
00010000
10000000
01000000
00000000
,
01000000
00010000
00001000
00010000
00001000
00000100
00000001
00000000
,
00000010
00000001
00000100
00000010
00001000
00000100
00000001
00000000
,
00000001
00000100
00001000
00000100
00000001
00000100
00000010
00000000
,
00000010
00000001
00000100
00000010
00001000
00000001
00000100
00000000
,
00000100
00001000
00010000
00001000
00010000
01000000
10000000
00000000
,
20000000
30010000
02000000
03100000
,
00020000
00031000
00002000
00003100
,
00000002
00001003
00000200
00000310
,
00002000
00013000
00020000
01030000
,
00000000
00000000
00100000
00010000
02000000
00000000
13000000
00000000
,
00100000
10000000
02000000
00000000
03010000
00000000
00010000
00000000
,
00001000
00000000
00000010
00000001
00000200
00000000
00001300
00000000
,
00001100
00000000
00000000
00000000
00000101
00000000
00000000
00000000
00001001
00000000
00000000
00000000
00000001
00001000
00000001
00001000
,
00000001
00000000
00000100
00000000
00001000
00000000
00010000
00000000
01000000
00000000
10000000
00100000
00000000
00000000
10000000
00100000
,
10000000
00100000
10000000
00100000
00000000
00000000
10000000
01000000
10000000
01000000
10000000
01000000
00000000
00000000
10000000
00010000
,
10000000
00000000
01000000
00000000
00010000
00000000
00001000
00000000
00000100
00000000
00000001
00000010
00000000
00000000
00000001
00000010
,
00000001
00000010
00000001
00000010
00000000
00000000
00000001
00000100
00000001
00000100
00000001
00000100
00000000
00000000
00000001
00001000
,
00000001
00000000
00000100
00000000
00000010
00000000
00001000
00000000
00000100
00000000
00000010
00000001
00000000
00000000
00001000
00000001
,
00001000
00000001
00001000
00000001
00000000
00000000
00000001
00001000
00000001
00001000
00000001
00001000
00000000
00000000
00001000
00000001
,
00001000
00000000
00000100
00000000
00000010
00000000
00000001
00000000
00000100
00000000
00001000
00010000
00000000
00000000
00001000
00010000
,
00001000
00010000
00001000
00010000
00000000
00000000
00010000
00001000
00010000
00001000
00010000
00001000
00000000
00000000
00001000
00010000
,
00001000
00000000
00010000
00000000
01000000
00000000
10000000
00000000
00100000
00000000
01000000
00010000
00000000
00000000
10000000
00010000
,
10000000
00010000
10000000
00010000
00000000
00000000
00010000
10000000
00010000
10000000
00010000
10000000
00000000
00000000
10000000
00010000
,
10000000
00000000
01000000
00000000
00010000
00000000
01000000
00000000
10000000
00000000
01000000
00010000
00000000
00000000
01000000
10000000
,
01000000
10000000
01000000
10000000
00000000
00000000
10000000
00100000
10000000
00100000
10000000
00100000
00000000
00000000
00100000
01000000
,
00100000
00000000
00010000
00000000
00001000
00000000
00010000
00000000
00001000
00000000
00010000
00001000
00000000
00000000
00001000
00010000
,
00001000
00010000
00001000
00010000
00000000
00000000
00010000
00001000
00010000
00001000
00010000
00001000
00000000
00000000
00001000
00010000
,
00001000
00000000
00000010
00000000
00000001
00000000
00000010
00000000
00001000
00000000
00000010
00000001
00000000
00000000
00000010
00000001
,
00000010
00000001
00000010
00000001
00000000
00000000
00000100
00000001
00000100
00000001
00000100
00000001
00000000
00000000
00000001
00001000
,
00000001
00000100
00001000
00000100
00000001
00000100
00001000
00010000
,
00001000
01000000
00010000
01000000
00001000
00010000
00000100
00001000
,
00000100
00000000
00010000
00000000
00001000
00000000
00010000
00000000
01000000
00000000
10000000
01000000
00000000
00000000
10000000
01000000
,
10000000
01000000
00010000
00001000
00000100
00000001
00000010
00001000
,
00000010
00000001
00000100
00001000
00010000
01000000
10000000
00100000
,
00010000
00100000
10000000
01000000
00010000
00001000
00000100
00000001
,
00000010
00000000
00001000
00000000
00000010
00000000
00000001
00000000
00000100
00000000
00001000
00010000
00000000
00000000
00010000
00001000
,
00010000
00000000
00000000
00000000
01000000
00000000
00000000
00000000
10000000
00000000
00000000
00000000
00010000
10000000
00010000
10000000
,
02000000
00000000
00000000
03000000
;
