#TITLE:学園天国;
#ARTIST:(J-POP);
#TITLETRANSLIT:GAKUEN TENGOKU;
#MUSIC:GAKUEN TENGOKU.ogg;
#BANNER:GAKUEN TENGOKU.png;
#BACKGROUND:GAKUEN TENGOKU-bg.png;
#CDTITLE:./CDTITLE/DANCE DANCE REVOLUTION FESTIVAL.png;
#SAMPLESTART:69.59;
#SAMPLELENGTH:15;
#BPMS:0=175.65;
#DISPLAYBPM:175;

//--------------- dance-single - ----------------
#NOTES:
     dance-single:
     :
     Beginner:
     1:
     :
0000
0000
0000
0000
,
0000
0000
0000
0000
,
0000
0000
0000
0000
,
0001
0000
0001
0001
,
0002
0000
0003
0000
,
1000
0000
1000
1000
,
2000
0000
3000
0000
,
0010
0000
0010
0010
,
0020
0000
0030
0000
,
0100
0000
0100
0100
,
0200
0000
0300
0000
,
0001
0000
1001
0000
,
0100
0000
0110
0000
,
1001
0000
0110
0000
,
0010
0010
0010
0010
,
0000
1000
0000
1000
,
0000
0001
0000
0001
,
0000
0100
0000
0001
,
0000
0010
0000
1000
,
0000
1000
0000
1000
,
0000
0010
0000
0010
,
0000
0100
0000
0001
,
0000
0100
0000
0010
,
0000
1000
1000
1000
,
0000
1000
1000
1000
,
0000
0001
0000
0001
,
0000
0000
0000
0000
,
0000
0100
0100
0100
,
0000
0001
0001
0001
,
0000
0000
0010
0000
,
0020
0000
0000
0030
,
0010
0000
0000
0000
,
0000
0000
0000
0000
,
1001
0000
0000
0000
,
0000
0000
0000
0000
,
0110
0000
0000
0110
,
0110
0000
0000
0000
,
1001
0000
0100
0000
,
0010
0010
0010
0010
,
0010
0000
0000
0000
,
0000
0001
0000
0001
,
0000
1000
0000
1000
,
0000
0100
0000
1000
,
0000
0010
0000
0001
,
0000
0001
0000
0001
,
0000
0010
0000
0010
,
0000
0100
0000
1000
,
0000
0100
0000
0010
,
0000
0000
0000
0000
,
0000
0000
0000
0000
,
0000
0000
0000
0000
,
0010
0000
0010
0010
,
0020
0000
0030
0000
,
0100
0000
0100
0100
,
0200
0000
0300
0000
,
1000
0000
1000
1000
,
2000
0000
3000
0000
,
0001
0000
0001
0001
,
0002
0000
0003
0000
,
1000
0000
1001
0000
,
0100
0000
0110
0000
,
1001
0000
0110
0000
,
0010
0010
0010
0010
,
0000
0001
0000
0001
,
0000
1000
0000
1000
,
1000
0000
0000
0000
;

//--------------- dance-single - ----------------
#NOTES:
     dance-single:
     :
     Easy:
     5:
     :
0000
0000
0000
0000
,
0000
0000
0000
0000
,
1001
0000
0000
0000
,
0010
0000
0010
0010
,
0010
0000
0000
0010
0000
0000
0000
0000
,
0100
0000
0100
0100
,
0100
0000
0000
0100
0000
0000
0000
0000
,
0001
0000
0001
0001
,
0001
0000
0000
0001
0000
0000
0000
0000
,
1000
0000
1000
1000
,
1000
0000
0000
1000
0000
0000
0000
0000
,
0010
0000
0100
0000
,
0010
0000
0100
0000
,
0010
0100
0010
0100
,
0001
1000
0001
1000
,
0001
0100
1000
0100
,
0001
0100
1000
0100
,
0001
0100
1000
0100
,
0001
0100
0010
0000
,
1000
0010
0001
0010
,
1000
0010
0001
0010
,
1000
0010
0100
0001
,
1000
0100
0010
1000
,
0001
0001
0001
0001
,
0001
0001
0001
0001
,
0001
0001
0001
0001
,
0001
0001
0110
0000
,
1000
1000
1000
1000
,
1000
1000
1000
1000
,
0110
0000
1001
0000
,
0010
1000
0001
0100
,
0010
0010
0010
0010
,
0010
0000
0010
0000
0010
1000
0000
0000
,
0001
0100
0100
0100
,
0100
0000
0100
0000
0100
0001
0000
0000
,
1000
0000
0000
0001
,
0001
0000
0000
0100
,
0010
1000
0001
0100
,
1001
0110
1001
0110
,
1001
0000
0000
0000
,
0001
0100
1000
0100
,
0001
0100
1000
0100
,
0001
0100
1000
0100
,
0001
0100
0010
0000
,
1000
0100
0001
0100
,
1000
0100
0001
0100
,
1000
0100
0010
0001
,
1000
1000
1000
1000
,
1000
1000
1000
1000
,
0110
0000
0000
0000
,
0000
0000
0000
0000
,
0001
0000
0001
0001
,
0001
0000
0000
0001
0000
0000
0000
0000
,
1000
0000
1000
1000
,
1000
0000
0000
1000
0000
0000
0000
0000
,
0010
0000
0010
0010
,
0010
0000
0000
0010
0000
0000
0000
0000
,
0100
0000
0100
0100
,
0100
0000
0000
0100
0000
0000
0000
0000
,
0010
0000
1001
0000
,
0010
0000
1001
0000
,
0010
1001
0100
1001
,
0010
0001
1000
0100
,
0001
0000
1000
0000
,
0001
1000
0001
0100
,
0010
0000
0000
0000
;

//--------------- dance-single - ----------------
#NOTES:
     dance-single:
     :
     Medium:
     6:
     :
0000
0000
0000
0000
,
0000
0000
0000
0000
,
1001
0000
0000
0000
,
0010
0000
1100
0101
,
0010
0000
0000
1001
0000
0000
0000
0000
,
0100
0000
1010
0011
,
1000
0000
0000
0110
0000
0000
0000
0000
,
0001
0000
1100
0101
,
1000
0000
0000
1001
0000
0000
0000
0000
,
1000
0000
0011
1010
,
0001
0000
0000
0110
0000
0000
0000
0000
,
0010
0000
1001
0000
,
0010
0000
1001
0000
,
0010
1001
0100
1001
,
0010
1000
0001
0100
,
1000
0010
0001
0010
,
1000
0010
0001
0010
,
1000
0010
0001
0010
,
1000
0000
0100
0000
0001
1000
0000
0000
,
0001
0100
1000
0100
,
0001
0100
1000
0100
,
0001
0100
1000
0100
,
0010
0001
0110
1001
,
0001
0010
0001
0010
,
0001
0010
0001
0010
,
0001
0010
0010
0001
,
0001
0010
0110
1001
,
0010
1000
0010
1000
,
0010
1000
0010
1000
,
0010
0110
0001
0100
,
0010
1000
0001
0100
,
0010
0010
0010
0010
,
0010
0000
0010
0000
0010
1000
0000
0000
,
0001
0100
0100
0100
,
0100
0000
0100
0000
0100
0001
0000
0000
,
1000
0010
0010
1001
,
0110
0100
0100
1001
,
0001
0000
1000
0000
0001
0000
1000
0000
0001
0000
1000
0000
,
0001
0000
0010
0000
0100
0000
1000
0000
0001
0000
0100
0000
,
0010
0000
0000
1001
,
0001
0010
1000
0010
,
0001
0010
1000
0010
,
0001
0010
1000
0010
,
0001
0000
0100
0000
1000
0001
0000
0000
,
1000
0100
0001
0100
,
1000
0100
0001
0100
,
1000
0100
0001
0100
,
1000
1000
1000
1000
,
0010
0001
1000
0100
,
0001
0010
0100
1000
,
0001
0100
0010
1000
,
0010
0000
1100
0101
,
0010
0000
0000
1001
0000
0000
0000
0000
,
0100
0000
1010
0011
,
1000
0000
0000
0110
0000
0000
0000
0000
,
1000
0000
0011
1010
,
0001
0000
0000
1001
0000
0000
0000
0000
,
0001
0000
1100
0101
,
1000
0000
0000
0110
0000
0000
0000
0000
,
0010
0000
1001
0000
,
0010
0000
1001
0000
,
0010
1001
0100
1001
,
0010
0001
1000
0100
,
0011
0000
1100
0000
,
0011
1000
0010
0100
,
1001
0000
0000
0000
;

//--------------- dance-single - ----------------
#NOTES:
     dance-single:
     :
     Hard:
     6:
     :
0000
0000
0000
0000
,
0000
0000
0000
0000
,
1001
0000
0000
0000
,
0110
0000
1100
0101
,
0110
0000
0000
1001
0000
0000
0000
0000
,
0110
0000
1010
0011
,
1001
0000
0000
0110
0000
0000
0000
0000
,
1001
0000
1100
0101
,
1001
0000
0000
0110
0000
0000
0000
0000
,
0110
0000
0011
1010
,
0110
0000
0000
1001
0000
0000
0000
0000
,
0010
0000
1001
0000
,
0100
0000
1001
0000
,
0010
1001
0100
1001
,
0011
1100
1010
0101
,
1000
0010
0001
0010
,
1000
0010
0001
0010
,
1000
0010
0001
0010
,
1001
0000
0110
0000
0001
1000
0000
0000
,
0001
0100
1000
0100
,
0001
0100
1000
0100
,
0001
0100
1000
0100
,
0011
1100
0011
1001
,
0001
0010
0001
0010
,
0001
0010
0001
0010
,
0001
0000
0000
0000
1000
0000
0000
1000
0000
0000
0000
0000
0001
0000
0000
0001
,
0000
1000
0110
1001
,
0010
1000
0010
1000
,
0010
1000
0010
1000
,
0010
0000
0000
0000
0000
0000
1001
0000
0000
0000
0000
0000
0010
0000
0000
0000
1000
0000
0000
0000
0000
0001
0000
0000
,
0000
0010
1000
0001
,
0010
0010
0010
0010
,
0010
0000
0010
0000
0010
0101
0000
0000
,
1010
0100
0100
0100
,
0100
0000
0100
0000
0100
0011
0000
0000
,
1100
0010
0010
0101
,
1010
0100
0100
1001
,
0001
0000
0001
0000
0001
0000
1000
0000
1000
0000
1000
0000
,
0001
0000
0010
0000
0100
0000
1000
0000
0001
0000
0100
0000
,
0010
0000
0000
1001
,
0001
0010
1000
0010
,
0001
0010
1000
0010
,
0001
0010
1000
0010
,
1001
0000
0010
0000
1000
0001
0000
0000
,
1000
0100
0001
0100
,
1000
0100
0001
0100
,
1000
0100
0001
0100
,
1000
1000
1000
1000
,
0011
1001
1100
0110
,
1000
0010
0100
0001
,
1000
0100
0010
0001
,
0010
0000
1100
0101
,
0110
0000
0000
1001
0000
0000
0000
0000
,
0110
0000
1010
0011
,
1001
0000
0000
0110
0000
0000
0000
0000
,
1001
0000
0011
1010
,
1001
0000
0000
0110
0000
0000
0000
0000
,
1001
0000
1100
0101
,
0110
0000
0000
1001
0000
0000
0000
0000
,
0010
0000
1001
0000
,
0100
0000
1001
0000
,
0010
1001
0100
1001
,
0110
1100
0101
1001
,
0011
0000
1100
0000
,
0011
0011
1100
1100
,
1001
0000
0000
0000
;

//--------------- dance-double - ----------------
#NOTES:
     dance-double:
     :
     Easy:
     4:
     :
00000000
00000000
00000000
00000000
,
00000000
00000000
00000000
00000000
,
00000000
00000000
00000000
00000000
,
00001000
00000000
00001000
00001000
,
00001000
00000000
00000000
00001000
00000000
00000000
00000000
00000000
,
00010000
00000000
00010000
00010000
,
00010000
00000000
00000000
00010000
00000000
00000000
00000000
00000000
,
00000010
00000000
00000010
00000010
,
00000010
00000000
00000000
00000010
00000000
00000000
00000000
00000000
,
00100000
00000000
00100000
00100000
,
00100000
00000000
00000000
00100000
00000000
00000000
00000000
00000000
,
00000010
00000000
00001000
00000000
,
00100000
00000000
00010000
00000000
,
00000010
00001000
00100000
00010000
,
00022000
00000000
00000000
00033000
,
00001000
00000100
00001000
00000000
,
00010000
01000000
00010000
00000000
,
00001000
00000010
00000001
00000100
,
00001000
00100000
00010000
00000000
,
00000010
00001000
00001000
00000000
,
00100000
00010000
00010000
00000000
,
00010100
00000000
01001000
00000000
,
00001000
00001000
00010000
00000000
,
00000010
00001000
00000010
00001000
,
00000010
00001000
00000010
00001000
,
00000010
00020000
00030000
00002000
,
00003000
01000000
00010000
00000000
,
00100000
00010000
00100000
00010000
,
00100000
00010000
00100000
00100000
,
01010000
00000000
00011000
00000000
,
00002200
00000000
00000000
00003300
,
00011000
00001000
00001000
00001000
,
00001000
00001000
00001000
00000000
,
00000100
00010000
00010000
00010000
,
00010000
00010000
00010000
00000000
,
01010000
00000000
00000000
00100000
,
01100000
00000000
00000000
00010000
,
00001000
00000100
00000001
00000010
,
00001000
00001000
00010000
00010000
,
00110000
00000000
00000000
00000000
,
00001000
00000100
00001000
00000000
,
00010000
01000000
00010000
00000000
,
00001000
00000010
00000001
00000100
,
00001000
00100000
00010000
00000000
,
00000010
00001000
00001000
00000000
,
00100000
00010000
00010000
00000000
,
00010100
00000000
01001000
00000000
,
00220000
00000000
00330000
00000000
,
00010000
00010000
00010000
00010000
,
01000000
00000000
00000000
00000000
,
00000000
00000000
00000000
00000000
,
00000010
00000000
00000010
00000010
,
00000010
00000000
00000000
00000010
00000000
00000000
00000000
00000000
,
00100000
00000000
00100000
00100000
,
00100000
00000000
00000000
00100000
00000000
00000000
00000000
00000000
,
00000100
00000000
00000100
00000100
,
00000100
00000000
00000000
00000100
00000000
00000000
00000000
00000000
,
01000000
00000000
01000000
01000000
,
01000000
00000000
00000000
01000000
00000000
00000000
00000000
00000000
,
00000010
00000000
00011000
00000000
,
00100000
00000000
00011000
00000000
,
00000100
00011000
01000000
00011000
,
00000220
00000000
00000000
00000330
,
00001000
00000000
00010000
00000000
,
01000000
01000000
00100000
00100000
,
00010000
00000000
00000000
00000000
;

//--------------- dance-double - ----------------
#NOTES:
     dance-double:
     :
     Medium:
     7:
     :
00000000
00000000
00000000
00000000
,
00000000
00000000
00000000
00000000
,
00000000
00000000
00000000
00000000
,
00100000
00000000
01000000
00010000
,
00001000
00000000
00000000
00001100
00000000
00000000
00000000
00000000
,
00000010
00000000
00000100
00001000
,
00010000
00000000
00000000
01010000
00000000
00000000
00000000
00000000
,
00100000
00000000
00010000
00001000
,
00000100
00000000
00000000
00000101
00000000
00000000
00000000
00000000
,
00000010
00000000
00001000
00010000
,
01000000
00000000
00000000
11000000
00000000
00000000
00000000
00000000
,
00010000
00000000
01100000
00000000
,
10000000
00000000
01100000
00000000
,
00010000
00011000
00001000
00000110
,
00000001
00000001
00000100
00000100
,
00001000
00010000
00000020
00000130
,
00010000
00001000
00200000
01300000
,
10000000
00100000
00010000
00001000
,
00000100
00000001
00000010
00000000
,
00010000
00001000
02000000
03100000
,
00001000
00010000
00000200
00000310
,
00000001
00000100
00001000
00010000
,
00100000
00010000
00001000
00000110
,
00000001
00000010
00000001
00000010
,
00000100
00000010
00000100
00000010
,
00000100
00010000
00010000
00000010
,
00000010
00001000
00010000
01100000
,
10000000
00100000
10000000
00100000
,
01000000
00100000
01000000
00100000
,
00010000
00011000
00000100
00000001
,
00000010
00001000
00010000
01000000
,
10000000
00100000
00100000
00100000
,
00100000
00000000
00000000
00100000
00000000
00000000
00100000
00000000
00010000
00000000
00000000
00000000
,
00001000
00000010
00000010
00000010
,
00000010
00000000
00000000
00000010
00000000
00000000
00000010
00000000
00001000
00000000
00000000
00000000
,
00011000
00100000
00100000
10010000
,
01100000
01000000
01000000
01010000
,
00001000
00000000
00010000
00000000
00001000
00000000
00010000
00000000
00001000
00000000
00010000
00000000
,
00001000
00000000
00000010
00000000
00000100
00000000
00010000
00000000
00001000
00000000
01000000
00000000
,
00100000
00000000
00000000
00000000
,
00001000
00010000
00000020
00000130
,
00010000
00001000
00200000
01300000
,
10000000
00100000
00010000
00001000
,
00000100
00000001
00000010
00000000
,
00010000
00001000
02000000
03100000
,
00001000
00010000
00000200
00000310
,
00000001
00000100
00001000
00010000
,
02000000
03000000
00000000
00000000
,
10000000
10000000
10000000
10000000
,
01000000
00010000
00001000
00010000
,
00000010
00010000
00001000
00010000
,
00100000
00000000
01000000
00010000
,
00001000
00000000
00000000
00001100
00000000
00000000
00000000
00000000
,
00000010
00000000
00000100
00001000
,
00010000
00000000
00000000
01010000
00000000
00000000
00000000
00000000
,
00100000
00000000
00010000
00001000
,
00000100
00000000
00000000
00000101
00000000
00000000
00000000
00000000
,
00000010
00000000
00001000
00010000
,
01000000
00000000
00000000
11000000
00000000
00000000
00000000
00000000
,
00010000
00000000
01100000
00000000
,
10000000
00000000
01100000
00000000
,
00010000
00011000
00001000
00000110
,
00000001
00000100
00001000
00010000
,
00100000
00100000
10000000
10000000
,
01000000
01000000
00010000
00010000
,
00001000
00000000
00000000
00000000
;

//--------------- dance-double - ----------------
#NOTES:
     dance-double:
     :
     Hard:
     7:
     :
00000000
00000000
00000000
00000000
,
00000000
00000000
00000000
00000000
,
00000000
00000000
00000000
00000000
,
01100000
00000000
11000000
01010000
,
00001000
00000000
00000000
00001100
00000000
00000000
00000000
00000000
,
00000110
00000000
00000101
00001100
,
00010000
00000000
00000000
01010000
00000000
00000000
00000000
00000000
,
10100000
00000000
01010000
00011000
,
00000100
00000000
00000000
00000101
00000000
00000000
00000000
00000000
,
00000011
00000000
00001100
00011000
,
01000000
00000000
00000000
11000000
00000000
00000000
00000000
00000000
,
00100000
00000000
01010000
00000000
,
00100000
00000000
11000000
00000000
,
00100000
00011000
00000010
00011000
,
01010000
00011000
00001100
00000000
,
00010000
01100000
10000000
00100000
,
00010000
00011000
00000100
00000001
,
00000010
00001100
00000010
00001000
,
00010000
11000000
00100000
00000000
,
00001000
00000110
00000001
00000010
,
00001000
00011000
01000000
10000000
,
00100000
01010000
00100000
00010000
,
00011000
00001000
00000100
00001001
,
00000010
00001000
00010000
00001000
,
00000010
00001000
00010000
00001000
,
00000100
00000000
00000000
00000000
00001000
00000000
00000000
00010000
00000000
00000000
00000000
00000000
01000000
00000000
00000000
10000000
,
00000000
00010000
01000000
10010000
,
00100000
00010000
00001000
00010000
,
00100000
00010000
00001000
00010000
,
01000000
00000000
00000000
00000000
00000000
00000000
10010000
00000000
00000000
00000000
00000000
00000000
00100000
00000000
00000000
00000000
00010000
00000000
00000000
00000000
00000000
00001000
00000000
00000000
,
00000000
00000100
00000001
00001000
,
00001100
00000010
00000010
00000010
,
00000010
00000000
00000000
00000010
00000000
00000000
00000010
00000000
00001000
00000000
00000000
00000000
,
01010000
00100000
00100000
00100000
,
00100000
00000000
00000000
00100000
00000000
00000000
00100000
00000000
00010000
00000000
00000000
00000000
,
00001100
00001000
00010000
00110000
,
11000000
00100000
00010000
00011000
,
00000100
00000000
00000100
00000000
00000100
00000000
00000001
00000000
00000001
00000000
00000001
00000000
,
00000010
00000000
00001000
00000000
00010000
00000000
00100000
00000000
10000000
00000000
01000000
00000000
,
00010000
00000000
00000000
00000000
,
00010000
01100000
10000000
00100000
,
00010000
00011000
00000100
00000001
,
00000010
00001100
00000010
00001000
,
00010000
11000000
00100000
00000000
,
00001000
00000110
00000001
00000010
,
00001000
00011000
01000000
10000000
,
00100000
01010000
00100000
00010000
,
00011000
00001000
00001000
00001000
,
00000100
00000100
00000010
00000010
,
00000010
00010000
00001000
00010000
,
00000100
00010000
00001000
00010000
,
01100000
00000000
11000000
01010000
,
00001000
00000000
00000000
00001100
00000000
00000000
00000000
00000000
,
00000110
00000000
00000101
00001100
,
00010000
00000000
00000000
01010000
00000000
00000000
00000000
00000000
,
10100000
00000000
01010000
00011000
,
00000100
00000000
00000000
00000101
00000000
00000000
00000000
00000000
,
00000011
00000000
00001100
00011000
,
01000000
00000000
00000000
11000000
00000000
00000000
00000000
00000000
,
00100000
00000000
01010000
00000000
,
00100000
00000000
11000000
00000000
,
00100000
00011000
00000010
00011000
,
01010000
00011000
00001100
00011000
,
00110000
00100000
11000000
01000000
,
01010000
00010000
00011000
00001000
,
00000100
00000000
00000000
00000000
;
