#TITLE:KEEP ON MOVIN';
#ARTIST:N.M.R;
#BANNER:KEEP ON MOVIN'.png;
#BACKGROUND:KEEP ON MOVIN'-bg.png;
#CDTITLE:./CDTITLES/DANCE DANCE REVOLUTION 2NDMIX.PNG;
#MUSIC:KEEP ON MOVIN'.ogg;
#SAMPLESTART:9.099;
#SAMPLELENGTH:15;
#DISPLAYBPM:132;
#BPMS:0=132.191,12=132.029;

//---------------dance-single - ----------------
#NOTES:
     dance-single:
     :
     Challenge:
     7:
     :
0000
0000
0000
0000
,
0000
0000
0000
0000
,
0000
0000
0000
0000
,
0000
0000
0000
0000
,
0000
0000
0000
0000
,
1100
0100
1000
0100
1100
0100
1000
0100
,
0100
1000
1001
0000
1000
0001
0100
1000
,
1100
0000
0110
0000
0101
0000
0110
0110
,
1001
0100
0011
1100
,
0101
0100
0001
0100
0101
0100
0001
0100
,
0100
0001
1001
0000
0001
1000
0100
0001
,
0101
0100
0110
0000
1001
1001
0110
0000
,
0010
0020
0100
0130
,
1000
0100
1100
0000
0100
0001
0101
0000
,
2000
0000
0000
3010
0001
1001
0100
0000
,
0100
0000
0000
0000
0100
0010
0110
0000
,
0001
1000
0001
0010
0110
0000
0001
0000
,
0001
0100
0101
0000
0100
1000
1100
0000
,
0002
0000
0000
0013
1000
1001
0100
0000
,
0100
0000
0000
0000
0100
0010
0110
0000
,
0010
0010
1001
0000
0110
0000
0000
0000
,
1020
0000
0130
0000
0101
0001
0001
0001
,
0021
0000
0130
0000
1100
1000
1000
1000
,
1020
0000
0130
0000
0101
0001
1000
0001
,
0021
0000
0130
0000
1100
1000
0001
1000
,
1200
0000
0001
0000
1300
1000
0001
1000
,
0201
0000
1000
0000
0301
0001
1000
0001
,
0020
0000
0100
0000
0130
0100
1000
0001
,
0000
1001
1001
0000
1100
0000
0101
0000
,
1100
0100
1000
0100
1100
0100
1000
0100
,
0100
1000
1001
0000
1000
0001
0100
1000
,
1100
0000
0110
0000
0101
0000
0110
0110
,
1001
0100
0011
1100
,
0101
0100
0001
0100
0101
0100
0001
0100
,
0100
0001
1001
0000
0001
1000
0100
0001
,
0101
0100
0110
0000
1001
1001
0110
0000
,
0010
0000
0020
0000
0130
0100
1100
0101
,
1001
0000
0000
0000
;
