#TITLE:DROP THE BOMB;
#ARTIST:Scotty D.;
#BANNER:DROP THE BOMB.png;
#BACKGROUND:DROP THE BOMB-bg.png;
#CDTITLE:./CDTITLES/DANCE DANCE REVOLUTION HOME VERSION.PNG;
#MUSIC:DROP THE BOMB.ogg;
#SAMPLESTART:74.525;
#SAMPLELENGTH:15;
#DISPLAYBPM:150;
#BPMS:0=150.313,8=150.143;

//---------------dance-single - Triplets Corrected----------------
#NOTES:
     dance-single:
     Triplets Corrected:
     Hard:
     8:
     :
0000
0000
0000
0000
,
0000
0000
0000
0000
,
0000
0000
0000
0000
,
1001
0100
0010
0000
0001
0001
0100
0100
,
0110
0001
0100
0000
1000
1000
0001
0001
,
0110
1000
0010
0000
0001
0001
1000
1000
,
0110
0000
0100
0100
,
0100
0100
0100
0100
,
0010
0010
0001
0001
1000
1000
0100
0100
,
1000
0000
1001
0000
0010
1000
1010
0000
,
1000
0010
1000
0100
1000
0000
0110
0000
,
0010
0000
0110
0000
0100
0001
0101
0000
,
0010
0010
1000
1000
0001
0001
0100
0100
,
0001
0000
1001
0000
0010
0001
0011
0000
,
0001
0010
0001
0100
0001
0000
0110
0000
,
0010
0000
0010
0000
0100
0001
0100
0001
,
1001
1001
0100
0000
0110
0000
0000
0010
,
1001
0000
0000
1100
0000
0011
0000
1000
,
1100
1000
0011
1100
,
0010
1000
0010
1000
1001
0100
1000
0000
,
1001
1001
0100
0000
0110
0000
0000
0010
,
1001
0000
0000
0101
0000
1010
0000
0001
,
0101
0100
0010
0100
0011
0010
1000
0000
,
0001
1000
0001
0100
0110
0001
1000
0001
,
2002
0000
3003
0000
0001
1000
0010
1010
,
0010
0001
0010
0000
1001
1000
0001
1000
,
0220
0000
0330
0000
0001
0001
1001
1000
,
1010
0100
0010
0000
0001
1000
1010
1000
,
2020
0000
3030
0000
1000
1000
0001
1100
,
1000
0100
0010
0000
0011
1000
0100
1000
,
2200
0000
3300
0000
0010
0010
0011
1000
,
1100
0100
0010
0000
1000
1000
1001
0001
,
0220
0000
0000
0330
,
0010
0000
0000
0010
0000
0000
0001
0000
1000
0000
0000
0000
0000
0000
0000
0000
,
0010
0000
0000
0010
0000
0000
1000
0000
0001
0000
0000
0000
0000
0000
0000
0000
,
0010
0000
0000
0011
0000
0000
1001
0000
0101
0000
0000
0000
0000
0000
0000
0000
,
0010
0000
0000
1010
0000
0000
1001
0000
1100
0000
0000
0000
0000
0000
0000
0000
,
1010
0000
0100
0000
0001
0000
1000
0001
,
0101
0000
0000
0011
0000
1100
0000
1010
,
0101
0100
0001
1000
,
0010
0010
0110
1001
,
0011
0000
0100
0000
0010
0000
1000
0010
,
0011
0000
0000
1010
0000
0101
0000
0011
,
0001
0100
0001
1000
0010
1000
1010
0000
,
0010
0001
1001
0100
0010
0001
0101
0000
,
0010
0000
0000
0010
0000
0000
1000
0000
0001
0000
0000
0000
0000
0000
0000
0000
,
0010
0000
0000
0010
0000
0000
0001
0000
1000
0000
1000
0000
0001
0000
1000
0000
,
2002
0000
3003
0000
0001
1000
0010
1010
,
0010
0001
0010
0000
1001
1000
0001
1000
,
0220
0000
0330
0000
0001
0001
1001
1000
,
1010
0100
0010
0000
0001
1000
1010
1000
,
2020
0000
3030
0000
1000
1000
0001
1100
,
1000
0100
0010
0000
0011
1000
0100
1000
,
2200
0000
3300
0000
0010
0010
0001
1000
,
2002
0000
3003
0000
0010
0010
0100
0010
,
0220
0000
0330
0000
0001
1000
0001
0000
,
0010
0001
0100
0010
1000
0100
0010
0001
0100
0010
1000
0100
,
0000
1001
0000
0000
;

//---------------dance-single - Game Accurate----------------
#NOTES:
     dance-single:
     Game Accurate:
     Challenge:
     8:
     :
0000
0000
0000
0000
,
0000
0000
0000
0000
,
0000
0000
0000
0000
,
1001
0100
0010
0000
0001
0001
0100
0100
,
0110
0001
0100
0000
1000
1000
0001
0001
,
0110
1000
0010
0000
0001
0001
1000
1000
,
0110
0000
0100
0100
,
0100
0100
0100
0100
,
0010
0010
0001
0001
1000
1000
0100
0100
,
1000
0000
1001
0000
0010
1000
1010
0000
,
1000
0010
1000
0100
1000
0000
0110
0000
,
0010
0000
0110
0000
0100
0001
0101
0000
,
0010
0010
1000
1000
0001
0001
0100
0100
,
0001
0000
1001
0000
0010
0001
0011
0000
,
0001
0010
0001
0100
0001
0000
0110
0000
,
0010
0000
0010
0000
0100
0001
0100
0001
,
1001
1001
0100
0000
0110
0000
0000
0010
,
1001
0000
0000
1100
0000
0011
0000
1000
,
1100
1000
0011
1100
,
0010
1000
0010
1000
1001
0100
1000
0000
,
1001
1001
0100
0000
0110
0000
0000
0010
,
1001
0000
0000
0101
0000
1010
0000
0001
,
0101
0100
0010
0100
0011
0010
1000
0000
,
0001
1000
0001
0100
0110
0001
1000
0001
,
2002
0000
3003
0000
0001
1000
0010
1010
,
0010
0001
0010
0000
1001
1000
0001
1000
,
0220
0000
0330
0000
0001
0001
1001
1000
,
1010
0100
0010
0000
0001
1000
1010
1000
,
2020
0000
3030
0000
1000
1000
0001
1100
,
1000
0100
0010
0000
0011
1000
0100
1000
,
2200
0000
3300
0000
0010
0010
0011
1000
,
1100
0100
0010
0000
1000
1000
1001
0001
,
0220
0000
0000
0330
,
0010
0000
0000
0010
0000
0000
0001
0000
1000
0000
0000
0000
0000
0000
0000
0000
,
0010
0000
0000
0010
0000
0000
1000
0000
0001
0000
0000
0000
0000
0000
0000
0000
,
0010
0000
0000
0011
0000
0000
1001
0000
0101
0000
0000
0000
0000
0000
0000
0000
,
0010
0000
0000
1010
0000
0000
1001
0000
1100
0000
0000
0000
0000
0000
0000
0000
,
1010
0000
0100
0000
0001
0000
1000
0001
,
0101
0000
0000
0011
0000
1100
0000
1010
,
0101
0100
0001
1000
,
0010
0010
0110
1001
,
0011
0000
0100
0000
0010
0000
1000
0010
,
0011
0000
0000
1010
0000
0101
0000
0011
,
0001
0100
0001
1000
0010
1000
1010
0000
,
0010
0001
1001
0100
0010
0001
0101
0000
,
0010
0000
0000
0010
0000
0000
1000
0000
0001
0000
0000
0000
0000
0000
0000
0000
,
0010
0000
0000
0010
0000
0000
0001
0000
1000
0000
1000
0000
0001
0000
1000
0000
,
2002
0000
3003
0000
0001
1000
0010
1010
,
0010
0001
0010
0000
1001
1000
0001
1000
,
0220
0000
0330
0000
0001
0001
1001
1000
,
1010
0100
0010
0000
0001
1000
1010
1000
,
2020
0000
3030
0000
1000
1000
0001
1100
,
1000
0100
0010
0000
0011
1000
0100
1000
,
2200
0000
3300
0000
0010
0010
0001
1000
,
2002
0000
3003
0000
0010
0010
0100
0010
,
0220
0000
0330
0000
0001
1000
0001
0000
,
0010
0000
0000
0000
0000
0001
0000
0000
0000
0000
0100
0000
0000
0000
0000
0000
0010
0000
0000
0000
0000
1000
0000
0000
0000
0000
0100
0000
0000
0000
0000
0000
0010
0000
0000
0000
0000
0001
0000
0000
0000
0000
0100
0000
0000
0000
0000
0000
0010
0000
0000
0000
0000
1000
0000
0000
0000
0000
0100
0000
0000
0000
0000
0000
,
0000
1001
0000
0000
;
