
//----- mcode: msic -----//
#TITLE:Music (Bostik Radio Edit);
#ARTIST:Darude;
#BANNER:Music (Bostik Radio Edit).png;
#BACKGROUND:Music (Bostik Radio Edit)-bg.png;
#CDTITLE:./CDTitles/DDR EXTREME US PS2.png;
#MUSIC:Music (Bostik Radio Edit).ogg;
#SAMPLESTART:63.975;
#SAMPLELENGTH:15;
#DISPLAYBPM:138;
#BPMS:0=137.5,4=138;
#NOTES:
     dance-single:
     :
     Beginner:
     1:
     :
0000
0000
0000
0000
,
0000
0000
0000
0000
,
0000
0000
0000
0010
,
0000
0000
0000
0000
,
0000
0000
0000
0000
,
0010
0000
0100
0000
,
0001
0001
0001
0000
,
0010
0000
0100
0000
,
1000
1000
1000
0000
,
0001
0000
0001
0000
,
1000
0000
1000
0000
,
0010
0000
0000
0000
,
0100
0000
0000
0000
,
0001
0000
1000
0000
,
0001
0001
0000
0000
,
0010
0000
0100
0000
,
0001
0001
0001
0000
,
0010
0000
0100
0000
,
1000
1000
1000
0000
,
0001
0000
0000
0000
,
1000
0000
1000
0000
,
0010
0000
0010
0000
,
0001
0000
0001
0000
,
0100
0000
0100
0000
,
1000
0000
0000
0000
,
0001
0000
0000
0000
,
0100
0000
0010
0000
,
0100
0000
0001
0000
,
1000
0000
0100
0000
,
0001
0000
0100
0000
,
1000
0000
0100
0000
,
0001
0000
0100
0000
,
1000
0000
1000
0000
,
0001
0000
0001
0000
,
1000
0000
0000
0000
,
0001
0000
1000
0000
,
0100
0000
0001
0000
,
1000
0000
0010
0000
,
0100
0000
0001
0001
,
0001
0000
0010
0000
,
0100
0000
1000
1000
,
1000
0000
0001
0000
,
0001
0000
1000
0000
,
1000
0000
0010
0000
,
0000
0000
0100
0000
,
0000
0000
0001
0000
,
1000
0000
0001
0001
,
0000
0000
0010
0000
,
0100
0000
0001
0001
,
0001
0000
0010
0000
,
0100
0000
1000
1000
,
1000
0000
0001
0000
,
0100
0000
1000
0000
,
0010
0000
1001
0000
;
#NOTES:
     dance-single:
     :
     Easy:
     4:
     :
0000
0000
0000
0000
,
0000
0000
0000
0000
,
0000
0000
0000
0000
,
2000
3001
0100
0001
,
0100
1000
0100
0001
,
2000
3001
0100
0000
,
0010
0010
0100
0100
,
0002
1003
0100
1000
,
0100
0001
0100
1000
,
0020
0030
0100
0010
,
0200
0300
1000
0100
,
2000
3000
0001
1000
,
0002
0003
0010
0001
,
0020
0030
0100
0010
,
0200
0300
0001
0100
,
0002
0003
2000
3000
,
0020
0030
0010
1001
,
0010
0001
1000
0100
,
0001
0100
1000
0100
,
0020
0030
0200
0300
,
0010
0010
0001
1000
,
0001
0100
0000
0110
,
1000
0010
0000
0110
,
0001
0100
1000
0100
,
0001
0100
0000
0110
,
0010
0010
0100
0000
,
0020
1030
0200
0300
,
0001
0000
0100
0000
,
1000
0010
0001
0100
,
2000
3000
0100
0001
,
0002
0003
0100
1000
,
1000
0000
0100
0000
,
0001
0001
1000
0100
,
0002
0003
0000
0000
,
2000
3000
0000
0000
,
0100
0010
0100
0000
,
0220
0000
0330
0000
,
0010
1000
0001
0100
,
1000
0100
0001
0100
,
0020
0030
0200
0300
,
0010
0010
1000
0001
,
1000
0100
0000
0110
,
0001
0010
0000
0110
,
1000
0100
0001
0100
,
1000
0001
1000
1001
,
0010
0001
1000
0100
,
0002
1003
2000
3100
,
0020
0030
0200
0300
,
0010
0010
0001
1000
,
0001
0100
0000
0110
,
1000
0010
0000
0110
,
0001
0100
1000
0100
,
0001
1000
0010
0100
,
0220
0000
0000
0000
0000
0000
0000
0330
0000
0000
0000
0000
0000
0000
0000
0000
;
#NOTES:
     dance-single:
     :
     Medium:
     6:
     :
0000
0000
0000
0000
,
0000
0000
0000
0000
,
0000
0000
0000
0000
,
0002
0100
1003
0100
,
0001
0010
1000
0100
,
0002
0000
1003
0100
,
0010
0100
0100
0010
,
2000
0100
3001
0100
,
1000
0010
0001
0100
,
0001
1000
0001
0000
0002
0000
0103
0000
,
0010
0100
0010
0000
0020
0000
0130
0000
,
1000
0100
0001
0100
,
0010
0010
1001
0100
,
1000
0001
1000
0000
2000
0000
3100
0000
,
0010
0100
0010
0000
0020
0000
0130
0000
,
0001
0100
1000
0100
,
0010
0010
0001
0110
,
0010
0000
0001
0000
1000
0100
0010
0000
,
0100
0000
1000
0000
0001
0010
0100
0000
,
1000
0100
0010
0000
0001
0010
0100
0000
,
1000
0100
0001
0010
,
2000
0100
3001
1100
,
0002
0100
1003
0101
,
2000
3100
0002
0013
,
1000
0000
0001
0000
1000
0001
0100
0000
,
0020
2030
3001
0100
,
0001
0100
0001
0000
1000
0100
1000
0000
,
0020
0130
0200
0310
,
0002
0000
1003
0110
,
1000
0000
0100
0000
0001
0100
0100
0000
,
0001
0010
0100
0000
0010
0000
1000
0000
,
0001
0100
0001
0000
0200
0000
0310
0000
,
2000
0001
3010
0110
,
1000
0001
1000
0000
0000
0000
0100
0000
,
0001
0100
0010
0000
0000
0000
1000
0000
,
0001
0000
0100
0000
1000
0010
0100
0000
,
0001
1000
0220
0330
,
0010
0000
1000
0000
0001
0100
0010
0000
,
0100
0000
0001
0000
1000
0010
0100
0000
,
0001
0100
0010
0000
1000
0010
0100
0000
,
0001
0100
1000
0010
,
0002
0100
1003
0101
,
2000
0100
3001
1100
,
0002
0103
2000
3010
,
0001
0000
1000
0000
0001
1000
0010
0100
,
0010
0000
0002
0000
1003
0100
0010
0000
,
0200
0000
1300
0000
0001
0010
0100
0000
,
1000
0100
0010
0000
0001
0010
0100
0000
,
1000
0100
0001
0010
,
2000
0100
3001
1100
,
0002
0100
1003
0101
,
1000
0001
0100
0000
0001
1000
0010
0000
,
0010
0000
1000
0000
0010
0100
0010
0000
,
0020
0000
0000
0000
0000
0000
0000
0200
0000
0000
0000
0000
0000
0000
0000
0000
,
0000
0000
0000
0330
0000
0000
0000
0000
;
#NOTES:
     dance-single:
     :
     Hard:
     8:
     :
0000
0000
0000
0000
,
0000
0000
0000
0000
,
0000
0000
0000
0000
,
0001
1000
0000
0000
0010
0000
0000
1000
0000
0000
0100
0000
1000
0000
0000
0000
,
1000
0001
0100
0000
0001
1000
0100
0000
,
1000
0001
0000
0000
0010
0000
0000
0001
0000
0000
0100
0000
0001
0000
0000
0000
,
0001
1000
0100
0000
1000
0001
0100
0000
,
1000
0001
0000
0000
0010
0000
0000
0001
0000
0000
0100
0000
0001
0000
0000
0000
,
0001
1000
0100
0000
1000
0001
0100
0000
,
0020
0000
0000
1000
0000
0000
1000
0000
0000
0000
0000
0100
0000
0000
0100
0000
,
0000
0000
0000
1000
0000
0000
1000
0000
0000
0000
0000
0100
0000
0000
0100
0000
,
0000
0000
0000
0001
0000
0000
0001
0000
0000
0000
0000
0100
0000
0000
0100
0000
,
0000
0000
0000
0001
0000
0000
0001
0000
0000
0000
0000
0100
0030
0000
0100
0000
,
0010
0000
0000
0001
0000
0000
0100
0000
0001
0000
0000
1000
0000
0000
0100
0000
,
0011
0000
0000
1001
0000
0000
0101
0000
1100
0000
0000
1001
0000
0000
1100
0000
,
1010
0000
0000
1001
0000
0000
1100
0000
0101
0000
0000
1001
0000
0000
0101
0000
,
0001
0100
0010
1000
0100
0010
0001
0100
,
0001
1000
0000
0000
0010
0000
0001
0000
1000
0000
0001
0000
0100
0000
0000
0000
,
0001
1000
0000
0000
0010
0000
0001
0000
1000
0000
0001
0000
0100
0000
0000
0000
,
0001
1000
0000
0000
0010
0000
0001
0000
1000
0000
0001
0000
0100
0000
0000
0000
,
0001
1000
0000
0000
0010
0000
0001
0000
1000
0000
0001
0000
0100
0000
0000
0000
,
0001
0100
0000
0000
0010
0000
0100
0000
0001
0000
1000
0000
0010
0000
0000
0000
,
0001
0100
0000
0000
0010
0000
0100
0000
0001
0000
1000
0000
0010
0000
0000
0000
,
1000
0001
0000
0000
0010
0000
0100
0000
0001
0000
1000
0000
0100
0000
1000
0000
,
1000
0001
0000
0000
0010
0000
1000
0000
0001
0000
1000
0000
0100
0000
1000
0000
,
0001
0100
0020
0000
1030
0100
2000
0000
,
3001
0000
0100
0000
0002
0000
0000
0000
1003
0000
0100
0000
2000
0000
0000
3000
,
0010
0100
0020
0000
0130
0001
2000
0000
,
3010
0100
2000
0000
3001
0100
0101
0000
,
0001
0100
0020
0000
1030
0100
1000
0100
,
0001
0100
0002
0000
1003
0100
1000
0000
,
0001
0100
0020
0000
0031
0100
0020
0000
,
0031
0100
0020
0000
1030
1000
1000
0000
,
0001
0100
0001
0000
0001
0100
0001
0100
,
1000
0100
2000
0000
3001
0100
0001
0000
,
1000
0100
0020
0000
1030
0100
0020
0000
,
1030
0100
0020
0000
0031
0001
0001
0000
,
1000
0001
0000
0000
0010
0000
1000
0000
0001
0000
1000
0000
0100
0000
0000
0000
,
1000
0001
0000
0000
0010
0000
1000
0000
0001
0000
1000
0000
0100
0000
0000
0000
,
1000
0001
0000
0000
0010
0000
1000
0000
0001
0000
1000
0000
0100
0000
0000
0000
,
1000
0001
0000
0000
0010
0000
1000
0000
0001
0000
1000
0000
0100
0000
0000
0000
,
1000
0100
0000
0000
0010
0000
0100
0000
1000
0000
0001
0000
0010
0000
0000
0000
,
1000
0100
0000
0000
0010
0000
0100
0000
1000
0000
0001
0000
0010
0000
0000
0000
,
0001
1000
0000
0000
0010
0000
0100
0000
1000
0000
0001
0000
0100
0000
0001
0000
,
0001
1000
0000
0000
0010
0000
0001
0000
1000
0000
0001
0000
0100
0000
0001
0000
,
1000
0001
0000
0000
0100
0000
1000
0000
0001
0000
1000
0000
0010
0000
0000
0000
,
0001
1000
0000
0000
0010
0000
0001
0000
1000
0000
0001
0000
0100
0000
0000
0000
,
0001
1000
0000
0000
0010
0000
0001
0000
1000
0000
0001
0000
0100
0000
0000
0000
,
0001
1000
0000
0000
0010
0000
0001
0000
1000
0000
0001
0000
0100
0000
0000
0000
,
0001
0100
0000
0000
0010
0000
0100
0000
0001
0000
1000
0000
0010
0000
0000
0000
,
0001
0100
0000
0000
0010
0000
0100
0000
0001
0000
1000
0000
0010
0000
0000
0000
,
1000
0001
0000
0000
0010
0000
0100
0000
0001
0000
1000
0000
0100
0000
1000
0000
,
1000
0001
0000
0000
0010
0000
1000
0000
0001
0000
1000
0000
0100
0000
1000
0000
,
0002
1000
0000
0000
0010
0000
0000
2000
0000
0000
0000
0000
0000
0000
0000
0000
,
0000
0000
0000
3003
;
#NOTES:
     dance-double:
     :
     Easy:
     2:
     :
00000000
00000000
00000000
00000000
,
00000000
00000000
00000000
00000000
,
00000000
00000000
00000000
00000000
,
00010000
00010000
00010000
00000000
,
10000000
00000000
10000000
00000000
,
10000000
10000000
10000000
00000000
,
01000000
00000000
01000000
00000000
,
00010000
00010000
00010000
00000000
,
00001000
00000000
00001000
00000000
,
00022000
00000000
00000000
00033000
,
00001000
00000000
00000000
00000000
,
00000010
00000000
00000000
00000000
,
00000100
00000000
00000000
00000000
,
00000001
00000000
00000000
00000000
,
00001000
00000000
00000000
00000000
,
00000001
00000000
00000000
00000000
,
00000020
00000000
00000000
00000030
,
00000010
00000000
00000100
00000000
,
00001000
00000000
00010000
00000000
,
00001000
00000000
00010000
00000000
,
00100000
00000000
01000000
00000000
,
00100000
00100000
00000000
00000000
,
10000000
10000000
00000000
00000000
,
00010000
00010000
00000000
00000000
,
00100000
00100000
00100000
00100000
,
20020000
00000000
00000000
30030000
,
10000000
00000000
00000000
00000000
,
00010000
00000000
00000000
00000000
,
00001000
00000000
00000000
00000000
,
00001001
00000000
00000000
00000010
,
00000000
00000100
00000000
00001000
,
00000000
00000001
00000000
00000010
,
00000000
00000100
00000000
00000100
,
00000110
00000000
00000000
00001000
,
00000000
00010000
00000000
00100000
,
00000000
01000000
00000000
01000000
,
01000000
10000000
00010000
10000000
,
10010000
00000000
00010000
00000000
,
10000000
00000000
10000000
00000000
,
01000000
00000000
01000000
00000000
,
00010000
00000000
00010000
00000000
,
00001000
00001000
00001000
00000000
,
00000010
00000010
00000010
00000000
,
00000001
00000001
00000001
00000000
,
00001000
00001000
00001000
00000000
,
00000010
00000100
00000010
00000000
,
00000001
00001000
00000001
00000000
,
00000001
00000100
00001000
00000000
,
00010000
00100000
10000000
00000000
,
10000000
00000000
10000000
00000000
,
00010000
00000000
00010000
00000000
,
00100000
00000000
00100000
00000000
,
01000000
01000000
01000000
01000000
,
10010000
00000000
00000000
00000000
;
#NOTES:
     dance-double:
     :
     Medium:
     6:
     :
00000000
00000000
00000000
00000000
,
00000000
00000000
00000000
00000000
,
00000000
00000000
00000000
00000000
,
10000000
00010000
10000000
00000000
10000000
00000000
10000000
00000000
,
00010000
00000000
10000000
00000000
,
01000000
00100000
01000000
00000000
01000000
00000000
01000000
00000000
,
00010000
00000000
00001000
00000000
,
00000010
00000100
00000010
00000000
00000010
00000000
00000010
00000000
,
00000001
00000000
00000000
00000000
00001000
00000001
00001000
00000000
,
00002002
00000000
00000000
00003003
,
00000200
00000000
00000000
00000300
,
00002000
00000000
00000000
00000000
,
00020000
00000000
00000000
00033000
,
00200000
00000000
00000000
00300000
,
20000000
00000000
00000000
30000000
,
00020000
00000000
00000000
00000000
,
01000000
01000000
01000000
01030000
,
11000000
00010000
00100000
00100000
,
01010000
10000000
00100000
00100000
,
01010000
00001000
00000010
00000100
,
00001001
00000000
00000100
00000000
00000010
00000100
00000010
00000000
,
00000101
00000000
00001000
00000000
00000100
00000010
00000100
00000000
,
00000011
00000000
00000100
00000000
00001000
00010000
01000000
00000000
,
10010000
00000000
01000000
00000000
00100000
01000000
00100000
00000000
,
00010000
10000000
01000000
00000000
00100000
00000000
00010000
00000000
,
22000000
00000000
00000000
33000000
,
01000000
00000000
00000000
00000000
,
00010000
00000000
00000000
00000000
,
00001000
00000000
00000000
00000000
,
00000110
00001000
00000010
00000100
,
00001001
00000100
00000100
00000010
,
00001001
00001000
00000010
00000001
,
00000110
00000000
00000100
00000000
00001000
00000001
00001000
00000000
,
00000110
00001000
00010000
10000000
,
01100000
00000000
00010000
00000000
00100000
00010000
10000000
00000000
,
01100000
10000000
00010000
00100000
,
01000000
10000000
00010000
00000000
00010000
00000000
00010000
00000000
,
11000000
00010000
01000000
01000000
,
10100000
01000000
00010000
00010000
,
00011000
00000100
00000010
00000010
,
00001001
00000000
00000100
00000000
00000010
00000100
00000010
00000000
,
00000101
00000000
00001000
00000000
00000100
00000010
00000100
00000000
,
00000011
00000010
00001000
00010000
,
00110000
00000000
01000000
00000000
10000000
00100000
10000000
00000000
,
01010000
10000000
00100000
11000000
,
01000000
00100000
01000000
00000000
10000000
00000000
00010000
00000000
,
10000000
00100000
10000000
00000000
01000000
00000000
00010000
00000000
,
00000010
00001000
00000010
00000000
00000100
00000000
00000001
00000000
,
00000010
00000100
00000010
00000000
00000100
00000000
00001001
00000000
,
00000110
00000000
00001000
00000000
00000100
00000010
00000100
00000000
,
00000011
00000000
00000100
00000000
00001000
00010000
00001000
00000000
,
00011000
00000000
01000000
00000000
00100000
01000000
00100000
00000000
,
00010000
10000000
01000000
00000000
00100000
00010000
00100000
10000000
,
01000000
00000000
00000000
00000000
;
#NOTES:
     dance-double:
     :
     Hard:
     7:
     :
00000000
00000000
00000000
00000000
,
00000000
00000000
00000000
00000000
,
00000000
00000000
00000000
00000000
,
10000000
00010000
00000000
00000000
00100000
00000000
00000000
10000000
00000000
00000000
01000000
00000000
10000000
00000000
00000000
00000000
,
00100000
00010000
00001000
00000010
,
00000001
00001000
00000000
00000000
00000010
00000000
00000000
00000100
00000000
00000000
00000001
00000000
00000010
00000000
00000000
00000000
,
00001000
00010000
00100000
10000000
,
00010000
01000000
00000000
00000000
00100000
00000000
00000000
10000000
00000000
00000000
00010000
00000000
00100000
00000000
00000000
00000000
,
01000000
10000000
00100000
01000000
,
00010000
00000000
00000000
10000000
00000000
00000000
10000000
00000000
10000000
00000000
00000000
01000000
00000000
00000000
01000000
00000000
,
01000000
00000000
00000000
00010000
00000000
00000000
00010000
00000000
00010000
00000000
00000000
00001000
00000000
00000000
00001000
00000000
,
00001000
00000000
00000000
00000010
00000000
00000000
00000010
00000000
00000010
00000000
00000000
00000001
00000000
00000000
00000001
00000000
,
00000001
00000000
00000000
00001000
00000000
00000000
00001000
00000000
00001000
00000000
00000000
00000010
00000000
00000000
00000010
00000000
,
00000100
00000000
00000000
00000001
00000000
00000000
00001000
00000000
00010000
00000000
00000000
00100000
00000000
00000000
01000000
00000000
,
10000000
00000000
00000000
00010000
00000000
00000000
01000000
00000000
00010000
00000000
00000000
10000000
00000000
00000000
01000000
00000000
,
00100000
00000000
00000000
00010000
00000000
00000000
10000000
00000000
00100000
00000000
00000000
01000000
00000000
00000000
00010000
00000000
,
00010000
01000000
00100000
10000000
01000000
00100000
00010000
00000000
,
00001000
00000010
00000000
00000000
00000100
00000000
00000000
00000000
00000001
00000000
00000000
00000000
00001000
00000000
00000000
00000000
,
00000010
00000100
00000000
00000000
00000001
00000000
00000000
00000000
00001000
00000000
00000000
00000000
00000010
00000000
00000000
00000000
,
00001000
00010000
00000000
00000000
00100000
00000000
00000000
00000000
01000000
00000000
00000000
00000000
10000000
00000000
00000000
00000000
,
00010000
10000000
00000000
00000000
00100000
00000000
00000000
00000000
01000000
00000000
00000000
00000000
01000000
00000000
00000000
00000000
,
10010000
00000000
00000000
00000000
00100000
00000000
00000000
01000000
00000000
00000000
00010000
00000000
10000000
00000000
00000000
00000000
,
00110000
00000000
00000000
00000000
00001000
00000000
00000000
00010000
00000000
00000000
00000100
00000000
00001000
00000000
00000000
00000000
,
00000011
00000000
00000000
00000000
00000100
00000000
00000000
00001000
00000000
00000000
00000001
00000000
00001100
00000000
00000000
00000000
,
00000010
00000001
00001000
00000010
00000100
00000001
00000010
00000100
,
00002200
00000000
00000000
00003000
,
00010000
00010000
00010000
00010300
,
00021000
00001000
00001000
00001000
,
00100000
00100000
00100000
00130000
,
01010000
00000000
00100000
00000000
10000000
00010000
10000000
00000000
,
01100000
00000000
00010000
00000000
00100000
01000000
00100000
00000000
,
11000000
00000000
00010000
00000000
10000000
00100000
10000000
00000000
,
00100000
00010000
00001000
00000000
00001000
00000100
00000001
00000000
,
00001010
00000000
00000100
00000000
00000001
00001000
00000001
00000000
,
00000110
00000000
00001000
00000000
00000010
00000100
00000010
00000000
,
00000101
00000000
00001000
00000000
00000001
00000010
00000001
00000000
,
00000010
00001000
00010000
00000000
00010000
01000000
10000000
00010000
,
10000000
00010000
00000000
00000000
00100000
00000000
00000000
00000000
01000000
00000000
00100000
00000000
00010000
00000000
00000000
00000000
,
10000000
00100000
00000000
00000000
01000000
00000000
00000000
00000000
00010000
00000000
10000000
00000000
01000000
00000000
00000000
00000000
,
00010000
00001000
00000000
00000000
00000100
00000000
00000000
00000000
00000001
00000000
00001000
00000000
00000001
00000000
00000000
00000000
,
00001000
00000001
00000000
00000000
00000100
00000000
00000000
00000000
00000010
00000000
00000100
00000000
00000010
00000000
00000000
00000000
,
00001001
00000000
00000100
00000010
00000100
00000000
00000001
00000000
,
00001100
00000000
00010000
00001000
00010000
00000000
00010000
00000000
,
00101000
00000000
00010000
01000000
10000000
00000000
00110000
00000000
,
01000000
10000000
00010000
01000000
00100000
10000000
01000000
00100000
,
00010000
10000000
00000000
00000000
01000000
00000000
00100000
00000000
01000000
00000000
00000000
00000000
10000000
00000000
00000000
00000000
,
01000000
00010000
00000000
00000000
00001000
00000000
00010000
00000000
00001000
00000000
00000000
00000000
00000010
00000000
00000000
00000000
,
00000001
00001000
00000000
00000000
00000010
00000000
00000100
00000000
00000010
00000000
00000000
00000000
00000010
00000000
00000000
00000000
,
00001000
00000001
00000000
00000000
00000010
00000000
00000100
00000000
00000010
00000000
00000000
00000000
00000001
00000000
00000000
00000000
,
00001000
00000001
00000000
00000000
00001000
00000000
00000001
00000000
00000100
00000000
00001000
00000000
00010000
00000000
00000000
00000000
,
00001000
00010000
00000000
00000000
00001000
00000000
00010000
00000000
01000000
00000000
10000000
00000000
00010000
00000000
00000000
00000000
,
00010000
10000000
00010000
00000000
00100000
01000000
00100000
00000000
,
00010000
10000000
00100000
00010000
00001000
00010000
00001000
00000010
,
00000200
00000000
00000000
00000300
;
