#TITLE:WE ARE THE CHAMPIONS (Factory Team Remix);
#SUBTITLE:;
#ARTIST:LIVE 2 LOVE;
#TITLETRANSLIT:;
#SUBTITLETRANSLIT:;
#ARTISTTRANSLIT:;
#CREDIT:;
#BANNER:WE ARE THE CHAMPIONS (Factory Team Remix).png;
#BACKGROUND:WE ARE THE CHAMPIONS (Factory Team Remix)-bg.png;
#LYRICSPATH:;
#CDTITLE:./CDTITLES/Dancemania SPORTS.PNG;
#MUSIC:WE ARE THE CHAMPIONS (Factory Team Remix).ogg;
#OFFSET:0.000;
#SAMPLESTART:45.883;
#SAMPLELENGTH:15.000;
#SELECTABLE:YES;
#DISPLAYBPM:136.000;
#BPMS:0.000=136.002;
#STOPS:;
#BGCHANGES:;

//---------------dance-single - ----------------
#NOTES:
     dance-single:
     :
     Beginner:
     1:
     0.150,0.234,0.142,0.000,0.000:
0000
0000
0000
0000
,
0000
0000
0000
0000
,
0000
0000
0000
0000
,
0000
0000
0000
0000
,
0000
0000
0000
0000
,
1000
0000
1000
0000
,
0001
0000
0001
0000
,
0100
0000
0100
0000
,
1001
0000
0000
0000
,
1000
0000
0001
0001
,
0000
0000
0100
0100
,
0000
0000
1000
0000
,
0010
0000
0010
0010
,
0000
0000
1000
1000
,
0000
0000
0010
0000
,
0001
0000
0001
0000
,
0010
0000
0100
0000
,
0001
0000
0100
0000
,
1000
0000
0100
0000
,
0001
0000
0010
0000
,
1000
0000
0010
0000
,
1001
0000
0010
0000
,
1001
0000
0100
0000
,
1001
0000
0000
0000
,
1001
0000
0110
0000
,
0110
0000
1001
0000
,
0001
0000
0001
0000
,
1000
0000
1000
0000
,
0001
0000
0001
0000
,
1001
0000
1001
0000
,
1000
0000
1000
0000
,
0001
0000
0001
0000
,
1000
0000
1000
0000
,
1001
0000
1001
0000
,
1000
0000
0001
0000
,
1000
0000
0001
0000
,
0001
0000
1000
0000
,
0001
0000
1000
0000
,
0001
0000
1000
0000
,
0001
0001
0000
0000
,
1000
0000
0001
0000
,
1000
1000
0000
0000
,
0010
0000
0100
0000
,
0010
0000
0100
0000
,
0010
0000
0000
0000
,
0000
0000
0000
0000
;

//---------------dance-single - ----------------
#NOTES:
     dance-single:
     :
     Easy:
     3:
     0.211,0.245,0.142,0.035,0.000:
0000
0000
0000
0000
,
0000
0000
0000
0000
,
0000
0000
0000
0000
,
0000
0000
0000
0000
,
0000
0000
0000
0000
,
1000
0000
1000
0000
,
0001
0000
0001
0000
,
0100
0000
0100
0000
,
1001
0000
0000
0000
,
1000
0000
0001
0001
,
0100
0000
0100
0100
,
1000
0000
1000
0001
,
0010
0000
0010
0010
,
0001
0000
1000
1000
,
0100
0000
0010
0100
,
0001
0000
0001
1000
,
0010
0000
0100
0010
,
0001
0100
0100
0000
,
1000
0100
0100
0000
,
0001
0010
0010
0000
,
1000
0010
0010
0000
,
1001
0000
0010
0000
,
1001
0000
0100
0000
,
2002
0000
3003
0000
,
1001
0000
0110
0000
,
0110
0000
1001
0000
,
0001
0010
0001
0000
,
1000
0010
1000
0000
,
0001
0010
0001
0000
,
1001
0000
1001
0000
,
1000
0100
1000
0000
,
0001
0100
0001
0000
,
1000
0100
1000
0000
,
1001
0000
1001
0000
,
1000
0010
0001
0010
,
1000
0100
0001
0100
,
0001
0010
1000
0010
,
0001
0100
1000
0100
,
0001
1000
1000
0100
,
0001
0001
0100
0000
,
1000
0001
0001
0100
,
1000
1000
0100
0000
,
0010
0000
0100
0000
,
0010
0100
0100
0000
,
0020
0000
0000
0000
,
0000
0000
0000
0000
,
0030
0000
0000
0000
,
0000
0000
0000
0000
;

//---------------dance-single - ----------------
#NOTES:
     dance-single:
     :
     Medium:
     5:
     0.351,0.381,0.260,0.189,0.000:
0000
0000
0000
0000
,
0000
0000
0000
0000
,
0000
0000
0000
0000
,
0000
0000
0000
0000
,
0000
0000
0000
0000
,
1000
1000
0001
0001
,
0010
1000
0001
0000
0010
0001
1000
0000
,
0010
0010
0100
0100
,
1000
0100
0010
0001
0100
0000
1001
0000
,
1000
0010
1000
0100
,
0001
0000
0010
0000
0001
0100
0100
0000
,
1000
0100
0001
0010
,
1000
0000
0001
0000
1001
0000
0100
0100
,
0001
0010
0001
0100
,
1000
0000
0010
0000
1000
0100
0100
0000
,
0001
0100
1000
0010
,
0001
0000
1000
0000
1001
0000
0010
0010
,
1000
1001
0010
0011
,
1000
0100
1000
0000
0001
0100
0001
0000
,
0001
1001
0010
1010
,
0001
0100
0001
0000
1000
0100
1000
0000
,
2000
3100
0200
0310
,
0020
0031
0002
0013
,
0020
0200
0000
0330
,
2000
0010
3002
0100
,
2003
0010
0002
3003
,
1000
0010
0001
0010
,
0101
0000
0000
1010
0000
0000
0000
1000
,
0010
0100
0010
0100
,
0110
0001
0110
1000
,
0001
0010
1000
0010
,
0100
0010
0010
0000
1000
0001
0001
0000
,
0010
0101
0010
1100
,
0001
0100
1000
0000
1000
0100
0001
0000
,
0100
0010
0001
0101
,
2000
0000
0000
0002
0000
0000
3003
0000
,
0100
0010
1000
1100
,
0002
0000
0000
2000
0000
0000
3003
0000
,
0010
0110
0100
0110
,
0001
0000
1000
0100
0010
0001
0100
0000
,
0101
1000
1100
0001
,
0110
0000
0000
1001
0000
0000
0100
0000
,
1000
0010
0001
0000
0001
0010
1000
0000
,
1000
0100
0010
0100
1000
0000
0001
0000
,
2002
0000
0000
0000
,
0000
0000
0000
0000
,
3003
0000
0000
0000
,
0000
0000
0000
0000
;

//---------------dance-single - ----------------
#NOTES:
     dance-single:
     :
     Hard:
     7:
     0.400,0.408,0.083,0.059,0.077:
0000
0000
0000
0000
,
0000
0000
0000
0000
,
0000
0000
0000
0000
,
0000
0000
0000
0000
,
0000
0000
0000
0000
,
1000
0000
0001
1000
0000
0100
0010
0001
,
0000
1000
0001
0000
0010
0001
0100
0000
,
0001
0000
1000
0001
0000
0010
0100
1000
,
0000
0001
1000
0000
0100
1000
0010
0000
,
1000
0001
0100
0000
0001
1000
0100
0000
,
1000
0010
0100
0000
1000
0100
0010
0000
,
0001
1000
0010
0000
1000
0001
0010
0000
,
0001
0100
0010
0000
1000
0010
0100
0000
,
0001
0100
0010
0000
1000
0000
1001
0000
,
1000
0100
0010
0000
0001
0000
1001
0000
,
1000
0001
1000
0000
0001
1000
0001
0000
,
0010
0000
0000
0010
0000
0000
0010
0000
0100
0000
0000
0100
0000
0000
0100
0000
,
1000
0100
1000
0001
0000
0001
1000
0010
,
0000
0100
0001
1000
0100
0000
0101
0000
,
0001
0100
0001
1000
0000
1000
0001
0010
,
0000
0100
1000
0001
0010
0000
0110
0000
,
1000
0000
0000
0010
0000
0000
1000
0000
0001
0000
0000
0010
0000
0000
0001
0000
,
0100
0000
0000
0001
0000
0000
0100
0000
0010
0000
0000
0100
0000
0000
0001
0000
,
1000
0000
0000
0010
0000
0000
1000
0000
0001
0000
0000
0100
0000
0000
0001
0000
,
2000
0010
3001
0000
0002
0010
1003
0000
,
2000
0100
3001
0000
1001
0000
0000
0000
,
0001
0010
0100
0010
0000
0100
0100
0000
,
1000
0010
0100
0010
0000
0100
0100
0000
,
1000
0001
1000
0100
0010
0001
0010
0000
,
0001
0000
0000
0001
0000
0000
0001
0000
1000
0000
0000
1000
0000
0000
1000
0000
,
0001
0100
0010
0100
0000
0010
0010
0000
,
1000
0100
0010
0100
0000
0010
0010
0000
,
0001
1000
0100
0010
0001
1000
0010
0000
,
1000
0000
0000
1000
0000
0000
1000
0000
0001
0000
0000
0001
0000
0000
0001
0000
,
0010
0000
0010
0001
0000
0001
0010
0000
,
0011
0000
0100
1000
0000
0000
0100
0000
,
1000
0000
1000
0100
0000
0100
1000
0000
,
1010
0000
1000
0001
0000
0000
0001
0000
,
0100
0010
1000
0010
0000
1000
0100
0000
,
0010
0001
1000
0100
0000
0001
0010
0000
,
0100
1000
0001
0010
0000
0001
0100
0000
,
0001
0100
0010
1000
0000
0001
0100
0000
,
0010
1000
0010
0000
0100
0010
0100
0000
,
0001
0000
0100
0000
0010
0000
1000
0000
0000
0000
0010
0000
0000
0200
0000
0000
,
2000
0000
0000
0000
,
0000
0000
0000
0000
,
3300
0000
0000
0000
,
0000
0000
0000
0000
;

//---------------dance-double - ----------------
#NOTES:
     dance-double:
     :
     Easy:
     3:
     0.198,0.245,0.177,0.047,0.000:
00000000
00000000
00000000
00000000
,
00000000
00000000
00000000
00000000
,
00000000
00000000
00000000
00000000
,
00000000
00000000
00000000
00000000
,
00000000
00000000
00000000
00000000
,
00010000
00000000
00010000
00000000
,
00001000
00000000
00001000
00000000
,
00010000
00000000
00001000
00000000
,
00100000
00000000
01000000
00000000
,
10000000
00000000
00010000
00000000
,
01000000
01000000
00100000
00000000
,
10000000
00000000
01000000
00000000
,
00010000
00000000
00011000
00000000
,
00000100
00000000
00001000
00000000
,
00000100
00000100
00000010
00000000
,
00000001
00000000
00000100
00000000
,
00001000
00000000
00011000
00000000
,
00100000
00010000
00010000
00000000
,
10000000
10000000
01000000
00000000
,
10000000
00010000
00010000
00000000
,
01000000
01000000
00010000
00000000
,
00011000
00000000
00001000
00000000
,
00001010
00000000
00001000
00000000
,
00022000
00000000
00033000
00000000
,
00001000
00000000
01000000
00000000
,
00010000
00000000
10010000
00000000
,
00100000
10000000
00100000
00000000
,
01000000
00010000
01000000
00000000
,
00001000
00000000
00011000
00000000
,
00010000
00000000
00000100
00000000
,
00000010
00000001
00000010
00000000
,
00000100
00001000
00000100
00000000
,
00010000
00000000
00011000
00000000
,
00001000
00000000
00100000
00000000
,
00010000
01000000
10000000
01000000
,
10010000
00000000
10010000
00000000
,
00100000
00001000
00010000
00001000
,
00011000
00000000
00011000
00000000
,
00000010
00001000
00000001
00000001
,
00000100
00000010
00001000
00001000
,
00000100
00000000
00010000
00001000
,
00011000
00000000
00011000
00000000
,
00001000
00000000
00100000
00000000
,
00010000
00010000
10000000
00000000
,
20020000
00000000
00000000
00000000
,
00000000
00000000
00000000
00000000
,
30030000
00000000
00000000
00000000
,
00000000
00000000
00000000
00000000
;

//---------------dance-double - ----------------
#NOTES:
     dance-double:
     :
     Medium:
     5:
     0.302,0.326,0.248,0.095,0.000:
00000000
00000000
00000000
00000000
,
00000000
00000000
00000000
00000000
,
00000000
00000000
00000000
00000000
,
00000000
00000000
00000000
00000000
,
00000000
00000000
00000000
00000000
,
10000000
10000000
00010000
00010000
,
00100000
00000000
00010000
00000000
10000000
01000000
00010000
00000000
,
00001000
00001000
00000010
00000010
,
00000001
00001000
00001001
00000000
,
00000100
00000001
00000010
00000001
,
00000001
00000100
00001000
00010000
,
01000000
10000000
00100000
10000000
,
10000000
01000000
00010000
00001000
,
00000100
00000010
00001000
00001100
,
00000001
00000100
00000010
00001010
,
00010000
00001000
00100000
01100000
,
00100000
00010000
01000000
00000000
00100000
10000000
01000000
00000000
,
00100000
00001000
00010000
00011000
,
00000010
00000000
00000100
00000000
00000001
00000001
00000100
00000000
,
00000010
00010000
00001000
00011000
,
00100000
00000000
01000000
00000000
10000000
10000000
01000000
00000000
,
10010000
00000000
01100000
00000000
,
00011000
00000000
00000110
00000000
,
00000002
00002000
00000000
00003003
,
00000020
00000000
00020030
00000000
,
00032000
00000000
02003000
03000000
,
00010000
00100000
00010000
10000000
,
10010000
00000000
00000000
01100000
00000000
00000000
00000000
00000000
,
00100000
01000000
00100000
01100000
,
10000000
00010000
01000000
00000000
00010000
10000000
00100000
00000000
,
01000000
00010000
00001000
00000010
,
00000100
00000001
00001000
00001001
,
00000100
00000010
00000001
00000101
,
00001000
00000010
00000100
00000000
00000001
00000010
00000100
00000000
,
00001000
00010000
00100000
01000000
,
00110000
00000000
00000000
00011000
00000000
00000000
00000000
00000000
,
00001000
00000010
00000001
00001000
,
00001100
00000000
00000000
00011000
00000000
00000000
00000000
00000000
,
00010000
00100000
10000000
01000000
,
00010000
00001000
00000010
00000001
,
00001000
00010000
10000000
00010000
,
00001000
00000001
00001000
00010000
,
00100000
00010000
01000000
00000000
00010000
10000000
01000000
00000000
,
00010000
00001000
00011000
00000000
,
00022000
00000000
00000000
00000000
,
00000000
00000000
00000000
00000000
,
00033000
00000000
00000000
00000000
,
00000000
00000000
00000000
00000000
;

//---------------dance-double - ----------------
#NOTES:
     dance-double:
     :
     Hard:
     7:
     0.402,0.435,0.083,0.071,0.065:
00000000
00000000
00000000
00000000
,
00000000
00000000
00000000
00000000
,
00000000
00000000
00000000
00000000
,
00000000
00000000
00000000
00000000
,
00000000
00000000
00000000
00000000
,
00001000
00000000
00100000
00010000
00000000
01000000
00100000
10000000
,
00000000
01000000
00100000
00000000
00010000
00000000
00011000
00000000
,
00010000
00000000
00000010
00001000
00000000
00000100
00000010
00000001
,
00000000
00000100
00000010
00000000
00010000
00000000
00100000
00000000
,
10000000
00010000
01000000
00000000
00100000
10000000
01000000
00000000
,
00100000
00001000
00010000
00000000
00000100
00000000
00001100
00000000
,
00000001
00001000
00000010
00000000
00000100
00000001
00000010
00000000
,
00000100
00010000
00001000
00000000
00100000
00000000
00110000
00000000
,
01000000
00100000
00010000
00000000
10000000
01000000
00010000
00000000
,
00001000
00010000
00000100
00000000
00000010
00000001
00001000
00000000
,
00000010
00000100
00000001
00000000
00001000
00000010
00010000
00000000
,
00001000
00100000
00001000
00010000
00000010
00001000
00000100
00000000
,
00010000
00001000
01000000
00010000
00000000
10000000
01000000
00100000
,
00000000
00010000
00100000
00001000
01000000
00000000
01010000
00000000
,
00001000
00010000
00000100
00001000
00000000
00000001
00000100
00000010
,
00000000
00001000
00000010
00010000
00000100
00000000
00001100
00000000
,
00000010
00000000
00000000
00000001
00000000
00000000
00000100
00000000
00001000
00000000
00000000
00010000
00000000
00000000
00100000
00000000
,
10000000
00000000
00000000
00010000
00000000
00000000
01000000
00000000
00100000
00000000
00000000
10000000
00000000
00000000
00010000
00000000
,
10000000
00000000
00000000
00100000
00000000
00000000
10000000
00000000
01000000
00000000
00000000
00100000
00000000
00000000
00001000
00000000
,
00020000
00000000
00030000
00000100
00000200
00000000
00000300
00010000
,
00020000
00000000
00000000
00001000
00002000
00000000
00033000
00000000
,
00000010
00000100
00000010
00000100
00000000
00000001
00000100
00000000
,
00000010
00001000
00000010
00001000
00000000
00010000
00001000
00000000
,
01000000
00100000
01000000
00100000
00000000
00010000
00100000
00000000
,
00001000
00000000
00000000
00001000
00000000
00000000
00001000
00000000
01000000
00000000
00000000
01000000
00000000
00000000
01000000
00000000
,
00100000
01000000
00100000
01000000
00000000
10000000
01000000
00000000
,
00100000
00010000
00100000
00010000
00000000
00001000
00010000
00000000
,
00000100
00000010
00000100
00000010
00000000
00001000
00000010
00000000
,
00010000
00000000
00000000
00010000
00000000
00000000
00010000
00000000
00000100
00000000
00000000
00000100
00000000
00000000
00000100
00000000
,
00010000
00000000
00001000
00100000
00000000
00001000
00010000
00000000
,
00110000
00000000
10000000
00010000
00000000
00000000
00100000
00000000
,
00001000
00000000
00010000
00000010
00000000
00010000
00001000
00000000
,
00001010
00000000
00000001
00001000
00000000
00000000
00000100
00000000
,
00010000
00001000
00010000
00000100
00000010
00000001
00000100
00000001
,
00000100
00000010
00010000
00001000
01000000
00100000
10000000
00000000
,
01000000
00100000
01000000
00010000
00001000
00010000
00000010
00000100
,
00000001
00000100
00000010
00001000
00000100
00010000
00001000
00000000
,
00100000
00001000
00010000
00000000
00000010
00010000
00001000
00000000
,
01000000
00000000
00001000
00000000
00010000
00000000
00000100
00000000
00000000
00000000
00000010
00000000
00000000
00000002
00000000
00000000
,
00002000
00000000
00000000
00000000
,
00000000
00000000
00000000
00000000
,
00003003
00000000
00000000
00000000
,
00000000
00000000
00000000
00000000
;
