#TITLE:HOT LIMIT;
#SUBTITLE:;
#ARTIST:JOHN DESIRE;
#TITLETRANSLIT:;
#SUBTITLETRANSLIT:;
#ARTISTTRANSLIT:;
#CREDIT:;
#BANNER:HOT LIMIT.png;
#BACKGROUND:HOT LIMIT-bg.png;
#LYRICSPATH:;
#CDTITLE:./CDTITLES/DANCEMANIA J-PARADISE.PNG;
#MUSIC:HOT LIMIT.ogg;
#OFFSET:0.000;
#SAMPLESTART:61.530;
#SAMPLELENGTH:15.000;
#SELECTABLE:YES;
#DISPLAYBPM:156.000;
#BPMS:0.000=155.680,4.000=156.002;
#STOPS:;
#BGCHANGES:;

//---------------dance-single - ----------------
#NOTES:
     dance-single:
     :
     Easy:
     3:
     0.195,0.224,0.090,0.000,0.000:
0000
0000
0000
0000
,
0000
0000
0000
0000
,
0000
0000
0000
0000
,
0000
0000
0000
0000
,
1000
0001
0100
0000
,
0010
0000
1000
0000
,
0001
0000
0100
0000
,
0010
1000
0100
0000
,
0010
0000
0001
0000
,
1000
0000
0100
0000
,
0010
0001
1000
0000
,
0100
0000
0010
0000
,
0001
0000
1000
0000
,
0110
0000
1001
0000
,
0010
0100
0001
0000
,
1000
0000
0100
0000
,
0001
0000
0100
0000
,
0010
0000
1000
0000
,
0001
0000
0010
0000
,
0100
0000
1000
0000
,
0001
0000
0100
0000
,
0010
0000
1000
0000
,
0100
0000
0001
0000
,
1000
0000
1000
0000
,
0100
0000
0100
0000
,
0010
0000
0010
0000
,
1001
0000
1001
0000
,
0010
0000
0010
0000
,
0100
0000
0100
0000
,
1000
0000
1000
0000
,
0001
0000
0001
0000
,
1000
0000
0100
0000
,
0001
0000
0100
0000
,
1000
0000
0100
0000
,
0010
0010
0010
0000
,
1000
0000
0100
0000
,
0001
0000
0100
0000
,
1000
0000
0100
0000
,
0010
0000
0001
0000
,
0100
0100
0100
0000
,
0010
0000
1000
0000
,
0001
0100
0010
0000
,
1000
0000
0100
0000
,
0010
0001
0100
0000
,
0010
0000
1000
0000
,
0001
0100
0010
0000
,
1000
0000
0001
0000
,
1001
0010
0100
0000
,
0001
0000
1000
0000
,
0100
0010
0001
0000
,
0100
0000
0010
0000
,
1000
0100
0010
0000
,
0001
0000
0100
0000
,
0010
1000
0001
0000
,
0010
0000
0100
0000
,
1001
0100
0010
0000
,
1000
0000
0001
0000
,
0010
0000
0100
0000
,
1000
0000
0010
0000
,
0100
0000
0001
0000
,
0010
0000
1000
0000
,
0100
0000
0001
0000
,
1000
0000
0001
0000
,
0010
0000
0100
0000
,
1000
0000
1000
0000
,
0010
0000
0010
0000
,
0100
0000
0100
0000
,
1001
0000
1001
0000
,
0100
0000
0100
0000
,
0010
0000
0010
0000
,
0001
0000
0001
0000
,
1000
0000
1000
0000
,
0110
0000
0000
0000
,
1001
0000
0000
0000
,
1001
0000
0000
0000
,
0100
0010
0100
0000
,
1001
0000
0000
0000
,
0110
0000
0000
0000
,
1000
0000
0001
0000
,
1000
0000
0010
0000
,
0100
0001
1000
0000
,
0010
0000
0100
0000
,
0001
0010
0100
0000
,
1000
0000
0010
0000
,
0100
0001
1000
0000
,
0100
0000
0010
0000
,
0001
0100
0010
0000
,
1000
0000
0001
0000
,
0110
1000
0001
0000
,
0100
0000
0010
0000
,
1000
0100
0010
0000
,
0001
0000
1000
0000
,
0100
0010
0001
0000
,
0100
0000
0010
0000
,
1000
0100
0010
0000
,
0001
0000
1000
0000
,
0110
1000
0001
0000
,
0100
0000
0000
0000
,
0000
0000
0000
0000
,
0100
0000
0000
0000
,
0000
0000
0000
0000
,
0100
0000
0000
0000
,
0000
0000
0000
0000
,
1001
0000
0000
0000
,
0000
0000
0000
0000
,
0100
0000
0010
0000
,
0001
0000
0100
0000
,
0010
0000
1000
0000
,
0100
0000
0001
0000
,
0010
0000
1000
0000
,
0100
0000
0010
0000
,
0001
0000
0100
0000
,
0010
0000
1000
0000
,
0001
0000
0001
0000
,
0100
0000
0000
0000
,
0010
0000
0010
0000
,
1000
0100
0010
0000
,
0001
0000
0000
0000
,
1000
0000
0000
0000
,
0100
0000
0010
0000
,
0001
1000
1001
0000
,
0000
0000
0000
0000
;

//---------------dance-single - ----------------
#NOTES:
     dance-single:
     :
     Medium:
     6:
     0.451,0.449,0.324,0.000,0.000:
0000
0000
0000
0000
,
0000
0000
0000
0000
,
0000
0000
0000
0000
,
0000
0000
0000
0000
,
0100
0000
0010
0000
1000
0001
0100
0000
,
0010
1000
0001
0010
,
1000
0100
0001
0100
,
0010
0000
1000
0000
0100
0010
0001
0000
,
1000
0100
0001
0100
,
1000
0010
0001
0010
,
0100
0000
1000
0000
0010
0100
0001
0000
,
1000
0100
0010
0001
,
0100
0000
0010
0000
1000
0001
0010
0000
,
0100
1000
0001
0000
0100
0010
1000
0000
,
0101
1001
1100
0000
,
0010
0001
0100
0000
0010
0000
1000
0000
,
0001
0010
0100
0000
1000
0000
0001
0000
,
0100
0010
1000
0000
0001
0000
0010
0000
,
0100
1000
0010
0000
0100
0001
0010
0000
,
0100
1000
0001
0000
0100
0000
0100
0000
,
0010
1000
0001
0000
0010
0000
0010
0000
,
0100
1000
0010
0000
0100
0000
0100
0000
,
0001
0010
0100
0000
1001
0000
1001
0000
,
0010
0000
0100
0001
0100
0000
1100
0000
,
0001
0000
0100
0010
0100
0000
1001
0000
,
0100
0000
0010
0001
0010
0000
1100
0000
,
1001
0101
1001
0000
,
0100
0000
0010
0001
0100
0000
1100
0000
,
0001
0000
0100
0010
1000
0000
0101
0000
,
0010
0000
1000
0100
0010
0000
1001
0000
,
0100
0010
1000
0000
0101
0000
0000
0000
,
0010
1000
0010
0001
,
0010
1000
0100
0000
,
0010
0000
0001
1000
0010
0000
0100
0000
,
1001
1100
1001
0000
,
0100
0001
0100
1000
,
0100
0001
0010
0000
,
0100
0000
0000
1000
0010
0000
0000
0000
,
0100
0000
0001
1000
0100
0000
0000
0000
,
0010
0000
0001
0100
0010
0000
0000
0000
,
1000
0000
0100
0000
0010
0001
0100
0000
,
0010
0000
1000
0100
0010
0001
0100
0000
,
0010
0000
1000
0100
1000
0000
0001
0100
,
0001
1000
0110
0000
,
1000
0000
0001
0000
0010
0100
1000
0000
,
0001
0000
0100
0010
1000
0100
0010
0000
,
0001
0100
0001
0000
1000
0100
1000
0000
,
1001
0101
1100
0000
,
0001
0000
0010
0000
0100
1000
0001
0000
,
0100
0000
0010
1000
0100
0010
0001
0000
,
0100
0000
0010
1000
0010
0000
0100
0001
,
0100
0010
1001
0000
,
0010
0000
0100
0000
1000
0001
0100
0000
,
0010
0000
1000
0100
0010
0001
1000
0000
,
0010
0100
0010
0000
1000
0001
1000
0000
,
0110
1010
0101
0000
,
1000
0100
1000
0100
,
1000
0000
0100
0000
1000
0100
0010
0000
,
0001
0010
0001
0010
,
0001
0010
0100
0000
1000
0000
0010
0000
,
0100
0001
0100
0001
,
0100
0000
0001
0000
0100
0001
0010
0000
,
0100
0010
0100
0010
,
0100
0010
0001
0000
1000
0000
0010
0000
,
0100
0000
0001
0010
0100
0000
1001
0000
,
0100
0000
0010
1000
0100
0000
1001
0000
,
0100
0000
0010
1000
0100
0000
1001
0000
,
0110
1001
0110
0000
,
1000
0000
0001
0010
0100
0000
1001
0000
,
0100
0000
0010
1000
0100
0000
0101
0000
,
0010
0000
1000
0100
0010
0000
1001
0000
,
0100
0010
0001
0000
1100
0000
0000
0000
,
1010
0000
0001
0000
,
0011
0000
1000
0000
,
0110
0000
1000
0000
,
0101
0011
1100
0000
,
1001
0100
0100
0100
,
1001
0100
0100
0100
,
0011
1000
1000
1000
,
0100
0000
0010
0001
0100
0000
0000
0000
,
1100
1010
0101
0000
,
0010
0000
1000
0000
0100
0010
0001
0000
,
1000
0000
0010
0100
0001
0010
0100
0000
,
1000
0000
0010
0100
0001
0000
0010
0100
,
1000
0001
1001
0000
,
0010
0000
0100
0000
0001
0010
0100
0000
,
1000
0000
0010
0100
0001
1000
0100
0000
,
0010
0001
0100
0000
0010
1000
0100
0000
,
1001
0101
1010
0000
,
0100
0000
0010
0000
0001
0100
0010
0000
,
1000
0000
0100
0010
0001
0100
0010
0000
,
1000
0000
0001
0010
0100
0000
1000
0010
,
0100
0001
1100
0000
,
0001
0000
0100
0000
0010
1000
0001
0000
,
0010
0000
0100
1000
0001
0100
0010
0000
,
1000
0001
0100
0000
0010
1000
0100
0000
,
0011
0101
1001
0000
,
0100
0010
0001
1000
,
0010
0000
0100
0000
0001
0000
1000
0100
,
0010
0001
0100
0010
,
1000
0000
0001
0000
0100
0000
0010
1000
,
0100
0010
0001
0100
,
0010
0000
1000
0000
0001
0000
0100
0010
,
1000
0100
0010
0001
,
1000
0000
0100
0000
0010
0001
1000
0000
,
0010
0100
0001
0000
1000
0000
0100
0000
,
0010
0001
1000
0000
0100
0000
0010
0000
,
0001
1000
0010
0000
0100
0000
0001
0000
,
1000
0100
0010
0000
0001
0100
0010
0000
,
1000
0100
0010
0000
0001
0000
1000
0000
,
0100
0010
0001
0000
1000
0000
0100
0000
,
0010
0001
0100
0000
0010
0000
1000
0000
,
0001
0100
0010
0000
1001
0000
1100
0000
,
0010
0000
0001
0000
1000
0010
0100
0000
,
0001
0000
1000
0100
0000
0100
0000
0000
,
0010
0001
0100
0100
,
0010
0000
1000
0100
0010
0000
0000
0000
,
0001
0000
0001
0000
0100
0010
1000
0000
,
0001
0000
0001
0010
0000
0010
0100
0000
,
1000
0001
0100
0010
,
1001
1100
0101
0000
,
0000
0000
0000
0000
;

//---------------dance-single - ----------------
#NOTES:
     dance-single:
     :
     Hard:
     8:
     0.582,0.513,0.176,0.000,0.088:
0000
0000
0000
0000
,
0000
0000
0000
0000
,
0000
0000
0000
0000
,
0000
0000
0000
0000
,
1000
0100
0010
0001
1000
0000
0110
0000
,
1000
0100
0001
0000
1000
0010
0001
0000
,
1000
0100
0010
0001
1000
0000
0110
0000
,
1001
0000
0010
0100
1000
0000
0101
0000
,
0010
1000
0100
0000
0010
0001
0100
0000
,
0010
1000
0001
0010
0100
0000
1001
0000
,
0110
0000
1000
0001
0100
0000
1100
0000
,
0010
0001
0100
0000
0010
1000
0001
0000
,
0010
0100
1000
0001
0100
0000
1100
0000
,
0010
0001
1000
0000
0010
0100
0001
0000
,
0010
0100
1000
0000
0011
0000
0000
0000
,
0100
0010
1000
0000
0001
0010
0100
0000
,
1000
0001
0100
0010
1000
0001
0010
0000
,
0100
1000
0001
0000
0100
0010
1000
0000
,
0001
0010
1000
0010
0001
0000
0110
0000
,
1000
0100
0010
0000
0001
0100
0010
0000
,
1000
0100
0001
0100
1000
0010
0001
0000
,
1000
0100
0010
0000
0001
0100
0010
0000
,
1000
0100
0010
0001
1000
0000
0110
0000
,
1000
0001
0100
0000
0010
1000
0001
0000
,
0010
0100
1000
0000
0001
0100
0010
0000
,
1000
0100
0001
0000
1000
0010
0001
0000
,
1000
0100
0000
0010
0001
0000
0000
0000
,
1000
0100
0010
0000
0001
0100
0010
0000
,
1000
0001
0100
0000
1000
0100
0001
0000
,
1000
0010
0100
0000
1000
0100
0010
0000
,
0001
0100
0000
0010
1000
0000
0000
0000
,
0100
0000
1000
0001
0100
0000
0010
1000
,
0100
0000
0100
0010
0001
0000
1100
0000
,
0010
0000
0001
1000
0100
0000
0010
0000
,
0001
0100
0010
1000
0001
0000
0110
0000
,
1000
0000
0001
0010
1000
0000
0001
0100
,
1000
0000
0100
0001
0010
0000
1100
0000
,
0001
0000
0100
0010
1000
0000
0100
0000
,
0010
0001
0100
0010
1000
0000
0101
0000
,
0010
1000
0001
0010
0100
0000
0000
0000
,
1000
0010
0100
0001
1000
0100
0001
0000
,
1000
0010
0100
0001
1000
0100
0001
0000
,
1000
0010
0100
0000
0001
0010
0100
0000
,
1000
0001
0100
0010
1000
0000
0000
0000
,
0001
0010
0100
1000
0001
0100
1000
0000
,
0001
1000
0100
0001
0100
1000
0001
0000
,
0100
0010
1000
0000
0100
0010
0001
0000
,
1000
0100
0010
0001
1000
0000
0110
0000
,
1000
0001
0010
0100
1000
0010
0100
0000
,
0001
1000
0100
0010
0001
1000
0100
0000
,
0010
0001
0100
0000
0010
1000
0100
0000
,
0010
0001
1000
0100
0001
0000
0000
0000
,
1000
0010
0100
0001
1000
0100
0010
0000
,
0001
0100
0010
1000
0001
0010
0100
0000
,
1000
0001
0100
0000
1000
0100
0001
0000
,
1000
0010
0001
0010
1000
0000
0101
0000
,
1000
0000
1000
0000
0010
0100
0000
0000
0001
0000
0001
0000
0010
0100
0000
0000
,
1000
0000
1000
0000
0001
0100
0000
0000
0010
0000
1000
0000
0100
0000
0000
0000
,
0010
0000
0010
0000
0001
1000
0000
0000
0010
0000
0010
0000
0100
0001
0000
0000
,
1000
0100
0010
0001
1000
0100
0001
0000
,
1000
0000
1000
0000
0010
0100
0000
0000
0001
0000
0001
0000
0010
0100
0000
0000
,
1000
0000
1000
0000
0001
0100
0000
0000
0010
0000
1000
0000
0100
0000
0000
0000
,
0010
0000
0001
0000
1000
0100
0000
0000
0010
0000
0001
0000
1000
0100
0000
0000
,
0010
0001
1000
0010
0100
0001
0010
0000
,
1000
0100
0001
0100
1000
0001
0100
0000
,
0010
1000
0100
0010
0001
1000
0100
0000
,
0010
0001
1000
0010
0100
0001
1000
0000
,
0100
0010
0001
1000
0100
0000
0000
0000
,
0010
0001
0100
0010
1000
0001
0010
0000
,
0100
1000
0001
0100
0010
1000
0001
0000
,
0010
0100
1000
0010
0100
0001
0010
0000
,
0100
1000
0001
0100
0010
0000
0000
0000
,
1000
0000
0000
0001
0000
0000
0100
0000
0010
0000
0000
0000
1001
0000
0000
0000
,
0100
0000
0000
0010
0000
0000
0001
0000
1000
0000
0000
0000
0110
0000
0000
0000
,
1000
0000
0000
0001
0000
0000
0010
0000
0100
0000
0000
0000
1001
0000
0000
0000
,
0100
0010
1000
0000
0001
0010
0100
0000
,
1000
0001
0100
0010
1000
0000
0101
0000
,
1000
0100
0010
0001
0100
0000
1100
0000
,
0010
0000
0001
0100
0010
0000
1001
0000
,
0100
0010
1000
0100
0010
0000
1001
0000
,
0010
0100
0001
0010
1000
0000
0000
0000
,
1001
0000
0010
0100
0001
1000
0100
0000
,
0010
0001
0100
0010
1000
0001
0010
0000
,
0100
1000
0001
0000
0100
0010
1000
0000
,
0001
0010
1000
0010
0001
0000
1100
0000
,
0101
0000
0010
1000
0100
0010
0001
0000
,
1000
0010
0100
0001
1000
0100
0010
0000
,
0001
0100
0010
1000
0001
0100
0010
1000
,
0100
0010
0001
1000
0100
0000
0011
0000
,
0101
0000
0010
1000
0100
0001
0100
0000
,
1000
0001
0100
0010
1000
0001
0010
0000
,
0100
1000
0001
0000
0100
0010
1000
0000
,
0001
0010
0100
1000
0010
0000
0101
0000
,
1010
0000
0100
0010
0001
1000
0100
0000
,
0010
0001
0100
0010
1000
0001
0100
0000
,
0010
1000
0001
0010
0100
1000
0001
0100
,
0010
1000
0100
0010
0001
0000
1100
0000
,
0010
0000
0010
0000
0100
0001
0000
0000
1000
0000
1000
0000
0100
0010
0000
0000
,
0001
0000
0001
0000
1000
0100
0000
0000
0010
0000
0001
0000
0100
0000
0000
0000
,
0010
0000
1000
0000
0100
0010
0000
0000
0001
0000
0100
0000
0010
1000
0000
0000
,
0100
0010
0001
1000
0010
0100
0001
0000
,
1000
0000
1000
0000
0100
0010
0000
0000
0001
0000
0001
0000
0100
0010
0000
0000
,
1000
0000
1000
0000
0001
0100
0000
0000
0010
0000
1000
0000
0001
0000
0000
0000
,
0010
0000
0100
0000
1000
0001
0000
0000
0100
0000
0010
0000
1000
0100
0000
0000
,
0010
0001
1000
0010
0100
0001
1000
0000
,
0100
0000
0100
0000
0010
0001
0000
0000
0100
0000
0100
0000
0010
1000
0000
0000
,
0100
0000
0100
0000
0010
0001
0000
0000
1000
0000
0010
0000
0100
0000
0000
0000
,
0001
0000
0010
0000
0100
1000
0000
0000
0010
0000
0100
0000
0001
0010
0000
0000
,
0100
1000
0010
0001
0010
1000
0100
0000
,
0010
0000
0010
0000
0001
0100
0000
0000
0010
0000
0010
0000
1000
0001
0000
0000
,
0010
0000
0010
0000
0100
1000
0000
0000
0010
0000
0100
0000
0001
0000
0000
0000
,
1000
0000
0100
0000
0001
0100
0000
0000
1000
0000
0010
0000
0001
0010
0000
0000
,
1000
0100
0010
0001
0100
0010
1000
0000
,
0001
0000
0001
0000
0010
0100
1000
0000
,
0010
0000
0100
0001
0000
1000
0100
0000
,
0010
0000
0010
0000
0001
0100
0010
0000
,
1000
0100
0010
0001
0100
0000
1100
0000
,
0010
0000
0010
0000
0001
0100
0010
0000
,
1000
0000
0001
0010
0000
1000
0100
0000
,
0010
0000
0010
0000
0001
1000
0100
0000
,
0010
0001
0100
0010
1000
0000
0000
0000
,
0000
0000
0000
0000
;

//---------------dance-double - ----------------
#NOTES:
     dance-double:
     :
     Easy:
     3:
     0.204,0.224,0.074,0.000,0.000:
00000000
00000000
00000000
00000000
,
00000000
00000000
00000000
00000000
,
00000000
00000000
00000000
00000000
,
00000000
00000000
00000000
00000000
,
10000000
00000000
01000000
00000000
,
00100000
00001000
00010000
00000000
,
00100000
10000000
01000000
00000000
,
00100000
00000000
00010000
00000000
,
01000000
00001000
00010000
00000000
,
00000100
00000010
00000001
00000000
,
00001000
00000000
00000100
00000000
,
00010000
00000010
00000100
00000000
,
00001000
00010000
01000000
00000000
,
10000000
00000000
00010000
00000000
,
00100000
01000000
10010000
00000000
,
01000000
00000000
01000000
00000000
,
00001000
00000000
00001000
00000000
,
00010000
00000000
00010000
00000000
,
00000010
00000000
00001000
00000100
,
00010000
00000000
00010000
00000000
,
00001000
00000000
00001000
00000000
,
00100000
00000000
00100000
00000000
,
01000000
00000000
00010000
00001000
,
00100000
00000000
00100000
00000000
,
00100000
00000000
00100000
00000000
,
00010000
00000000
00010000
00000000
,
10000000
01000000
00100000
00000000
,
00001000
00000000
00001000
00000000
,
01000000
00000000
01000000
00000000
,
00010000
00000000
00010000
00000000
,
00100000
00001000
00010000
00000000
,
00000010
00000000
00000010
00000000
,
00000100
00000000
00001001
00000000
,
00000100
00000000
00001001
00000000
,
00000010
00010000
00001000
00000000
,
00100000
00000000
00100000
00000000
,
01000000
00000000
10010000
00000000
,
01000000
00000000
01000000
00000000
,
00100000
00000000
10000000
00000000
,
01000000
00010000
00001000
00000000
,
00010000
00001000
00100000
00000000
,
00001000
00000000
00000100
00000000
,
00001000
00000000
00010000
00000000
,
01000000
10000000
00010000
00000000
,
00100000
00001000
00000010
00000000
,
00001000
00000000
00010000
00000000
,
00100000
00000000
10000000
00000000
,
01000000
00010000
00001000
00000000
,
00100000
00010000
01000000
00000000
,
00001000
00000000
00010000
00000000
,
00000010
00000000
00000001
00000000
,
00000010
00001000
00000100
00000000
,
00010000
00001000
00100000
00000000
,
00001000
00000000
00000100
00000000
,
00001000
00000000
00010000
00000000
,
01000000
10000000
10010000
00000000
,
01000000
00000000
01000000
00000000
,
00001000
00000000
00001000
00000000
,
00010000
00000000
00010000
00000000
,
00000010
00000000
00001000
00000100
,
00000010
00000000
00000010
00000000
,
00000001
00000000
00000001
00000000
,
00000100
00000000
00000100
00000000
,
00000010
00000000
00010000
00001000
,
00100000
00000000
00100000
00000000
,
00100000
00000000
00100000
00000000
,
00010000
00000000
00010000
00000000
,
10010000
00000000
01100000
00000000
,
00001000
00000000
00010000
00000000
,
00000100
00000000
00000100
00000000
,
00000010
00000000
00000010
00000000
,
00000001
00001000
00000100
00000000
,
00001001
00000000
00000000
00000000
,
00000110
00000000
00000000
00000000
,
00001001
00000000
00000000
00000000
,
00000010
00010000
00001000
00000000
,
10010000
00000000
00000000
00000000
,
01100000
00000000
00000000
00000000
,
10000000
00000000
00010000
00000000
,
01000000
00000000
00001000
00000000
,
00010000
00000010
00000100
00000000
,
00000001
00001000
00000100
00000000
,
00010000
00000000
00010000
00000000
,
00001000
00000000
00001000
00000000
,
00100000
00010000
01000000
00000000
,
00001000
00010000
00000100
00000000
,
00001000
00000000
01000000
00000000
,
00010000
00000000
10000000
00000000
,
00100000
00010000
00001000
00000000
,
00000010
00000001
00001000
00000000
,
00000010
00000000
00000100
00000000
,
00001000
00000000
00010000
00000000
,
01000000
10000000
00010000
00000000
,
00100000
00001000
00010000
00000000
,
00000010
00000000
00000100
00000000
,
00000001
00000000
00001000
00000000
,
00000010
00010000
00011000
00000000
,
01000000
00000000
00000000
00000000
,
00000000
00000000
00000000
00000000
,
00000010
00000000
00000000
00000000
,
00000000
00000000
00000000
00000000
,
00100000
00000000
00000000
00000000
,
00000000
00000000
00000000
00000000
,
00000100
00000000
00000000
00000000
,
00000000
00000000
00000000
00000000
,
00000001
00000000
00000001
00000000
,
00001000
00000000
00001000
00000000
,
00000100
00000000
00000100
00000000
,
00010000
00000000
00010000
00001000
,
00100000
00000000
00100000
00000000
,
01000000
00000000
01000000
00000000
,
10000000
00000000
10000000
00000000
,
00100000
00000000
00010000
00001000
,
00000010
00001000
00010000
00000000
,
01000000
00000000
00000000
00000000
,
00010000
00000000
00001000
00000000
,
00000100
00000001
00001000
00000000
,
00000100
00010000
00001000
00000000
,
00100000
00000000
00000000
00000000
,
00010000
00000000
00000100
00000000
,
00001000
00000001
00000110
00000000
,
00000000
00000000
00000000
00000000
;

//---------------dance-double - ----------------
#NOTES:
     dance-double:
     :
     Medium:
     6:
     0.451,0.417,0.197,0.000,0.000:
00000000
00000000
00000000
00000000
,
00000000
00000000
00000000
00000000
,
00000000
00000000
00000000
00000000
,
00000000
00000000
00000000
00000000
,
01000000
00100000
10000000
00000000
01000000
00000000
01000000
00000000
,
00100000
00001000
00010000
00000000
00000100
00010000
00001000
00000000
,
00100000
00001000
00010000
00000000
00000100
00000000
00000100
00000000
,
00000010
00000001
00000100
00000000
00000010
00000000
00000010
00000000
,
00010000
00001000
00100000
00000000
00001000
00010000
00000100
00000000
,
00010000
00001000
00100000
00000000
00010000
00000000
10000000
00000000
,
01000000
00100000
00010000
00000000
01000000
00000000
01000000
00000000
,
00001000
00010000
00000010
00000000
00010000
00001000
01000000
00000000
,
00001000
00010000
00000010
00000000
00001000
00000000
00000001
00000000
,
00000010
00000100
00001000
00000000
00000010
00010000
00001000
00000000
,
00100000
01000000
10000000
00000000
10010000
00000000
00000000
00000000
,
01000000
00000000
01000000
00000000
00001000
00010000
00000010
00000000
,
00001000
00000000
00001000
00000000
00000001
00000100
00000010
00000000
,
00001000
00000000
00001000
00000000
00000100
00000010
00000001
00000000
,
00001000
00000100
00010000
00011000
,
00100000
00000000
00100000
00000000
00010000
01000000
00100000
00000000
,
10000000
00000000
10000000
00000000
01000000
00100000
00010000
00000000
,
01000000
00000000
01000000
00000000
00100000
10000000
01000000
00000000
,
00100000
00001000
00010000
00001010
,
00000001
00000000
00000010
00000100
00001000
00000000
00001001
00000000
,
00010000
00000000
00001000
00100000
00010000
00000000
10010000
00000000
,
00100000
00000000
01000000
00001000
00010000
00000000
00011000
00000000
,
00000010
00001000
00000101
00000000
,
00000010
00000000
00001000
00000100
00010000
00000000
00011000
00000000
,
00100000
00000000
00010000
10000000
01000000
00000000
10010000
00000000
,
01000000
00000000
00001000
00010000
00000010
00000000
00001001
00000000
,
00000100
00000010
00001001
00000000
,
00000100
00000000
00010000
00000000
00000100
00000000
00010000
00001000
,
00100000
00000000
00001000
00000000
00100000
00000000
00001000
00010000
,
00000100
00000000
00010000
00000000
00000100
00000000
00010000
00000010
,
00001000
00000000
00000001
00000010
00000001
00000000
00000000
00000000
,
00001000
00000000
00000100
00000000
00010000
00000000
00001000
00100000
,
00010000
00000000
00100000
00000000
00010000
00000000
00100000
00001000
,
00010000
00000000
00000100
00000000
00001000
00000000
00000001
00000100
,
00000010
00000000
00001000
00000100
00010000
00000000
00001000
00000000
,
00100000
00000000
00010000
10000000
01000000
00000000
00000000
00000000
,
00100000
00000000
00001000
00010000
00000100
00000000
00010000
00000000
,
00001000
00100000
00010000
00000000
10000000
00000000
01000000
00100000
,
00010000
00000000
01000000
00001000
00010000
00000000
00000010
00001000
,
00000100
00000010
00001001
00000000
,
00000010
00000000
00010000
00001000
01000000
00000000
00001000
00000000
,
00010000
00000100
00001000
00000000
00000001
00000000
00000100
00000010
,
00001000
00000000
00000100
00010000
00001000
00000000
00100000
00010000
,
01000000
00100000
10010000
00000000
,
00001000
00000000
00010000
00001000
00100000
00000000
01000000
00000000
,
10000000
00100000
01000000
00000000
00010000
00000000
00100000
00001000
,
00010000
00000000
00000100
00001000
00000010
00000000
00000100
00000001
,
00001000
00000110
00001001
00000000
,
00010000
00000000
00001000
00010000
00000010
00000000
00000100
00000000
,
00000001
00000010
00000100
00000000
00001000
00000000
00000010
00010000
,
00001000
00000000
01000000
00010000
00100000
00000000
01000000
10000000
,
00010000
01100000
10010000
00000000
,
00100000
00000000
00100000
00000000
00001000
00010000
00000100
00000000
,
00001000
00000000
00001000
00000000
00000001
00000100
00000010
00000000
,
00001000
00000000
00000100
00000000
00010000
00001000
00100000
00000000
,
00010000
01000000
00100000
10010000
,
01000000
00000000
01000000
00000000
00100000
00001000
00010000
00000000
,
00000010
00000000
00000010
00000000
00001000
00000100
00000010
00000000
,
00000001
00000000
00001000
00000000
00000100
00010000
00001000
00000000
,
00100000
01000000
10000000
01010000
,
00001000
00000000
00010000
00000010
00001000
00000000
00000101
00000000
,
00000010
00000000
00001000
00000100
00000010
00000000
00001001
00000000
,
00000100
00000000
00010000
00001000
00100000
00000000
10010000
00000000
,
01100000
00010000
00011000
00000000
,
00000010
00000000
00001000
00000100
00000010
00000000
00001001
00000000
,
00000100
00000000
00010000
00001000
00100000
00000000
10010000
00000000
,
01000000
00000000
00100000
00010000
01000000
00000000
10100000
00000000
,
01000000
00000000
00010000
00000000
00011000
00000000
00000100
00000100
,
00000100
00000000
00000010
00000000
,
00000001
00000000
00001000
00000000
,
00000100
00000000
00010000
00000000
,
01000000
10000000
00010000
00000000
,
01100000
00010000
00100000
00001000
,
00011000
00000100
00001000
00000001
,
00000100
00000000
00000010
00001000
00000100
00000000
00010000
00000000
,
00001000
00000000
00100000
00010000
01000000
00000000
00100000
00000000
,
10000000
00000000
01000000
00100000
00010000
00000000
00000000
00000000
,
01000000
00000000
00001000
00010000
00000010
00000000
00001000
00000000
,
00000100
00010000
00001000
00000000
00100000
00000000
00010000
10000000
,
01000000
00000000
00100000
00001000
00010000
00000000
00000100
00001000
,
00000010
00000100
00001001
00000000
,
00000100
00000000
00010000
00001000
00100000
00000000
00010000
00000000
,
01000000
00001000
00010000
00000000
00000010
00000000
00001000
00000001
,
00000010
00000000
00000100
00010000
00001000
00000000
00100000
00010000
,
01000000
00100000
10010000
00000000
,
00001000
00000000
00010000
00000010
00001000
00000000
00000100
00000000
,
00000010
00000001
00000100
00000000
00000010
00000000
00001000
00000100
,
00010000
00000000
00001000
00100000
00010000
00000000
10000000
00100000
,
01000000
10010000
01100000
00000000
,
00010000
00000000
00001000
00100000
00010000
00000000
01000000
00000000
,
00100000
10000000
01000000
00000000
00100000
00000000
00010000
01000000
,
00001000
00000000
00010000
00000010
00001000
00000000
00000001
00000010
,
00000100
00001001
00000110
00000000
,
00000001
00000001
00000001
00000001
,
00001000
00000000
00001000
00000000
00001000
00000000
00001000
00000100
,
00010000
00010000
00010000
00010000
,
00001000
00001000
00001000
00001000
,
00100000
00100000
00100000
00100000
,
00010000
00000000
00010000
00000000
00010000
00000000
00010000
10000000
,
01000000
01000000
01000000
01000000
,
00100000
00000000
00100000
00000000
00010000
01000000
00100000
00000000
,
10000000
00000000
01000000
00000000
00100000
00000000
00010000
01000000
,
00001000
00000000
00001000
00000000
00010000
00000000
00000010
00001000
,
00000100
00000000
00000100
00000000
00000100
00000000
00000010
00000001
,
00000100
00000000
00000100
00000000
00000010
00001000
00000100
00000000
,
00010000
00000000
00010000
00000000
00010000
00000000
00001000
00100000
,
00010000
00000000
10000000
00000000
10000000
00000000
01000000
00100000
,
00010000
00000000
00010000
00000000
01000000
00000000
00001000
00010000
,
00000100
00000000
00000010
00000000
00000001
00000100
00000010
00000000
,
00001000
00000000
00000100
00000000
00000010
00000001
00000100
00000000
,
00000010
00000000
00001000
00000100
00010000
00000000
00001000
00000000
,
00100000
00010000
01000000
00000000
00100000
10000000
01000000
00000000
,
00100000
00010000
01000000
00000000
00100000
10000000
01000000
00000000
,
00010000
00000000
00001000
00000000
00100000
00010000
01000000
00000000
,
00001000
00000000
00010000
00000000
00000100
00000000
00000010
00000001
,
00000100
00000000
00000100
00000000
00000010
00001000
00000100
00000000
,
00010000
00001000
10010000
00000000
,
00000000
00000000
00000000
00000000
;

//---------------dance-double - ----------------
#NOTES:
     dance-double:
     :
     Hard:
     8:
     0.553,0.513,0.064,0.000,0.037:
00000000
00000000
00000000
00000000
,
00000000
00000000
00000000
00000000
,
00000000
00000000
00000000
00000000
,
00000000
00000000
00000000
00000000
,
10000000
01000000
00010000
00000000
01000000
10000000
00010000
00000000
,
01000000
00001000
00010000
00000000
01000000
00001000
00000100
00000000
,
00000010
00000001
00000100
00000000
00001001
00000000
00001100
00000000
,
00000010
00000001
00000100
00000010
00001000
00000100
00000001
00000000
,
00000100
00001000
00000001
00000000
00000100
00001000
00010000
00000000
,
00000100
00000010
00000001
00000000
00001000
00000100
00010000
00000000
,
00001000
00100000
00010000
01000000
10000000
01000000
00010000
00000000
,
00100000
00001000
00010000
00000000
00100000
01000000
00010000
00000000
,
10000000
01000000
00100000
00000000
10010000
00000000
01100000
00000000
,
00010000
01000000
00100000
10000000
01000000
00010000
00001000
00000000
,
00001001
00000110
00001001
00000000
,
00000010
00000100
00000001
00000000
00000010
00000100
00001000
00000000
,
00000010
00010000
00001000
00000000
00100000
00010000
01000000
00100000
,
10000000
00010000
01000000
00000000
00100000
10000000
00010000
00000000
,
00100000
00001000
00010000
00100000
10000000
00010000
01000000
00000000
,
00001000
00010000
00000100
00000000
00001000
00000001
00000100
00000000
,
00000010
00001000
00000100
00000000
00000010
00000001
00001000
00000100
,
00010000
00001000
00100000
00000000
00010000
01000000
00100000
00000000
,
10000000
01000000
00010000
01000000
00100000
00010000
01000000
00000000
,
00000000
00001000
00000000
00001000
00000000
00100000
00010000
01000000
,
00000000
00001000
00000000
00010000
00000000
00000010
00001000
00000100
,
00000000
00010000
00000000
00010000
00000000
00000010
00001000
00000001
,
00000010
00000100
00001000
00000001
00000100
00000000
00000000
00000000
,
00000000
00000010
00000000
00000010
00000000
00001000
00000100
00000010
,
00000000
00000001
00000000
00001000
00000000
00000010
00010000
00001000
,
00000000
00100000
00000000
00100000
00000000
00010000
10000000
01000000
,
00100000
00001000
00010000
00100000
10000000
00000000
00000000
00000000
,
00010000
00000000
00000000
01000000
00000000
00000000
00010000
00000000
00100000
00000000
00000000
00001000
00000000
00000000
00100000
00000000
,
00010000
00000000
00000000
01000000
00000000
00000000
00001000
00000000
00010000
00000000
00000000
00000100
00000000
00000000
00001000
00000000
,
00000010
00000000
00000000
00010000
00000000
00000000
00000010
00000000
00001000
00000000
00000000
00000001
00000000
00000000
00001000
00000000
,
00000100
00000010
00000001
00001000
00000010
00000000
00000000
00000000
,
00010000
00000000
00000000
00000100
00000000
00000000
00010000
00000000
00001000
00000000
00000000
00100000
00000000
00000000
00010000
00000000
,
10000000
00000000
00000000
00100000
00000000
00000000
10000000
00000000
00010000
00000000
00000000
01000000
00000000
00000000
00010000
00000000
,
00100000
00000000
00000000
01000000
00000000
00000000
00100000
00000000
00010000
00000000
00000000
01000000
00000000
00000000
00010000
00000000
,
10000000
01000000
00100000
00001000
00010000
00000000
00000000
00000000
,
00000010
00000100
00000001
00001000
00000100
00000000
00000000
00000000
,
00010000
00001000
00100000
00001000
00010000
00000100
00000001
00000000
,
00000100
00001000
00000010
00000100
00000001
00001000
00000100
00000000
,
00010000
00001000
00100000
00010000
10000000
01000000
00010000
01000000
,
00100000
00010000
01000000
00001000
00010000
00000000
00000000
00000000
,
00000100
00000001
00000100
00001000
00000010
00000100
00000001
00000000
,
00001000
00000100
00000010
00000001
00000100
00001000
00010000
00000000
,
00100000
10000000
01000000
00100000
00010000
01000000
00100000
10000000
,
01000000
00010000
00001000
00000100
00000001
00000000
00000000
00000000
,
00001000
00000100
00000001
00000100
00001000
00000010
00000100
00000000
,
00001000
00010000
01000000
00010000
00001000
00000100
00000001
00000000
,
00001000
00000010
00000100
00000001
00001000
00000100
00010000
00001000
,
00100000
00010000
10000000
00100000
01000000
00000000
00000000
00000000
,
00010000
10000000
01000000
00100000
00010000
01000000
00100000
00000000
,
10000000
01000000
00010000
00001000
00000100
00001000
00010000
00000000
,
00000010
00001000
00000100
00000010
00000001
00001000
00000010
00000100
,
00001000
00010000
01000000
10000000
00100000
00000000
00000000
00000000
,
01000000
00010000
00100000
00000000
01000000
10000000
00100000
00000000
,
01000000
00010000
00100000
00000000
00001000
00010000
00000010
00001000
,
00000001
00000010
00000100
00000000
00001000
00000010
00000100
00000000
,
00000001
00001000
00000100
00000010
00000001
00000100
00001000
00000000
,
00010000
01000000
10000000
00000000
00010000
01000000
10000000
00000000
,
01000000
00010000
00100000
00000000
01000000
00010000
00001000
00000100
,
00000001
00000010
00000100
00000000
00001000
00000010
00000100
00000000
,
00001000
00010000
01000000
10000000
00010000
01000000
00100000
00000000
,
00000000
10000000
00000000
10000000
00000000
01000000
00100000
00010000
,
00000000
01000000
00000000
01000000
00000000
00001000
00010000
00000010
,
00000000
00001000
00000000
00001000
00000000
00000001
00000010
00000100
,
00001000
00000010
00000100
00001000
00010000
00000000
00011000
00000000
,
00000000
00001000
00000000
00001000
00000000
00100000
00010000
10000000
,
00000000
01000000
00000000
01000000
00000000
00100000
00010000
01000000
,
00000000
00001000
00000000
00001000
00000000
00010000
00000100
00000010
,
00000001
00000100
00000010
00001000
00000100
00000000
00010000
00010000
,
00010000
00000000
00000000
00000000
00000000
00000000
00000000
00001000
,
00001000
00000000
00000000
00000000
,
10010000
00000000
00000000
00000000
00000000
00000000
00000000
00000000
00000000
00000000
00000000
00000000
00000000
00000000
10000000
01000000
,
10000000
00010000
01000000
00000000
,
00001000
00010000
00001000
00010000
00000010
00010000
00001000
00010000
,
00000100
00010000
00001000
00100000
00001000
00010000
00000100
00000000
,
00001000
00000001
00000100
00000010
00001000
00000100
00010000
00000000
,
00001000
00100000
00010000
01000000
00100000
10000000
01000000
00000000
,
00100000
00000000
00000000
00001000
00000000
00000000
00010000
00000000
00000100
00000000
00000000
00000000
00000000
00000000
00000000
00000000
,
00001000
00000001
00000100
00001000
00000100
00000001
00000010
00000000
,
00000100
00001000
00000010
00000100
00000001
00001000
00000100
00000000
,
00010000
00001000
00100000
00010000
01000000
00001000
00010000
00000010
,
00001000
00000001
00000010
00000100
00001000
00000000
00000000
00000000
,
00000001
00000100
00000010
00001000
00000100
00000010
00000001
00000000
,
00001000
00000100
00010000
00001000
00100000
00010000
10000000
00000000
,
00100000
01000000
00010000
00100000
01000000
00010000
00001000
00000100
,
00000001
00001000
00000100
00000010
00000001
00000000
00000000
00000000
,
00001000
00000100
00000010
00000001
00000100
00000010
00001000
00000000
,
00000100
00000010
00001000
00010000
00100000
10000000
01000000
00000000
,
00010000
01000000
10000000
01000000
00010000
00100000
01000000
00010000
,
00001000
00000100
00000001
00000010
00000100
00000000
00000000
00000000
,
00001000
00000001
00000100
00000010
00001000
00000100
00010000
00000000
,
00001000
00100000
00010000
10000000
00100000
01000000
00010000
00000000
,
00100000
00001000
00010000
00000010
00000100
00001000
00010000
00000100
,
00000010
00000001
00000100
00001000
00010000
00000000
00000000
00000000
,
00100000
00100000
00100000
00000000
00010000
00010000
00010000
00000000
,
10000000
10000000
10000000
00000000
01000000
00100000
01000000
00100000
,
00010000
00010000
00010000
00000000
01000000
01000000
01000000
00000000
,
00001000
00010000
00001000
00010000
00000010
00001000
00000100
00000000
,
00000010
00000010
00000010
00000000
00000001
00000001
00000001
00000000
,
00000100
00000100
00000100
00000000
00000010
00001000
00000010
00001000
,
00000100
00000100
00000100
00000000
00010000
00010000
00010000
00000000
,
00001000
00100000
00001000
00100000
00010000
10000000
01000000
00000000
,
00100000
00010000
01000000
00100000
10000000
01000000
00010000
00000000
,
01000000
00100000
00010000
01000000
00001000
00010000
00000100
00000000
,
00000010
00000001
00000100
00000010
00001000
00000001
00000010
00000000
,
00000100
00010000
00001000
01000000
00100000
10000000
01000000
00000000
,
00100000
00010000
01000000
00100000
10000000
01000000
00100000
00000000
,
00010000
01000000
00001000
00010000
00000010
00001000
00000001
00000000
,
00000010
00000100
00001000
00000001
00000100
00000010
00001000
00000000
,
00000100
00001000
00000010
00000100
00001000
00010000
01000000
00000000
,
10000000
10000000
00100000
01000000
00010000
00100000
01000000
00000000
,
10000000
10000000
00010000
01000000
00001000
00010000
00000010
00000000
,
00001000
00000100
00000010
00000000
00000001
00001000
00000100
00000000
,
00010000
00001000
00100000
01000000
10000000
00000000
00000000
00000000
,
00010000
00010000
01000000
00001000
00010000
00000100
00000010
00000000
,
00000001
00000001
00001000
00000010
00000100
00001000
00010000
00000000
,
00001000
00010000
00000100
00000000
00010000
00001000
00100000
00000000
,
10010000
00011000
00001001
00000000
,
00000000
00000000
00000000
00000000
;
