#TITLE:Butterfly;
#ARTIST:SMILE.dk;
#BANNER:Butterfly.png;
#BACKGROUND:Butterfly-bg.png;
#CDTITLE:../CDTitles/Dancemania 10.png;
#MUSIC:Butterfly.ogg;
#SAMPLESTART:64.58;
#SAMPLELENGTH:15;
#DISPLAYBPM:135;
#BPMS:0=31.25,4=134.922;
#BGCHANGES:0=Butterfly.avi=1=0=0=0,195=Butterfly-bg.png=1=0=0=1;

//---------------dance-single - ----------------
#NOTES:
     dance-single:
     :
     Beginner:
     2:
     :
0000
0000
0000
0000
,
0000
0000
0000
0000
,
0000
0000
0000
0000
,
0000
0000
0000
0000
,
0000
0000
0000
0000
,
0000
0000
0001
0001
,
0000
0000
1000
1000
,
0000
0001
0000
1000
,
0000
0000
0001
0001
,
0000
0000
1000
1000
,
0000
0000
0001
0001
,
0000
1000
0000
0001
,
0000
0000
1000
1000
,
0000
0010
0010
0000
,
0001
0000
1000
0000
,
0001
0000
1000
0000
,
0001
0000
0000
1000
,
0000
0010
0010
0000
,
0001
0000
1000
0000
,
0001
0000
1000
0000
,
0001
0000
0000
1000
,
0000
0001
0000
0001
,
0000
1000
0000
1000
,
0000
0001
0000
0001
,
0000
1000
0000
1000
,
0000
0000
0001
0001
,
0000
0000
1000
1000
,
0000
0001
0000
1000
,
0000
0000
0001
0001
,
0000
0000
1000
1000
,
0000
0000
0001
0001
,
0000
1000
0000
0001
,
0000
0000
1000
1000
,
0000
0010
0010
0000
,
0001
0000
1000
0000
,
0001
0000
1000
0000
,
0001
0000
0000
1000
,
0000
0010
0010
0000
,
0001
0000
1000
0000
,
0001
0000
1000
0000
,
0001
0000
0000
1000
,
0000
0010
0000
0010
,
0000
0010
0000
0010
,
0000
0010
0000
0010
,
0000
0010
0000
1000
,
0000
0010
0000
0010
,
0000
0010
0000
0010
,
0000
0010
0000
0010
,
0000
0100
0000
0001
;

//---------------dance-single - ----------------
#NOTES:
     dance-single:
     :
     Easy:
     5:
     :
0000
0000
0000
0000
,
0000
0000
0000
0000
,
0000
0000
0000
0000
,
0010
0001
0010
1000
,
0010
0001
0000
0000
,
0001
0000
0001
1001
,
1000
0000
1000
1001
,
0000
0001
0100
1000
,
0010
0001
1000
1001
,
0001
0000
0001
1001
,
1000
0000
1000
1001
,
0000
0001
0100
1000
,
0010
0001
1000
1001
,
0000
0010
0010
1001
,
0001
0010
1000
0100
,
0010
0100
1000
0000
,
0001
1000
0100
0010
,
0000
0010
0010
1001
,
0001
0010
1000
0100
,
0010
0100
0001
0000
,
1000
0001
0010
0100
,
0100
0001
0100
0001
,
0100
1000
0100
1000
,
0100
0001
0100
0001
,
0100
1000
0100
1000
,
0001
0000
0001
1001
,
1000
0000
1000
1001
,
0000
0001
0100
1000
,
0010
0001
1000
1001
,
0001
0000
0001
1001
,
1000
0000
1000
1001
,
0000
0001
0100
1000
,
0010
0001
1000
1001
,
0000
0010
0010
1001
,
0001
0010
1000
0100
,
0010
0100
1000
0000
,
0001
1000
0100
0010
,
0000
0010
0010
1001
,
0001
0010
1000
0100
,
0010
0100
0001
0000
,
1000
0001
0010
0100
,
0000
0100
0001
0100
,
1000
0100
0001
0100
,
1000
0100
0001
0100
,
1000
0010
0100
1001
,
0000
0100
1000
0100
,
0001
0100
1000
0100
,
0001
0100
1000
0100
,
0001
0010
0100
1001
;

//---------------dance-single - ----------------
#NOTES:
     dance-single:
     :
     Medium:
     6:
     :
0000
0000
0000
0000
,
0000
0000
0000
0000
,
0000
0000
0000
0000
,
0010
0001
0010
1000
,
0010
0001
0000
0000
,
0010
0000
0110
1001
,
0010
0000
0110
1001
,
0000
0001
0100
1000
,
0010
0001
1000
1001
,
0010
0000
0110
1001
,
0010
0000
0110
1001
,
0000
0001
0100
1000
,
0010
0001
1000
1001
,
0000
0010
0010
1001
,
0001
0011
1000
1100
,
0010
0100
1100
0000
,
0001
1000
0100
0011
,
0000
0010
0010
1001
,
0001
0011
1000
1100
,
0010
0100
0101
0000
,
1000
0001
0010
1100
,
0100
0001
0100
0001
,
0100
1000
0100
1000
,
0100
0001
0100
0001
,
0100
1000
0100
1000
,
0010
0000
0110
1001
,
0010
0000
0110
1001
,
0000
0001
0100
1000
,
0010
0001
1000
1001
,
0010
0000
0110
1001
,
0010
0000
0110
1001
,
0000
0001
0100
1000
,
0010
0001
1000
1001
,
0000
0010
0010
1001
,
0001
0011
1000
1100
,
0010
0100
1100
0000
,
0001
1000
0100
0011
,
0000
0010
0010
1001
,
0001
0011
1000
1100
,
0010
0100
0101
0000
,
1000
0001
0010
1100
,
0000
0100
0001
0100
,
1000
0100
0001
0100
,
1000
0100
0001
0100
,
1000
0010
0100
1001
,
0000
0100
1000
0100
,
0001
0100
1000
0100
,
0001
0100
1000
0100
,
0001
0010
0100
1001
;

//---------------dance-single - ----------------
#NOTES:
     dance-single:
     :
     Hard:
     8:
     :
0000
0000
0000
0000
,
0000
0000
0000
0000
,
0000
0000
0000
0000
,
0000
0000
0000
0000
,
0000
0000
0000
0000
0000
0000
0100
0010
,
0010
0000
0100
0000
1001
0000
1000
0100
,
0010
0000
0100
0000
1001
0000
0001
0100
,
1000
0000
0100
0000
0001
0000
0100
1000
,
0100
0000
0001
0000
1000
0000
0100
0001
,
0010
0000
0100
0000
1001
0000
0001
0100
,
0010
0000
0100
0000
1001
0000
1000
0100
,
0001
0000
0100
0000
1000
0000
0100
0001
,
0100
0000
1000
0000
0001
0000
1000
0001
,
1001
0000
0010
0000
1001
0000
1000
0100
,
0010
0011
1100
0000
,
0001
0000
0100
0000
1000
0010
0001
0000
,
0100
0000
1000
0000
0001
0000
0100
1000
,
0010
0000
0010
0000
1001
0000
0001
0100
,
0010
1010
0101
0000
,
1000
0000
0100
0000
0001
0010
1000
0000
,
0100
0000
0001
0000
1000
0000
0001
1000
,
1001
0000
0010
0000
0001
0000
0010
0001
,
0010
0000
0001
0000
0010
0000
0001
0010
,
1000
0000
0010
0000
1000
0000
0010
1000
,
0010
0000
1000
0000
0010
0000
0100
0010
,
0010
0000
0100
0000
1001
0000
1000
0100
,
0010
0000
0100
0000
1001
0000
0001
0100
,
1000
0000
0100
0000
0001
0000
0100
1000
,
0100
0000
0001
0000
1000
0000
0100
0001
,
0010
0000
0100
0000
1001
0000
0001
0100
,
0010
0000
0100
0000
1001
0000
1000
0100
,
0001
0000
0100
0000
1000
0000
0100
0001
,
0100
0000
1000
0000
0001
0000
1000
0001
,
1001
0000
0010
0000
1001
0000
1000
0100
,
0010
0011
1100
0000
,
0001
0000
0100
0000
1000
0010
0001
0000
,
0100
0000
1000
0000
0001
0000
0100
1000
,
0010
0000
0010
0000
1001
0000
0001
0100
,
0010
1010
0101
0000
,
1000
0000
0100
0000
0001
0010
1000
0000
,
0100
0000
0001
0000
1000
0000
0001
1000
,
1001
0000
0010
0000
0001
0000
0010
0001
,
0010
0000
1000
0000
0010
0000
1000
0010
,
0001
0000
0010
0000
0001
0000
0010
0001
,
0100
0000
1000
0000
0001
0000
1000
0001
,
1001
0000
0100
0000
1000
0000
0100
1000
,
0100
0000
0001
0000
0100
0000
0001
0100
,
1000
0000
0100
0000
1000
0000
0100
1000
,
0010
0001
1000
1001
;

//---------------dance-single - ----------------
#NOTES:
     dance-single:
     :
     Challenge:
     11:
     :
0000
0000
0000
0000
,
0000
0000
0000
0000
,
0000
0000
0000
0000
,
0000
0000
0000
0000
,
0000
0000
0000
0000
0000
0000
0100
0100
,
0010
0000
0000
0100
0001
0000
1000
0000
0010
0000
0000
0000
1100
0000
0000
0000
,
0001
0000
0000
1000
0010
0000
0100
0000
0001
0000
1000
0000
1010
0000
0000
0000
,
0100
0001
0000
0000
0001
0100
0000
0000
0100
1000
0000
0000
1000
0100
0000
0000
,
0010
1000
0010
0001
0010
0100
0110
0000
,
0001
0000
0000
1000
0010
0000
0100
0000
0001
0000
0000
0000
1010
0000
0000
0000
,
0100
0000
0000
0001
0010
0000
0100
0000
1000
0000
0001
0000
0011
0000
0000
0000
,
0100
1000
0000
0000
1000
0100
0000
0000
0100
0001
0000
0000
0001
0100
0000
0000
,
0010
0001
0010
1000
0010
0100
0110
0000
,
0021
0000
1000
0000
0031
0000
0001
0100
,
0001
0010
1000
0010
0001
1000
1001
0000
,
0010
1000
0000
0000
0001
0000
0001
0000
0010
0001
0000
0000
1000
0000
1000
0000
,
0001
0010
1000
0010
0001
0100
0110
0000
,
0201
0000
1000
0000
0301
0000
1000
0010
,
1000
0100
0001
0100
1000
0001
1001
0000
,
0100
0001
0000
0000
1000
0000
1000
0000
0100
1000
0000
0000
0001
0000
0001
0000
,
1000
0100
0001
0100
1000
0010
0110
0000
,
1000
0000
0100
0000
1000
0000
0100
1000
0000
0100
1000
0000
0100
0000
1000
0000
,
0001
0000
0100
0000
0001
0000
0100
0001
0000
0100
0001
0000
0010
0000
0001
0000
,
1000
0000
0001
0000
1000
0000
0001
1000
0000
0001
1000
0000
0001
0000
1000
0000
,
0010
0000
0100
0000
0010
0000
0100
0010
0000
0100
0010
0000
1000
0000
0001
0000
,
0100
0000
0000
0010
1000
0000
0001
0000
0100
0000
0000
0000
0011
0000
0001
0000
,
1000
0000
0000
0001
0100
0000
0010
0000
1000
0000
0001
0000
0101
0000
0000
0000
,
0010
1000
0000
0000
1000
0010
0000
0000
0010
0001
0000
0000
0001
0010
0000
0000
,
0100
0001
0100
1000
0100
0010
0110
0010
,
1000
0000
0000
0001
0100
0000
0010
0000
1000
0000
0000
0000
0101
0000
0100
0000
,
0010
0000
0000
1000
0100
0000
0010
0000
0001
0000
1000
0000
1100
0000
0000
0000
,
0010
0001
0000
0000
0001
0010
0000
0000
0010
1000
0000
0000
1000
0010
0000
0000
,
0100
1000
0100
0001
0100
0010
0110
0000
,
1200
0000
0001
0000
1300
0000
1000
0100
,
1000
0010
0001
0010
1000
0001
1001
0000
,
0100
0001
0000
0000
0010
0000
0010
0000
0100
1000
0000
0000
0010
0000
0010
0000
,
1000
0100
0001
0100
1000
0010
0110
0000
,
1020
0000
0001
0000
1030
0000
0001
0010
,
0001
0100
1000
0100
0001
1000
1001
0000
,
0010
1000
0000
0000
0100
0000
0100
0000
0010
0001
0000
0000
0100
0000
0100
0000
,
0001
0010
1000
0010
0001
0100
0110
0010
,
1000
0000
0000
0100
1000
0000
0001
0000
0010
0000
0100
0000
0100
0000
0010
0000
,
0001
0000
0000
0100
0001
0000
1000
0000
0010
0000
0100
0000
0100
0000
0010
0000
,
1000
0000
0000
0001
0010
0000
0100
0000
1000
0000
0001
0000
0001
0000
0100
0000
,
0010
1000
0001
1000
0100
0100
0110
0000
,
0001
0000
0000
0100
0001
0000
1000
0000
0010
0000
0100
0000
0100
0000
0010
0000
,
1000
0000
0000
0100
1000
0000
0001
0000
0010
0000
0100
0000
0100
0000
0010
0000
,
0001
0000
0000
1000
0010
0000
0100
0000
0001
0000
1000
0000
1000
0000
0100
0000
,
0010
0001
1000
0001
0100
0000
0110
0000
;

//---------------dance-double - ----------------
#NOTES:
     dance-double:
     :
     Easy:
     6:
     :
00000000
00000000
00000000
00000000
,
00000000
00000000
00000000
00000000
,
00000000
00000000
00000000
00000000
,
00000000
00000000
00000000
00000000
,
00000000
00000000
00000000
00000000
,
00000000
00000000
00001000
00011000
,
00000010
00000001
00001000
00001001
,
00010000
01000000
10000000
00100000
,
01000000
00010000
00001000
00011000
,
00000000
00000000
00010000
00011000
,
00100000
10000000
00010000
10010000
,
00001000
00000100
00000001
00000010
,
00000100
00001000
00010000
00011000
,
00000000
00000010
00000010
00000010
,
00000001
00001000
00000001
00001000
,
00010000
01000000
10000000
00100000
,
01000000
00010000
00001000
00011000
,
00000000
00100000
00100000
00100000
,
10000000
00010000
10000000
00010000
,
00001000
00000100
00000001
00000010
,
00000100
00001000
00010000
00011000
,
00001000
00000001
00000010
00000001
,
00000010
00000001
00000010
00000001
,
00010000
10000000
00100000
10000000
,
00100000
10000000
00100000
10000000
,
00000000
00000000
00001000
00011000
,
00000010
00000001
00001000
00001001
,
00010000
01000000
10000000
00100000
,
01000000
00010000
00001000
00011000
,
00000000
00000000
00010000
00011000
,
00100000
10000000
00010000
10010000
,
00001000
00000100
00000001
00000010
,
00000100
00001000
00010000
00011000
,
00000000
00000010
00000010
00000010
,
00000001
00001000
00000001
00001000
,
00010000
01000000
10000000
00100000
,
01000000
00010000
00001000
00011000
,
00000000
00100000
00100000
00100000
,
10000000
00010000
10000000
00010000
,
00001000
00000100
00000001
00000010
,
00000100
00001000
00010000
00011000
,
00001000
00000001
00000010
00000001
,
00000010
00001000
00000010
00001000
,
00000010
00000001
00000010
00000001
,
00000100
00001000
00010000
00011000
,
00010000
10000000
00100000
10000000
,
00100000
00010000
00100000
00010000
,
00100000
10000000
00100000
10000000
,
01000000
00010000
00001000
00011000
;

//---------------dance-double - ----------------
#NOTES:
     dance-double:
     :
     Medium:
     7:
     :
00000000
00000000
00000000
00000000
,
00000000
00000000
00000000
00000000
,
00000000
00000000
00000000
00000000
,
00000000
00000000
00000000
00000000
,
00000000
00000000
00000000
00000000
,
00001000
00010000
00011000
00000100
,
00001000
00000000
00000010
00000000
00001001
00000000
00001000
00010000
,
01000000
10000000
00010000
00001000
,
00000100
00000001
00001000
00010000
,
00010000
00001000
00011000
01000000
,
00010000
00000000
00100000
00000000
10010000
00000000
00010000
00001000
,
00000100
00000001
00001000
00010000
,
01000000
10000000
00010000
00001000
,
00011000
00000010
00000010
00001001
,
00010000
00110000
10000000
11000000
,
00010000
00000000
00001000
00000000
00000100
00000001
00000010
00000000
,
00001000
00010000
01000000
10000000
,
00000000
00100000
00100000
10010000
,
00001000
00001010
00000001
00000101
,
00001000
00000000
00010000
00000000
01000000
10000000
00100000
00000000
,
00010000
00000000
00001000
00000000
00000100
00000000
00001000
00000001
,
00001001
00000000
00000010
00000000
00000001
00000000
00000010
00000001
,
00000010
00000001
00000010
00001000
,
00010000
00000000
00100000
00000000
10000000
00000000
00100000
10000000
,
00100000
10000000
00100000
00010000
,
00001000
00010000
00011000
00000100
,
00001000
00000000
00000010
00000000
00001001
00000000
00001000
00010000
,
01000000
10000000
00010000
00001000
,
00000100
00000001
00001000
00010000
,
00010000
00001000
00011000
01000000
,
00010000
00000000
00100000
00000000
10010000
00000000
00010000
00001000
,
00000100
00000001
00001000
00010000
,
01000000
10000000
00010000
00001000
,
00011000
00000010
00000010
00001001
,
00010000
00110000
10000000
11000000
,
00010000
00000000
00001000
00000000
00000100
00000001
00000010
00000000
,
00001000
00010000
01000000
10000000
,
00000000
00100000
00100000
10010000
,
00001000
00001010
00000001
00000101
,
00001000
00000000
00010000
00000000
01000000
10000000
00100000
00000000
,
00010000
00001000
00000100
00000001
,
00001001
00000000
00000010
00000000
00000001
00000000
00000010
00000001
,
00000010
00000000
00001000
00000000
00000010
00000000
00001000
00000010
,
00000001
00000000
00000010
00000000
00000001
00000000
00000010
00000001
,
00000100
00000010
00001000
00010000
,
10010000
00000000
00100000
00000000
10000000
00000000
00100000
10000000
,
00100000
00000000
00010000
00000000
00100000
00000000
00010000
00100000
,
10000000
00000000
00100000
00000000
10000000
00000000
00100000
10000000
,
01000000
00010000
00100000
00011000
;

//---------------dance-double - ----------------
#NOTES:
     dance-double:
     :
     Hard:
     9:
     :
00000000
00000000
00000000
00000000
,
00000000
00000000
00000000
00000000
,
00000000
00000000
00000000
00000000
,
00000000
00000000
00000000
00000000
,
00000000
00000000
00000000
00000000
,
01000000
00100000
01000000
00000000
10010000
00000000
00000000
00000000
,
01000000
00001000
00010000
00000000
00011000
00000000
00000000
00000000
,
00000100
00000000
00000010
00000001
00000010
00000000
00000000
00000000
,
00001000
00000100
00010000
00001000
00100000
00000000
00000000
00000000
,
00010000
01000000
00100000
00000000
10010000
00000000
00000000
00000000
,
01000000
00001000
00010000
00000000
00011000
00000000
00000000
00000000
,
00000100
00000000
00000010
00000001
00000100
00000000
00000000
00000000
,
00000010
00001000
00000100
00010000
00001000
00000000
00011000
00000000
,
01000000
00100000
10000000
00010000
01000000
00000000
00000000
00001000
,
00010000
00000100
00000010
00000001
00000100
00000000
00000000
00000000
,
00000010
00010000
00001000
01000000
00010000
00000000
00000000
10000000
,
01000000
00100000
00010000
01000000
00001000
00000000
00000000
00000000
,
00010000
00000100
00001000
00000001
00000100
00000000
00000000
00000010
,
00001000
00000100
00010000
00001000
00100000
00000000
00000000
00000000
,
00010000
10000000
01000000
10000000
00100000
00000000
00000000
01000000
,
00010000
00100000
00001000
00010000
00000100
00000000
00001001
00000000
,
00000000
00000010
00000000
00000100
00000000
00000001
00000001
00000000
,
00000000
00001000
00000000
00000100
00000000
00010000
00010000
00000000
,
00000000
00001000
00000000
01000000
00000000
00010000
00010000
00000000
,
00000000
10000000
00000000
01000000
00000000
00100000
00100000
00000000
,
10010000
00000000
01000000
00001000
00010000
00000000
00011000
00000000
,
00000100
00000000
00000010
00000001
00001000
00000000
00010100
00000000
,
00001000
00000000
01000000
00100000
10000000
00000000
01100000
00000000
,
00010000
01000000
00001000
00010000
00000100
00000000
00001001
00000000
,
00000110
00000000
00001000
00000001
00000100
00000000
00001001
00000000
,
00000100
00000000
00010000
00001000
01000000
00000000
10010000
00000000
,
01000000
00000000
00100000
00001000
01000000
00000000
10010000
00000000
,
01000000
00100000
00001000
00010000
00000100
00000000
00001001
00000000
,
00000010
00000100
00001000
00000010
00000100
00000000
00000001
00000001
,
00001000
00000100
00010000
00001000
01000000
00000000
10010000
00000000
,
00100000
00000000
01000000
00001000
00010000
00000000
00000010
00000010
,
00001000
00000100
00010000
00001000
01000000
00000000
10010000
00000000
,
01000000
00100000
00001000
00010000
00000010
00000000
00001000
00001000
,
00000100
00010000
00001000
00100000
01000000
00000000
10010000
00000000
,
00100000
00000000
01000000
00001000
00010000
00000000
00000010
00000010
,
00001000
00000100
00000010
00000001
00000100
00000000
00001001
00000000
,
00000000
00000100
00000000
00010000
00000000
00001000
00001000
00000000
,
00000000
00100000
00000000
00010000
00000000
10000000
10000000
00000000
,
00000000
01000000
00000000
00100000
00000000
00010000
00010000
00000000
,
01000000
00001000
00010000
00000100
00000010
00000000
00000000
00000000
,
00000000
00000001
00000000
00001000
00000000
00000100
00010000
00000000
,
00000000
00001000
00000000
00100000
00000000
00010000
10000000
00000000
,
00000000
01000000
00000000
00100000
00000000
00001000
00010000
00000000
,
00000100
00000010
00000001
00001000
00000010
00000000
00011000
00000000
;

//---------------dance-double - ----------------
#NOTES:
     dance-double:
     :
     Challenge:
     12:
     :
00000000
00000000
00000000
00000000
,
00000000
00000000
00000000
00000000
,
00000000
00000000
00000000
00000000
,
00000000
00000000
00000000
00000000
,
00000000
00000000
00000000
00000000
00000000
00000000
01000000
01000000
,
00100000
00000000
00000000
10000000
01000000
00000000
00010000
00000000
01000000
00000000
00000000
00000000
01100000
00000000
00000000
00000000
,
00010000
00000000
00000000
00000010
00000100
00000000
00000001
00000000
00000010
00000000
00000100
00000000
00000110
00000000
00000000
00000000
,
00000010
00000001
00000000
00000000
00000001
00000010
00000000
00000000
00000010
00001000
00000000
00000000
00001000
00010000
00000000
00000000
,
00010000
01000000
10000000
01000000
00010000
00001000
00011000
00000000
,
00000010
00000000
00000000
00000100
00000001
00000000
00000100
00000000
00000010
00000000
00001000
00000000
00000100
00000000
00000010
00000000
,
00000001
00000000
00000000
00000100
00001000
00000000
00010000
00000000
01000000
00000000
00100000
00000000
01100000
00000000
00000000
00000000
,
00100000
10000000
00000000
00000000
10000000
00100000
00000000
00000000
00100000
00010000
00000000
00000000
00010000
00001000
00000000
00000000
,
00001000
00000100
00000001
00000100
00001000
00010000
00011000
00000000
,
01020000
00000000
00001000
00000000
01030000
00000000
00001000
00000010
,
00000001
00001000
00000010
00000100
00001000
00010000
00011000
00000000
,
00001000
00010000
00000000
00000000
01000000
00000000
01000000
00000000
00100000
00001000
00000000
00000000
00010000
00000000
00010000
00000000
,
00001000
00000010
00000001
00000010
00001000
00010000
00011000
00000000
,
00002100
00000000
00010000
00000000
00003100
00000000
00010000
00100000
,
10000000
00010000
00100000
01000000
00010000
00001000
00011000
00000000
,
00010000
00001000
00000000
00000000
00000100
00000000
00000100
00000000
00000010
00010000
00000000
00000000
00001000
00000000
00001000
00000000
,
00010000
00100000
10000000
00100000
00010000
00001000
00011000
00000000
,
00100000
00000000
10000000
00000000
00100000
00000000
01000000
00100000
00000000
10000000
00100000
00000000
01000000
00000000
00001000
00000000
,
00010000
00000000
00001000
00000000
01000000
00000000
00001000
00010000
00000000
00001000
00000010
00000000
00000001
00000000
00000100
00000000
,
00001000
00000000
00000100
00000000
00000010
00000000
00000100
00000001
00000000
00000010
00000100
00000000
00010000
00000000
00001000
00000000
,
00100000
00000000
01000000
00000000
00100000
00000000
00010000
10000000
00000000
00100000
01000000
00000000
00001000
00000000
00010000
00000000
,
00000010
00000000
00000000
00000100
00000001
00000000
00001000
00000000
00000100
00000000
00000010
00000000
00000110
00000000
00000100
00000000
,
00010000
00000000
00000000
00001000
00010000
00000000
01000000
00000000
00100000
00000000
00010000
00000000
10010000
00000000
00000000
00000000
,
01000000
00010000
00000000
00000000
00010000
00001000
00000000
00000000
00001000
00000010
00000000
00000000
00000010
00000001
00000000
00000000
,
00000001
00000010
00001000
00010000
01000000
10000000
01100000
00010000
,
01000000
00000000
00000000
00100000
10000000
00000000
00010000
00000000
00100000
00000000
01000000
00000000
01100000
00000000
00100000
00000000
,
00001000
00000000
00000000
00010000
00001000
00000000
00000010
00000000
00000100
00000000
00001000
00000000
00001001
00000000
00000000
00000000
,
00000010
00001000
00000000
00000000
00001000
00010000
00000000
00000000
00010000
01000000
00000000
00000000
01000000
10000000
00000000
00000000
,
10000000
01000000
00010000
00001000
00000010
00000001
00000110
00000000
,
00000201
00000000
00001000
00000000
00000301
00000000
00000100
00010000
,
00001000
00100000
01000000
10000000
00100000
01000000
10100000
00000000
,
10000000
01000000
00000000
00000000
00010000
00000000
00010000
00000000
00001000
00000010
00000000
00000000
00000001
00000000
00000001
00000000
,
00000010
00001000
00010000
01000000
10000000
00100000
01100000
00000000
,
12000000
00000000
00010000
00000000
13000000
00000000
01000000
00001000
,
00010000
00000010
00000100
00000001
00000010
00000100
00000011
00000000
,
00000001
00000100
00000000
00000000
00001000
00000000
00001000
00000000
00010000
00100000
00000000
00000000
10000000
00000000
10000000
00000000
,
00100000
00010000
00001000
00000100
00000001
00000010
00000110
00000000
,
00000001
00000000
00000000
00000100
00001000
00000000
00000010
00000000
00010000
00000000
00001000
00000000
01000000
00000000
00100000
00000000
,
10000000
00000000
00000000
01000000
00010000
00000000
00100000
00000000
00001000
00000000
00010000
00000000
00000100
00000000
00000010
00000000
,
00000100
00000000
00000000
00000001
00000100
00000000
00001000
00000000
00000010
00000000
00010000
00000000
00001000
00000000
01000000
00000000
,
00100000
10000000
01000000
00100000
00001000
01000000
01100000
00000000
,
00100000
00000000
00000000
01000000
00010000
00000000
10000000
00000000
01000000
00000000
00010000
00000000
00001000
00000000
00000010
00000000
,
00000010
00000000
00000000
00000100
00001000
00000000
00000001
00000000
00000100
00000000
00001000
00000000
00010000
00000000
00100000
00000000
,
01000000
00000000
00000000
00100000
00010000
00000000
00001000
00000000
00000100
00000000
00000010
00000000
00001000
00000000
00000100
00000000
,
00000010
00000100
00001000
00010000
00100000
00000000
01100000
00000000
;

//---------------dance-couple - ----------------
#NOTES:
     dance-couple:
     :
     Easy:
     3:
     :
00000000
00000000
00000000
00000000
,
00000000
00000000
00000000
00000000
,
00000000
00000000
00000000
00000000
,
00100010
00010001
00100010
10001000
,
00100010
00010001
00000000
00000000
,
00010010
00000000
00010110
10010010
,
10000100
00000000
10000110
10010010
,
00000000
00011000
01000100
10000001
,
00100010
00011001
10001000
10010001
,
00010010
00000000
00010110
10010010
,
10000100
00000000
10000110
10010010
,
00000000
00011000
01000100
10000001
,
00100010
00011001
10001000
10010001
,
00000000
00100010
00100010
10011001
,
00010001
00100010
10001000
01000100
,
00100010
01000100
10001000
00000000
,
00010001
10001000
01000100
00100010
,
00000000
00100010
00100010
10011001
,
00010001
00100010
10001000
01000100
,
00100010
01000100
00010001
00000000
,
10001000
00010001
00100010
01000100
,
00100100
00011000
00100100
00011000
,
01000010
10000001
01000010
10000001
,
00100100
00011000
00100100
00011000
,
01000010
10000001
01000010
10000001
,
00100001
00000000
01100001
00101001
,
01001000
00000000
01101000
00101001
,
00000000
10000001
01000100
00011000
,
00100010
10010001
10001000
00011001
,
00100001
00000000
01100001
00101001
,
01001000
00000000
01101000
00101001
,
00000000
10000001
01000100
00011000
,
00100010
10010001
10001000
00011001
,
00000000
00100010
00100010
10011001
,
00010001
00100010
10001000
01000100
,
00100010
01000100
10001000
00000000
,
00010001
10001000
01000100
00100010
,
00000000
00100010
00100010
10011001
,
00010001
00100010
10001000
01000100
,
00100010
01000100
00010001
00000000
,
10001000
00010001
00100010
01000100
,
00000000
01000010
00011000
01000010
,
10000001
01000010
00011000
01000010
,
10000001
01000010
00011000
01000010
,
10001000
00100010
01000100
10011001
,
00000000
01000010
10000001
01000010
,
00011000
01000010
10000001
01000010
,
00011000
01000010
10000001
01000010
,
00010001
00100010
01000100
10011001
;

//---------------dance-couple - ----------------
#NOTES:
     dance-couple:
     :
     Medium:
     4:
     :
00000000
00000000
00000000
00000000
,
00000000
00000000
00000000
00000000
,
00000000
00000000
00000000
00000000
,
00100010
00010001
00100010
10001000
,
00100010
00010001
00000000
00000000
,
00010010
00000000
01100110
10011001
,
10000100
00000000
01100110
10011001
,
00000000
00011000
01000100
10000001
,
00100010
00011001
10001000
10010001
,
00010010
00000000
01100110
10011001
,
10000100
00000000
01100110
10011001
,
00000000
00011000
01000100
10000001
,
00100010
00011001
10001000
10010001
,
00000000
00100010
00100010
10011001
,
00010001
00110011
10001000
11001100
,
00100010
01000100
11001100
00000000
,
00010001
10001000
01000100
00110011
,
00000000
00100010
00100010
10011001
,
00010001
00110011
10001000
11001100
,
00100010
01000100
01010101
00000000
,
10001000
00010001
00100010
11001100
,
00100100
00011000
00100100
00011000
,
01000010
10000001
01000010
10000001
,
00100100
00011000
00100100
00011000
,
01000010
10000001
01000010
10000001
,
00010010
00000000
01100110
10011001
,
10000100
00000000
01100110
10011001
,
00000000
00011000
01000100
10000001
,
00100010
00011001
10001000
10010001
,
00010010
00000000
01100110
10011001
,
10000100
00000000
01100110
10011001
,
00000000
00011000
01000100
10000001
,
00100010
00011001
10001000
10010001
,
00000000
00100010
00100010
10011001
,
00010001
00110011
10001000
11001100
,
00100010
01000100
11001100
00000000
,
00010001
10001000
01000100
00110011
,
00000000
00100010
00100010
10011001
,
00010001
00110011
10001000
11001100
,
00100010
01000100
01010101
00000000
,
10001000
00010001
00100010
11001100
,
00000000
01000010
00011000
01000010
,
10000001
01000010
00011000
01000010
,
10000001
01000010
00011000
01000010
,
10001000
00100010
01000100
10011001
,
00000000
01000010
10000001
01000010
,
00011000
01000010
10000001
01000010
,
00011000
01000010
10000001
01000010
,
00010001
00100010
01000100
10011001
;

//---------------dance-couple - ----------------
#NOTES:
     dance-couple:
     :
     Hard:
     5:
     :
00000000
00000000
00000000
00000000
,
00000000
00000000
00000000
00000000
,
00000000
00000000
00000000
00000000
,
00000000
00000000
00000000
00000000
,
00000000
00000000
00000000
00000000
00000000
00000000
01000100
00100010
,
00100000
00000000
01000010
00000000
10010100
00000000
10001001
01000000
,
00000010
00000000
00100100
00000000
01001001
00000000
10010001
00000100
,
10001000
00000000
01000100
00000000
00010001
00000000
01000100
10001000
,
01000100
00000000
00010001
00000000
10001000
00000000
01000100
00010001
,
00100000
00000000
01000010
00000000
10010100
00000000
00011001
01000000
,
00000010
00000000
00100100
00000000
01001001
00000000
10011000
00000100
,
00010001
00000000
01000100
00000000
10001000
00000000
01000100
00010001
,
01000100
00000000
10001000
00000000
00010001
00000000
10001000
00010001
,
10011001
00000000
00100010
00000000
10011001
00000000
10001000
01000100
,
00100010
00110011
11001100
00000000
,
00010001
00000000
01000100
00000000
10001000
00100010
00010001
00000000
,
01000100
00000000
10001000
00000000
00010001
00000000
01000100
10001000
,
00100010
00000000
00100010
00000000
10011001
00000000
00010001
01000100
,
00100010
10101010
01010101
00000000
,
10001000
00000000
01000100
00000000
00010001
00100010
10001000
00000000
,
01000100
00000000
00010001
00000000
10001000
00000000
00010001
10001000
,
10011001
00000000
00100000
00000000
00010000
00000000
00100010
00010001
,
00100010
00000000
00000001
00000000
00000010
00000000
10000001
00100010
,
10000001
00000000
00100000
00000000
10000000
00000000
00100010
10001000
,
00100010
00000000
00001000
00000000
00000010
00000000
01000100
00100010
,
00100000
00000000
01000010
00000000
10010100
00000000
10001001
01000000
,
00000010
00000000
00100100
00000000
01001001
00000000
10010001
00000100
,
10001000
00000000
01000100
00000000
00010001
00000000
01000100
10001000
,
01000100
00000000
00010001
00000000
10001000
00000000
01000100
00010001
,
00100000
00000000
01000010
00000000
10010100
00000000
00011001
01000000
,
00000010
00000000
00100100
00000000
01001001
00000000
10011000
00000100
,
00010001
00000000
01000100
00000000
10001000
00000000
01000100
00010001
,
01000100
00000000
10001000
00000000
00010001
00000000
10001000
00010001
,
10011001
00000000
00100010
00000000
10011001
00000000
10001000
01000100
,
00100010
00110011
11001100
00000000
,
00010001
00000000
01000100
00000000
10001000
00100010
00010001
00000000
,
01000100
00000000
10001000
00000000
00010001
00000000
01000100
10001000
,
00100010
00000000
00100010
00000000
10011001
00000000
00010001
01000100
,
00100010
10101010
01010101
00000000
,
10001000
00000000
01000100
00000000
00010001
00100010
10001000
00000000
,
01000100
00000000
00010001
00000000
10001000
00000000
00010001
10001000
,
10011001
00000000
00100100
00000000
00010001
00000000
00100100
00011000
,
00100000
00000000
10000100
00000000
00101000
00000000
10000100
00100001
,
00010000
00000000
00100100
00000000
00010001
00000000
00100010
00011000
,
01000100
00000000
10001000
00000000
00010001
00000000
10001000
00010001
,
10011001
00000000
00100100
00000000
10001000
00000000
00100100
00011000
,
00000100
00000000
00100001
00000000
00010100
00000000
00100001
10000100
,
00001000
00000000
00100100
00000000
10001000
00000000
01000100
00011000
,
00100010
00010001
10001000
10011001
;

//---------------dance-couple - ----------------
#NOTES:
     dance-couple:
     :
     Challenge:
     5:
     :
00000000
00000000
00000000
00000000
,
00000000
00000000
00000000
00000000
,
00000000
00000000
00000000
00000000
,
00100010
00010001
00100010
10001000
,
00100010
00010001
00000000
01000000
,
00100001
00000000
01000000
00000000
10010001
00000000
10000000
01000000
,
00100001
00000000
01000000
00000000
10010001
00000000
00010000
01000000
,
10000001
00000000
01000000
00000000
00010001
00000000
01000000
10000000
,
01000001
00010000
10000001
00000100
,
10000010
00000000
00000100
00000000
10001001
00000000
00001000
00000100
,
10000010
00000000
00000100
00000000
10001001
00000000
00000001
00000100
,
10001000
00000000
00000100
00000000
10000001
00000000
00000100
00001000
,
10000100
00000001
10001000
00000000
,
10010001
00000000
00100000
00000000
10010001
00000000
10000000
01000000
,
00100001
00110000
11000001
00000000
,
00010001
00000000
01000000
00000000
10000001
00100000
00010000
00000000
,
01000001
10000000
00010001
01000000
,
10001001
00000000
00000010
00000000
10001001
00000000
00001000
00000100
,
10000010
00000011
10001100
00000000
,
10000001
00000000
00000100
00000000
10001000
00000010
00000001
00000000
,
10000100
00001000
10000001
00000100
,
10011001
00000000
00000010
00000000
00000001
00000000
00000010
00000001
,
00000010
00000000
00000001
00000000
00000010
00000000
00000001
00000010
,
00001000
00000000
00100000
00000000
00010000
00000000
00100000
00010000
,
00100000
00000000
00010000
00000000
00100000
00000000
00010000
00100000
,
10000000
00000000
00000100
00000000
10001001
00000000
00001000
00000100
,
10000010
00000000
00000100
00000000
10001001
00000000
00000001
00000100
,
10001000
00000000
00000100
00000000
10000001
00000000
00000100
00001000
,
10000100
00000000
00000001
00000000
10001000
00000000
00000100
00000001
,
10000010
00000000
01000000
00000000
10010001
00000000
10000000
01000000
,
00100001
00000000
01000000
00000000
10010001
00000000
00010000
01000000
,
10000001
00000000
01000000
00000000
00010001
00000000
01000000
10000000
,
01000001
00000000
00010000
00000000
10000001
00000000
01000000
00010000
,
00100001
00000000
00000010
00000000
10001001
00000000
00001000
00000100
,
10000010
00000011
10001100
00000000
,
10000001
00000000
00000100
00000000
10001000
00000010
00000001
00000000
,
10000100
00000000
00001000
00000000
10000001
00000000
00000100
00001000
,
10000010
00000000
00100000
00000000
10010001
00000000
10000000
01000000
,
00100001
00110000
11000001
00000000
,
00010001
00000000
01000000
00000000
10000001
00100000
00010000
00000000
,
01000001
00000000
10000000
00000000
00010001
00000000
01000000
10000000
,
10011001
00000000
00000010
00000000
10000001
00000000
00000010
00000001
,
10000010
00000000
00001000
00000000
10000010
00000000
00001000
00000010
,
10000001
00000000
00000010
00000000
10000001
00000000
00000010
00000001
,
10000100
00001000
10000001
00001001
,
10011001
00000000
00100000
00000000
00010001
00000000
00100000
00010000
,
00100001
00000000
10000000
00000000
00100001
00000000
10000000
00100000
,
00010001
00000000
00100000
00000000
00010001
00000000
00100000
00010000
,
01000001
10000000
00010001
10010000
;

//---------------dance-solo - ----------------
#NOTES:
     dance-solo:
     :
     Easy:
     3:
     :
000000
000000
000000
000000
,
000000
000000
000000
000000
,
000000
000000
000000
000000
,
010000
000001
000010
100000
,
010000
000001
000000
000000
,
000001
000000
000010
100001
,
010000
000000
010000
100001
,
000000
000010
001000
100000
,
000100
000001
010000
100001
,
000010
000000
000010
100001
,
010000
000000
010000
100001
,
000000
000010
001000
100000
,
000100
000001
010000
100001
,
000000
000010
010000
100001
,
000010
000100
100000
001000
,
000100
001000
010000
000000
,
000001
100000
001000
000100
,
000000
010000
000010
100001
,
000010
000100
100000
001000
,
000100
001000
000001
000000
,
010000
000010
000100
001000
,
001000
000001
001000
000010
,
001000
100000
001000
010000
,
001000
000001
001000
000010
,
001000
100000
001000
010000
,
000001
000000
000010
100001
,
010000
000000
010000
100001
,
000000
000010
001000
100000
,
000100
000001
010000
100001
,
000010
000000
000010
100001
,
010000
000000
010000
100001
,
000000
000010
001000
100000
,
000100
000001
010000
100001
,
000000
000010
010000
100001
,
000010
000100
100000
001000
,
000100
001000
010000
000000
,
000010
010000
001000
000100
,
000000
010000
000010
100001
,
000010
000100
100000
001000
,
000100
001000
000001
000000
,
010000
000010
000100
001000
,
000000
001000
000001
001000
,
100000
001000
000010
001000
,
010000
001000
000001
001000
,
100000
000100
001000
100001
,
000000
001000
010000
001000
,
000010
001000
100000
001000
,
000001
001000
010000
001000
,
000010
001000
000100
100001
;

//---------------dance-solo - ----------------
#NOTES:
     dance-solo:
     :
     Medium:
     5:
     :
000000
000000
000000
000000
,
000000
000000
000000
000000
,
000000
000000
000000
000000
,
000000
000000
000000
000000
,
000000
000000
000000
000000
000000
000000
001000
000010
,
000010
000000
001000
000000
100001
000000
100000
001000
,
010000
000000
001000
000000
100001
000000
000010
001000
,
010000
000000
001000
000000
000001
000000
001000
100000
,
001000
000000
000010
000000
010000
000000
001000
000001
,
000100
000000
001000
000000
100001
000000
000001
001000
,
000100
000000
001000
000000
100001
000000
100000
001000
,
000100
000000
000001
000000
001000
000000
000010
100000
,
000010
000000
010000
000000
000001
000000
100000
000010
,
001000
000000
000100
000000
100001
000000
010000
001000
,
000100
010001
101000
000000
,
000100
000000
000001
000000
100000
000100
001000
000000
,
001000
000000
100000
000000
000010
000000
001000
100000
,
000100
000000
010000
000000
100001
000000
000100
000001
,
010000
101000
000101
000000
,
010000
000000
001000
000000
000010
000001
000100
000000
,
001000
000000
100000
000000
000001
000000
010000
001000
,
000100
000000
010000
000000
000001
000000
000100
000001
,
000100
000000
000001
000000
010000
000000
000001
100000
,
000100
000000
000100
000000
100000
000000
000010
100000
,
000010
000000
100000
000000
000100
000000
001000
000010
,
000010
000000
001000
000000
100001
000000
100000
001000
,
000100
000000
001000
000000
100001
000000
000010
001000
,
010000
000000
001000
000000
000001
000000
001000
100000
,
001000
000000
000001
000000
100000
000000
001000
000001
,
000100
000000
001000
000000
100001
000000
000010
001000
,
000100
000000
001000
000000
100001
000000
010000
001000
,
000001
000000
001000
000000
010000
000000
001000
000001
,
001000
000000
100000
000000
000010
000000
010000
000100
,
001000
000000
000010
000000
100001
000000
100000
001000
,
000100
010001
100010
000000
,
000001
000000
001000
000000
100000
000010
001000
000000
,
001000
000000
100000
000000
000100
000000
010000
001000
,
000100
000000
000010
000000
100001
000000
000010
001000
,
000100
100010
010001
000000
,
000100
000000
001000
000000
100000
000001
001000
000000
,
000010
000000
100000
000000
000100
000000
010000
001000
,
000100
000000
000001
000000
100000
000000
000100
010000
,
000100
000000
100000
000000
001000
000000
000100
000001
,
010000
000000
000100
000000
001000
000000
000010
100000
,
001000
000000
000100
000000
000001
000000
100000
000100
,
001000
000000
000010
000000
010000
000000
001000
100000
,
001000
000000
000100
000000
000001
000000
010000
001000
,
000010
000000
001000
000000
100000
000000
000100
100000
,
010000
100000
000001
001100
;

//---------------dance-solo - ----------------
#NOTES:
     dance-solo:
     :
     Hard:
     7:
     :
000000
000000
000000
000000
,
000000
000000
000000
000000
,
000000
000000
000000
000000
,
000010
000000
000000
000000
001000
000000
000000
000010
000000
000000
100000
000000
001000
000000
000000
000000
,
010000
000000
000000
000000
001000
000000
000000
010000
000000
000000
000001
000000
001000
000000
000000
000000
,
000100
100000
001000
000100
000001
010000
010000
000000
,
000010
001000
000100
100000
001000
000100
000100
000000
,
000001
001000
100000
001000
010000
010000
010000
000000
,
000001
001000
000010
100000
001000
000000
000000
000000
,
000100
000001
001000
000100
100000
000010
000010
000000
,
100000
001000
000100
000001
100000
000010
000010
000000
,
001000
000100
100000
001000
010000
010000
010000
000000
,
000001
000100
000010
010000
000100
000000
000000
000000
,
100000
000001
001000
001000
001000
000000
100010
000000
,
000100
001000
010000
010000
010000
000000
100001
000000
,
000100
001000
000010
100000
001000
001000
001000
000000
,
010000
000001
000100
000010
100000
000000
010001
000000
,
000010
000100
001000
001000
001000
000000
100001
000000
,
000100
001000
000010
000010
000010
000000
100001
000000
,
001000
000100
000001
010000
000010
000010
000010
000000
,
001000
000100
100000
001000
010000
000000
100001
000000
,
000010
000000
000000
000000
010000
000000
000000
000100
000000
000000
100000
000000
001000
000000
000000
000000
,
000100
000000
000000
000000
000001
000000
000000
010000
000000
000000
000100
000000
001000
000000
000000
000000
,
000010
000000
000000
000000
100000
000000
000000
000001
000000
000000
010000
000000
001000
000000
000000
000000
,
000100
000000
000000
000000
000001
000000
000000
001000
000000
000000
000010
000000
100000
000000
000000
000000
,
010000
000001
000100
001000
100000
000100
000100
000000
,
001000
000010
100000
001000
000100
000001
000001
000000
,
100000
000100
001000
000001
100000
100000
100000
000000
,
000010
000100
001000
010000
000001
000000
000000
000000
,
100000
000100
001000
000010
100000
001000
001000
000000
,
000100
000001
100000
001000
010000
000001
000001
000000
,
001000
000100
100000
010000
001000
001000
001000
000000
,
000010
100000
001000
000100
000001
000000
000000
000000
,
010000
000010
001000
001000
001000
000000
100001
000000
,
010000
001000
000100
000100
000100
000000
100001
000000
,
000100
010000
000010
000100
000001
000001
000001
000000
,
000010
001000
000100
100000
010000
000000
100001
000000
,
001000
000100
010000
010000
010000
000000
100001
000000
,
000100
001000
010000
010000
010000
000000
100001
000000
,
001000
000010
100000
000100
010000
010000
010000
000000
,
001000
000100
000001
001000
000010
000000
100001
000000
,
000000
001000
000000
000100
100000
000010
000100
000000
,
000000
000001
000000
100000
001000
000100
000001
000000
,
000000
010000
000000
001000
100000
000100
010000
000000
,
000001
100000
001000
000100
000001
000000
000000
000000
,
000000
010000
000000
001000
100000
000001
001000
000000
,
000000
000100
000000
100000
000001
001000
000010
000000
,
000000
100000
000000
001000
000100
000001
000010
000000
,
001000
100000
000100
010000
000001
000000
100010
000000
;
